#VERSION:0.82;
#TITLE:The Downfall Of Us All;
#SUBTITLE:;
#ARTIST:A Day To Remember;
#TITLETRANSLIT:;
#SUBTITLETRANSLIT:;
#ARTISTTRANSLIT:;
#GENRE:Sing With The Intro Or Else;
#ORIGIN:;
#CREDIT:;
#BANNER:The Downfall Of Us All.png;
#BACKGROUND:The Downfall Of Us All-bg.png;
#PREVIEWVID:;
#JACKET:jacket.png;
#CDIMAGE:;
#DISCIMAGE:;
#LYRICSPATH:;
#CDTITLE:;
#MUSIC:The Downfall Of Us All.ogg;
#OFFSET:-0.375000;
#SAMPLESTART:48.378967;
#SAMPLELENGTH:13.714000;
#SELECTABLE:YES;
#BPMS:0.000=130.000;
#STOPS:;
#DELAYS:;
#WARPS:;
#TIMESIGNATURES:0.000=4=4;
#TICKCOUNTS:0.000=4;
#COMBOS:0.000=1;
#SPEEDS:0.000=1.000=0.000=0;
#SCROLLS:0.000=1.000;
#FAKES:;
#LABELS:0.000=Song Start;
#BGCHANGES:4.000=The Downfall Of Us All.avi=1.000=0=0=1=====,
99999=-nosongbg-=1.000=0=0=0 // don't automatically add -songbackground-
;
#KEYSOUNDS:;
#ATTACKS:
;

//---------------dance-single - ----------------
#NOTEDATA:;
#CHARTNAME:;
#STEPSTYPE:dance-single;
#DESCRIPTION:;
#CHARTSTYLE:;
#DIFFICULTY:Hard;
#METER:8;
#RADARVALUES:0.540500,0.611359,0.371343,0.014013,0.133123,485.000000,53.000000,2.000000,0.000000,0.000000,0.000000,0.000000,0.000000,0.540500,0.611359,0.371343,0.014013,0.133123,485.000000,53.000000,2.000000,0.000000,0.000000,0.000000,0.000000,0.000000;
#CREDIT:Ben Speirs;
#NOTES:
0000
0000
0000
0000
,
0000
0000
0000
0000
,
0000
0000
0000
0000
,
0000
0000
0000
0000
,
0001
0100
0001
0100
0010
0000
0110
0000
,
0000
1000
0100
1000
0100
0000
0110
0000
,
0001
0010
0100
1000
0001
0000
1000
0000
,
1010
0000
0000
0000
0101
0000
0000
0000
1000
0000
0000
0000
0001
0100
0001
0000
,
1000
0010
1000
0010
0100
0000
0110
0000
,
0000
0001
0010
0001
0010
0000
0110
0000
,
1000
0100
0010
0001
1000
0000
0001
0000
,
0101
0000
0000
0000
1010
0000
0000
0000
0001
0000
1000
0000
0010
0100
0010
0100
,
0001
1000
0100
1000
0001
0100
0010
1000
,
0100
0010
0001
1000
0000
0001
0100
0001
,
1000
1000
0100
0000
1000
0100
1000
0010
,
0100
0000
0001
0000
1000
0000
0100
0000
0010
0001
0010
0000
0100
1000
0100
0000
,
1000
0001
0010
0001
1000
0010
0100
0001
,
0010
0100
1000
0001
0010
0001
1000
0010
,
0100
0001
0000
1000
0000
0100
1000
0010
,
0110
0000
0000
0000
0101
0000
0000
0000
1000
0100
1000
0000
0001
0100
0001
0000
,
1000
0100
1000
0001
1000
0010
1000
0001
,
0000
0001
0100
0001
1000
0001
0010
0001
,
1000
0010
1010
0000
0001
0010
0011
0000
,
1000
0100
1100
0000
0001
0100
0101
0000
,
0001
0100
0001
0010
0001
1000
0001
0100
,
0000
1000
1000
0100
0001
0001
0000
0000
,
1001
0000
0100
0010
1000
1000
0010
0100
,
0001
0001
1000
1000
0100
1000
0010
0100
,
0001
0001
0000
1000
0100
0100
0000
1000
,
0010
0010
0100
0000
0001
0100
0010
0000
,
1001
0000
0010
0100
0001
0001
0100
0010
,
1000
1000
0001
0001
0010
0001
0100
0010
,
1000
1000
0000
0001
0010
0010
0000
0001
,
0100
0100
0010
0000
1000
0010
0100
0000
,
0001
0100
0001
0000
1000
0100
1000
0000
0001
0000
0010
0000
0100
0000
1000
0000
,
1001
1001
0000
0000
0000
0000
0000
0000
,
1000
0010
1000
0010
0100
0000
0110
0000
,
0000
0001
0010
0001
0010
0000
0110
0000
,
1000
0100
0010
0001
1000
0000
0001
0000
,
0101
0000
0000
0000
1010
0000
0000
0000
0001
0000
0000
0000
1000
0010
1000
0000
,
0001
0100
0001
0100
0010
0000
0110
0000
,
0000
1000
0100
1000
0100
0000
0110
0000
,
0001
0010
0100
1000
0001
0000
1000
0000
,
1010
0000
0000
0000
0101
0000
0000
0000
1000
0000
0001
0000
0100
0010
0100
0010
,
1000
1100
0000
1001
0000
0101
0000
1001
,
0010
1010
0000
1001
0000
0011
0000
1001
,
0100
1100
0000
1001
0000
0101
0000
0110
,
0010
0000
1010
0000
0000
0000
1000
0000
0001
0100
0001
0100
0010
1000
0010
1000
,
0100
0010
0001
0010
0100
1000
0001
1001
,
0000
0001
0100
0010
1000
0100
1100
0000
,
0001
1000
0100
0010
0001
0010
0100
1000
,
1100
0001
0101
1000
1010
0001
1001
0000
,
0100
0001
0100
0010
0100
1000
0100
0010
,
0000
0010
0001
0010
0100
0010
1000
0010
,
0100
0001
0101
0000
1000
0100
1100
0000
,
0001
0010
0011
0000
1000
0010
1010
0000
,
0010
0100
0010
0000
0000
0000
1000
0000
0001
1000
0001
0000
0000
0000
0010
0000
,
0011
0000
0000
0000
,
1100
0100
0010
0001
1000
1000
0010
0100
,
0001
0001
1000
1000
0010
0100
0001
0010
,
0100
0100
0000
1000
0010
0010
0000
0100
,
0001
0001
1000
1000
0100
0010
0001
0000
,
0011
0010
0100
1000
0001
0001
0100
0010
,
1000
1000
0001
0001
0100
0010
1000
0100
,
0010
0010
0000
0001
0100
0100
0000
0010
,
1000
1000
0001
0001
0010
0100
1000
0000
,
0001
0100
0001
0000
1000
0100
1000
0000
0001
0000
0010
0000
0100
0000
1000
0000
,
2002
0000
0000
3003
,
0001
0000
0100
0000
0001
0000
0100
0000
0010
1000
0000
0000
0010
1000
0000
0000
,
0000
0000
0001
0000
0001
0000
0000
0000
1000
0010
0000
0000
1000
0010
0000
0000
,
0100
0000
0001
0000
0100
0000
0001
0000
1000
0010
0000
0000
1000
0010
0000
0000
,
0100
0010
0000
0000
1000
0100
0000
0000
0010
0000
0001
0000
1000
0000
0100
0000
,
1000
0000
0010
0000
1000
0000
0010
0000
0100
0001
0000
0000
0100
0001
0000
0000
,
0000
0000
1000
0000
1000
0000
0000
0000
0001
0100
0000
0000
0001
0100
0000
0000
,
0010
0000
1000
0000
0010
0000
1000
0000
0001
0100
0000
0000
0001
0100
0000
0000
,
0010
0100
0000
0000
0001
0010
0000
0000
0100
0000
1000
0010
0000
0010
0100
0000
;

//---------------dance-single - ----------------
#NOTEDATA:;
#CHARTNAME:;
#STEPSTYPE:dance-single;
#DESCRIPTION:;
#CHARTSTYLE:;
#DIFFICULTY:Challenge;
#METER:10;
#RADARVALUES:0.766709,0.824006,0.133123,0.014013,0.872307,745.000000,19.000000,2.000000,0.000000,0.000000,0.000000,0.000000,0.000000,0.766709,0.824006,0.133123,0.014013,0.872307,745.000000,19.000000,2.000000,0.000000,0.000000,0.000000,0.000000,0.000000;
#CREDIT:Ben Speirs;
#NOTES:
// measure 0
0000
0000
0000
0000
,  // measure 1
0000
0000
0000
0000
,  // measure 2
0000
0000
0000
0000
,  // measure 3
0000
0000
0000
0000
,  // measure 4
0001
0100
0010
1000
0001
0100
0010
1000
0001
0100
0000
0000
0001
0100
0000
0000
,  // measure 5
0000
0000
0010
0000
0010
0000
0010
0000
0100
0001
0000
0000
0100
0001
0000
0000
,  // measure 6
1000
0100
0010
0001
1000
0100
0010
0001
1000
0100
0000
0000
0010
0001
0000
0000
,  // measure 7
1000
0010
0000
0000
0100
0001
0000
0000
1000
0001
0000
0000
0010
0100
1000
0000
,  // measure 8
1000
0010
0100
0001
1000
0010
0100
0001
1000
0010
0000
0000
1000
0010
0000
0000
,  // measure 9
0000
0000
0100
0000
0100
0000
0100
0000
0010
1000
0000
0000
0010
1000
0000
0000
,  // measure 10
0001
0010
0100
1000
0001
0010
0100
1000
0001
0010
0000
0000
0100
1000
0000
0000
,  // measure 11
0001
0100
0000
0000
0010
1000
0000
0000
0001
0100
0010
1000
0001
0010
0100
1000
,  // measure 12
0010
0100
0001
1000
0100
0010
0001
1000
,  // measure 13
0010
0100
0010
0000
1000
0000
0100
0000
1000
0000
0001
0000
0010
0000
0001
0000
,  // measure 14
1000
0010
1000
0000
0001
0000
0100
0000
0010
0000
1000
0000
0100
0000
0010
0000
,  // measure 15
0001
1000
0001
0000
0100
0000
0010
0000
1000
0100
1000
0000
0001
0100
0001
0000
,  // measure 16
1000
0010
1000
0000
0001
0000
0010
0000
0100
0000
1000
0000
0010
0000
0100
0000
,  // measure 17
0001
1000
0001
0000
0010
0000
0100
0000
1000
0000
0001
0000
0100
0000
0010
0000
,  // measure 18
1000
0100
1000
0000
0010
0000
0100
0000
0001
0000
0010
0000
0100
0000
1000
0000
,  // measure 19
0001
0010
0001
0000
1000
0000
0001
0000
0100
0010
1000
0100
0010
0001
0100
0010
,  // measure 20
1000
0001
0100
0001
0010
0001
1000
0001
0100
0001
0010
0001
1000
0001
0010
0001
,  // measure 21
0000
0000
0001
1000
0010
1000
0100
1000
0001
1000
0010
1000
0100
1000
0001
1000
,  // measure 22
0010
0100
0110
0001
0101
1000
1100
0001
,  // measure 23
1001
0100
0010
1000
0100
0100
0010
0000
,  // measure 24
0100
1000
0010
1000
0001
1000
0100
1000
0010
1000
0001
1000
0100
1000
0010
0100
,  // measure 25
0000
0000
0000
0101
0000
0000
0001
0000
0000
1000
0000
0000
0100
0000
0000
1000
0100
0010
0001
0000
0000
0000
0000
0000
,  // measure 26
1000
0100
1000
0100
0010
0000
0001
0000
1000
0010
1000
0010
0100
0000
0001
0000
,  // measure 27
1000
0100
1000
0100
0010
0000
0001
0000
1000
0010
1000
0010
0100
0000
0001
0000
,  // measure 28
1000
0100
1000
0000
0000
0000
0010
0000
0100
0001
0100
0000
0000
0000
0010
0000
,  // measure 29
1000
0001
1000
0000
0100
0010
0100
0010
0001
0000
1000
0000
0010
0000
0100
0000
,  // measure 30
0001
0010
0001
0010
0100
0000
1000
0000
0001
0100
0001
0100
0010
0000
1000
0000
,  // measure 31
0001
0010
0001
0010
0100
0000
1000
0000
0001
0100
0001
0100
0010
0000
1000
0000
,  // measure 32
0001
0010
0001
0000
0000
0000
0100
0000
0010
1000
0010
0000
0000
0000
0100
0000
,  // measure 33
0001
1000
0001
0000
0010
0100
0010
0000
0100
1000
0100
0000
1000
0001
1000
0000
,  // measure 34
0001
0010
0100
1000
0001
0100
0010
1000
0001
0010
0100
1000
0001
0100
0010
1000
,  // measure 35
0001
1001
0000
0000
0000
0000
0000
0000
,  // measure 36
1000
0010
0100
0001
1000
0010
0100
0001
1000
0010
0000
0000
1000
0010
0000
0000
,  // measure 37
0000
0000
0100
0000
0100
0000
0100
0000
0010
1000
0000
0000
0010
1000
0000
0000
,  // measure 38
0001
0010
0100
1000
0001
0010
0100
1000
0001
0010
0000
0000
0100
1000
0000
0000
,  // measure 39
0001
0100
0000
0000
0010
1000
0000
0000
0001
1000
0000
0000
0100
0010
0001
0000
,  // measure 40
0001
0100
0010
1000
0001
0100
0010
1000
0001
0100
0000
0000
0001
0100
0000
0000
,  // measure 41
0000
0000
0010
0000
0010
0000
0010
0000
0100
0001
0000
0000
0100
0001
0000
0000
,  // measure 42
1000
0100
0010
0001
1000
0100
0010
0001
1000
0100
0000
0000
0010
0001
0000
0000
,  // measure 43
1000
0000
0010
0000
0000
0000
0000
0000
0100
0000
0001
0000
0000
0000
0000
0000
1000
0000
0010
0000
0100
0000
0001
0010
0001
0000
0100
0000
0010
0000
1000
0000
,  // measure 44
0001
0100
0010
1000
0100
0010
0001
1000
,  // measure 45
0010
0100
0001
0000
1000
0000
0100
0000
0010
0000
0001
0000
1000
0000
0010
0000
,  // measure 46
1000
0001
0100
0000
0010
0000
1000
0000
0100
0000
0010
0000
0001
0000
1000
0000
,  // measure 47
0010
0100
0001
0000
1000
0000
0100
0000
0010
0001
0010
0001
1000
0100
1000
0100
,  // measure 48
0010
0001
1000
0000
0100
0000
0100
0000
1000
0000
1000
0000
0010
0000
0010
0000
,  // measure 49
0100
0001
0010
0000
0100
0000
0100
0000
1000
0000
1000
0000
1010
0000
0000
0000
,  // measure 50
0010
0100
0001
0000
1000
0000
1000
0000
0100
0010
0001
0000
0100
0000
0100
0000
,  // measure 51
0010
1000
0001
0000
0010
0000
0010
0000
0100
1000
0001
0000
1000
0000
1000
0000
,  // measure 52
0001
1000
0010
1000
0100
1000
0001
1000
0010
1000
0100
1000
0001
1000
0100
1000
,  // measure 53
0000
0000
1000
0001
0100
0001
0010
0001
1000
0001
0100
0001
0010
0001
1000
0001
,  // measure 54
0100
0010
0110
1000
1010
0001
0011
1000
,  // measure 55
1001
0010
0100
0001
0010
0010
0100
0000
,  // measure 56
0100
1000
0100
0000
1000
0000
0010
0000
0100
0001
0100
0000
0010
0000
1000
0000
,  // measure 57
1001
1010
1000
0001
0010
0011
0000
0000
,  // measure 58
0001
0010
0001
0010
0100
0000
1000
0000
0001
0100
0001
0100
0010
0000
1000
0000
,  // measure 59
0001
0010
0001
0010
0100
0000
1000
0000
0001
0100
0001
0100
0010
0000
1000
0000
,  // measure 60
0001
0010
0001
0000
0100
0000
0100
0000
0010
1000
0010
0000
0100
0000
0100
0000
,  // measure 61
0001
1000
0001
0000
0010
0100
0010
0100
1000
0000
0001
0000
0100
0000
0010
0000
,  // measure 62
1000
0100
1000
0100
0010
0000
0001
0000
1000
0010
1000
0010
0100
0000
0001
0000
,  // measure 63
1000
0100
1000
0100
0010
0000
0001
0000
1000
0010
1000
0010
0100
0000
0001
0000
,  // measure 64
1000
0100
1000
0000
0010
0000
0010
0000
0100
0001
0100
0000
0010
0000
0010
0000
,  // measure 65
1000
0001
1000
0000
0100
0010
0100
0000
0010
0001
0010
0000
0001
1000
0001
0000
,  // measure 66
1000
0100
0010
0001
1000
0010
0100
0001
1000
0100
0010
0001
1000
0010
0100
0002
,  // measure 67
2000
0000
0000
3003
,  // measure 68
0001
0100
0010
1000
0100
0010
0001
1000
0010
0100
0000
0000
0010
0100
0000
0000
,  // measure 69
0001
0000
1000
0000
0001
0000
1000
0000
0010
0100
0000
0000
0010
0100
0000
0000
,  // measure 70
0001
0010
0100
1000
0001
0100
0010
1000
0001
0100
0000
0000
0010
1000
0000
0000
,  // measure 71
0001
0010
0000
0000
0100
1000
0000
0000
1001
0000
0110
0000
1001
0000
0110
0000
,  // measure 72
1000
0010
0100
0001
0010
0100
1000
0001
0100
0010
0000
0000
0100
0010
0000
0000
,  // measure 73
1000
0000
0001
0000
1000
0000
0001
0000
0100
0010
0000
0000
0100
0010
0000
0000
,  // measure 74
1000
0100
0010
0001
1000
0010
0100
0001
1000
0010
0000
0000
0100
0001
0000
0000
,  // measure 75
1000
0100
0000
0000
0010
0001
0000
0000
1001
0000
0001
1000
0100
1000
0010
0000
;

//---------------dance-single - ----------------
#NOTEDATA:;
#CHARTNAME:;
#STEPSTYPE:dance-single;
#DESCRIPTION:;
#CHARTSTYLE:;
#DIFFICULTY:Medium;
#METER:6;
#RADARVALUES:0.374346,0.451874,0.133123,0.140130,0.000000,335.000000,19.000000,20.000000,0.000000,0.000000,0.000000,0.000000,0.000000,0.374346,0.451874,0.133123,0.140130,0.000000,335.000000,19.000000,20.000000,0.000000,0.000000,0.000000,0.000000,0.000000;
#CREDIT:Ben Speirs;
#NOTES:
0000
0000
0000
0000
,
0000
0000
0000
0000
,
0000
0000
0000
0000
,
0000
0000
0000
0000
,
0001
1000
0001
1000
0001
0000
1000
0000
,
0000
0001
1000
0001
1000
0000
0001
0000
,
1000
0001
1000
0001
1000
0000
0001
0000
,
1000
0001
1000
0010
,
1000
0001
1000
0001
1000
0000
0001
0000
,
0000
1000
0001
1000
0001
0000
1000
0000
,
0001
1000
0001
1000
0001
0000
1000
0000
,
0001
0000
1000
0000
0001
1000
0001
0000
,
0000
0100
0000
0010
0000
1000
0000
0100
,
0010
0001
0000
1000
0000
0001
0000
0100
,
0010
1000
0000
0001
0000
0010
0000
0001
,
1000
0100
0000
1000
0000
1100
0000
0101
,
0000
1000
0000
0001
0000
0100
0000
0010
,
1000
0001
0000
0010
0000
0001
0000
1000
,
0100
0010
0000
0001
0000
1000
0000
0010
,
0010
0000
0100
0000
0001
1000
0001
0000
,
2000
0100
0100
3100
,
0000
0002
0100
0103
,
0000
1001
0100
1001
,
0100
0000
1000
0100
0010
0000
0001
0000
,
2000
0000
0100
0000
0100
0000
3010
0010
,
0000
0000
0000
0000
,
2000
3001
0200
0310
,
2000
0000
3001
0000
0010
0100
1000
0000
,
0001
0001
0000
0000
1000
1000
0000
0000
,
0010
0000
0010
0000
0100
0010
0100
0000
,
0002
1003
0020
0130
,
0002
0000
1003
0000
0100
0010
0001
0000
,
1000
1000
0000
0000
0001
0001
0000
0000
,
0100
0000
0100
0000
0010
0100
0010
0000
,
1001
1001
0110
0110
,
1000
1000
0000
0000
0000
0000
0000
0000
,
1000
0001
1000
0001
1000
0000
0001
0000
,
0000
1000
0001
1000
0001
0000
1000
0000
,
0001
1000
0001
1000
0001
0000
1000
0000
,
0001
1000
0001
0100
,
0001
1000
0001
1000
0001
0000
1000
0000
,
0000
0001
1000
0001
1000
0000
0001
0000
,
1000
0001
1000
0001
1000
0000
0001
0000
,
1000
0000
0001
0000
1000
0001
1000
0000
,
0100
0010
0001
1000
,
0010
0100
0001
0000
1000
0000
0001
0000
,
0010
0100
1000
0000
0001
0000
1000
0000
,
0010
0100
0001
0000
1000
0000
0000
0000
,
0000
0001
0100
0001
0100
0001
0100
0001
,
0000
1000
0100
1000
0100
1000
0100
0000
,
0000
1000
0010
1000
0010
1000
0010
1000
,
0000
0001
0010
0001
0010
0001
0010
0000
,
0002
0100
0100
0103
,
0000
2000
0100
3100
,
0000
1001
0100
1001
,
0100
0000
1000
0100
0010
0000
0001
0000
,
2000
0100
0100
0100
,
3001
0000
0000
0000
,
0002
1003
0020
0130
,
0002
0000
1003
0000
0100
0010
0001
0000
,
1000
1000
0000
0000
0001
0001
0000
0000
,
0100
0000
0100
0000
0010
0100
0010
0000
,
2000
3001
0200
0310
,
2000
0000
3001
0000
0010
0100
1000
0000
,
0001
0001
0000
0000
1000
1000
0000
0000
,
0010
0000
0010
0000
0100
0010
0100
0000
,
1001
1001
0110
0110
,
2002
0000
0000
3003
,
0001
1000
0001
1000
0010
0000
0010
0000
,
0000
1000
0001
1000
0010
0000
0010
0000
,
1000
0001
1000
0001
0010
0000
0010
0000
,
0100
0100
0110
1001
,
1000
0001
1000
0001
0010
0000
0010
0000
,
0000
0001
1000
0001
0010
0000
0010
0000
,
0001
1000
0001
1000
0010
0000
0010
0000
,
1010
0000
0101
0000
1000
0001
1000
0001
;

//---------------dance-single - ----------------
#NOTEDATA:;
#CHARTNAME:;
#STEPSTYPE:dance-single;
#DESCRIPTION:;
#CHARTSTYLE:;
#DIFFICULTY:Easy;
#METER:3;
#RADARVALUES:0.209193,0.238045,0.049045,0.098091,0.000000,188.000000,7.000000,14.000000,0.000000,0.000000,0.000000,0.000000,0.000000,0.209193,0.238045,0.049045,0.098091,0.000000,188.000000,7.000000,14.000000,0.000000,0.000000,0.000000,0.000000,0.000000;
#CREDIT:Ben Speirs;
#NOTES:
0000
0000
0000
0000
,
0000
0000
0000
0000
,
0000
0000
0000
0000
,
0000
0000
0000
0000
,
0001
1000
0001
0000
,
1000
0000
0001
0000
,
1000
0001
1000
0000
,
0001
0000
1000
0000
,
0010
0100
0010
0000
,
0100
0000
0010
0000
,
0100
0010
0100
0000
,
0010
0000
0100
0000
,
0001
1000
0001
0000
,
1000
0100
1000
0000
,
0001
0010
0001
0000
,
1000
0010
1000
0000
,
0001
1000
0001
0000
,
0010
0100
0010
0000
,
0100
1000
0100
0000
,
1000
0001
1000
0000
,
0020
0030
0010
0000
,
0200
0300
0100
0000
,
0000
0001
0001
1000
,
1000
0100
0010
0001
,
2000
3000
1000
0000
,
1001
0000
0000
0000
,
0000
0010
1000
0100
,
0010
0010
0001
0000
,
2000
3000
0002
0003
,
0100
0100
0100
0000
,
0001
0010
0100
1000
,
0010
0010
0100
0000
,
0002
0003
2000
3000
,
0100
0100
0100
0000
,
1001
0000
0100
0000
,
1001
0000
0000
0000
,
0010
0100
0010
0000
,
0100
0000
0010
0000
,
0100
0010
0100
0000
,
0010
0000
0100
0000
,
0001
1000
0001
0000
,
1000
0000
0001
0000
,
1000
0001
1000
0000
,
0001
0000
1000
0000
,
0100
0010
0001
0000
,
0100
0010
1000
0000
,
0001
1000
0010
0000
,
0100
0001
1000
0000
,
0000
0100
0100
0100
,
0000
1000
1000
1000
,
0000
0001
0001
0001
,
0100
0010
1000
0001
,
2000
3000
1000
0000
,
0002
0003
0001
0000
,
0000
0100
0100
0010
,
0010
1000
0001
0000
,
2000
3000
1000
0000
,
1001
0000
0000
0000
,
0000
0001
0010
0001
,
1000
1000
0100
0000
,
2000
3000
0002
0003
,
0100
0100
0100
0000
,
0010
0100
0001
1000
,
0100
0100
1000
0000
,
0002
0003
2000
3000
,
0010
0010
0010
0000
,
1001
0000
0010
0000
,
1001
0000
0000
0000
,
1000
0100
1000
0000
,
0100
0000
1000
0000
,
0100
1000
0100
0000
,
1000
0000
0100
0000
,
1000
0001
1000
0000
,
0001
0000
1000
0000
,
0001
1000
0001
0000
,
1000
0000
1001
0000
;

//---------------dance-single - ----------------
#NOTEDATA:;
#CHARTNAME:;
#STEPSTYPE:dance-single;
#DESCRIPTION:;
#CHARTSTYLE:;
#DIFFICULTY:Beginner;
#METER:2;
#RADARVALUES:0.115106,0.185759,0.042039,0.000000,0.000000,109.000000,6.000000,0.000000,0.000000,0.000000,0.000000,0.000000,0.000000,0.115106,0.185759,0.042039,0.000000,0.000000,109.000000,6.000000,0.000000,0.000000,0.000000,0.000000,0.000000,0.000000;
#CREDIT:Ben Speirs;
#NOTES:
0000
0000
0000
0000
,
0000
0000
0000
0000
,
0000
0000
0000
0000
,
0000
0000
0000
0000
,
0100
0000
0000
0000
,
0100
0000
0000
0000
,
0100
0000
0000
0000
,
0100
0000
0001
0000
,
0010
0000
0000
0000
,
0010
0000
0000
0000
,
0010
0000
0000
0000
,
0010
0000
0100
0000
,
1000
0000
0000
0000
,
0001
0000
0000
0000
,
0100
0000
0000
0000
,
0010
0000
0010
0000
,
1000
0000
0000
0000
,
0100
0000
0000
0000
,
0010
0000
0000
0000
,
0001
0000
0001
0000
,
1000
0000
0000
0000
,
0010
0000
0000
0000
,
0000
0100
0000
0100
,
0000
0100
0000
0000
,
0001
0000
0000
0000
,
1001
0000
0000
0000
,
1001
0000
0000
0000
,
0100
0100
0000
0000
,
1000
0000
1000
0000
,
1000
0000
0000
0000
,
1001
0000
0000
0000
,
0010
0010
0000
0000
,
0100
0000
0000
0000
,
0100
0000
0000
0000
,
0001
0000
0001
0000
,
1000
0000
0000
0000
,
0001
0000
0000
0000
,
0001
0000
0000
0000
,
0001
0000
0000
0000
,
0001
0000
1000
0000
,
0010
0000
0000
0000
,
0010
0000
0000
0000
,
0010
0000
0000
0000
,
0010
0000
0100
0000
,
0001
0000
0000
0000
,
1000
0000
0000
0000
,
0100
0000
0000
0000
,
0010
0000
0010
0000
,
0000
0001
0001
0000
,
0000
1000
1000
0000
,
0000
0010
0010
0000
,
0100
0000
0100
0000
,
0100
0000
0001
0000
,
1000
0000
0010
0000
,
0000
1000
0000
1000
,
0000
1000
0000
0000
,
0100
0000
0100
0000
,
0100
0000
0000
0000
,
1001
0000
0100
0000
,
0010
0010
0010
0000
,
1000
0000
1000
0000
,
0001
0000
0000
0000
,
1001
0000
0100
0000
,
0010
0010
0010
0000
,
0001
0000
1000
0000
,
0010
0000
0000
0000
,
0100
0000
0100
0000
,
0010
0000
0000
0000
,
1001
0000
0000
0000
,
0100
0000
0100
0100
,
0100
0000
0000
0000
,
0010
0000
0010
0010
,
0010
0000
0000
0000
,
0001
0000
0001
0001
,
0001
0000
0000
0000
,
1000
0000
1000
1000
;

//---------------dance-double - ----------------
#NOTEDATA:;
#CHARTNAME:;
#STEPSTYPE:dance-double;
#DESCRIPTION:;
#CHARTSTYLE:;
#DIFFICULTY:Challenge;
#METER:10;
#RADARVALUES:0.789730,0.797425,0.329305,0.007006,0.816255,741.000000,47.000000,1.000000,0.000000,0.000000,0.000000,0.000000,0.000000,0.789730,0.797425,0.329305,0.007006,0.816255,741.000000,47.000000,1.000000,0.000000,0.000000,0.000000,0.000000,0.000000;
#CREDIT:Ben Speirs;
#NOTES:
00000000
00000000
00000000
00000000
,
00000000
00000000
00000000
00000000
,
00000000
00000000
00000000
00000000
,
00000000
00000000
00000000
00000000
,
10000000
01000000
00100000
00010000
10000000
01000000
00100000
00010000
10000000
00010000
00000000
00000000
10000000
00010000
00000000
00000000
,
10000000
00000000
00100000
00000000
01000000
00000000
00010000
00000000
00100000
00010000
00000000
00000000
00100000
00010000
00000000
00000000
,
00100000
00001000
00010000
00000100
00100000
00001000
00010000
00000100
00100000
00001000
00000000
00000000
00010000
00001000
00000000
00000000
,
00010000
00000100
00000000
00000000
00001000
00000001
00000000
00000000
00000100
00000010
00000000
00000000
00001000
00000010
00000100
00000000
,
00000001
00000010
00000100
00001000
00000001
00000010
00000100
00001000
00000001
00001000
00000000
00000000
00000001
00001000
00000000
00000000
,
00000001
00000000
00000100
00000000
00000010
00000000
00001000
00000000
00000100
00001000
00000000
00000000
00000100
00001000
00000000
00000000
,
00000100
00010000
00001000
00100000
00000100
00010000
00001000
00100000
00000100
00010000
00000000
00000000
00001000
00010000
00000000
00000000
,
00001000
00100000
00000000
00000000
00010000
10000000
00000000
00000000
00100000
10000000
01000000
00100000
00010000
10000000
00100000
01000000
,
00010000
10000000
01000000
00100000
00010000
01000000
00100000
00010000
,
00001000
00010000
00001000
00000000
00010000
00000000
00000100
00000000
00001000
00000000
00000010
00000000
00000100
00000000
00000001
00000000
,
00000010
00000100
00000010
00000000
00000001
00000000
00001000
00000000
00000010
00000000
00000100
00000000
00000001
00000000
00000010
00000000
,
00001000
00000010
00001000
00000000
00000010
00000000
00000001
00000000
00000100
00000010
00000100
00000000
00000001
00000100
00000001
00000000
,
00001000
00000100
00010000
00000000
00001000
00000000
00100000
00000000
00010000
00000000
00110000
00000000
00100000
00000000
00010000
00000000
,
10000000
00100000
01000000
00000000
00010000
00000000
10000000
00000000
00100000
00000000
01000000
00000000
00010000
00000000
01010000
00000000
,
01000000
00100000
10000000
00000000
00010000
00000000
00100000
00000000
01000000
00000000
00100000
00000000
00010000
00000000
00110000
00000000
,
00100000
00001000
00010000
00000000
00001000
00010000
00000100
00000000
00001000
00000010
00000100
00000000
00000001
00001000
00000001
00000000
,
00001000
00000100
00001000
00000100
00001000
00000100
00001000
00000100
00010000
00000000
00010000
00000000
00001000
00000000
00100000
00000000
,
00010000
00100000
00010000
00100000
00010000
00100000
00010000
00100000
00001000
00000000
00001000
00000000
00010000
00000000
00000100
00000000
,
00001000
00000000
00000010
00000000
00001010
00001000
00000001
00000000
00000010
00000000
00000001
00000000
00000011
00000001
00001000
00000000
,
00000010
00000000
00001000
00000000
00001100
00000100
00001000
00000000
00000001
00000000
00000100
00000000
00000101
00000100
00000010
00000000
,
00001000
00000000
00000100
00001000
00000100
00000000
00010000
00000100
00010000
00000000
00001000
00010000
00001000
00000000
00100000
00000000
,
00000000
00000000
00000000
00110000
00000000
00000000
00011000
00000000
00000000
00001100
00000000
00000000
00010100
00000000
00000000
00010000
00001000
00010000
00001000
00000000
00000000
00000000
00000000
00000000
,
00110000
00000000
00010000
00000000
10000000
00100000
10000000
00100000
01000000
00000000
00010000
00000000
10000000
01000000
10000000
01000000
,
00100000
00000000
00010000
00000000
10000000
00100000
10000000
00100000
01000000
00000000
00010000
00000000
10000000
00000000
01000000
00000000
,
00100000
00010000
01000000
00000000
00100000
00000000
01100000
00000000
00100000
10000000
01000000
00000000
00100000
00000000
01100000
00000000
,
00100000
00010000
00100000
00000000
00001000
00010000
00001000
00000000
00010000
00000100
00001000
00000000
00000010
00000000
00000000
00000000
,
00001100
00000000
00001000
00000000
00000001
00000100
00000001
00000100
00000010
00000000
00001000
00000000
00000001
00000010
00000001
00000010
,
00000100
00000000
00001000
00000000
00000001
00000100
00000001
00000100
00000010
00000000
00001000
00000000
00000001
00000000
00000010
00000000
,
00000100
00001000
00000010
00000000
00000100
00000000
00000110
00000000
00000100
00000001
00000010
00000000
00000100
00000000
00000110
00000000
,
00000100
00001000
00000100
00000000
00010000
00001000
00010000
00000000
00001000
00100000
00010000
00000000
01000000
00000000
00100000
00000000
,
10000000
01000000
00100000
00010000
01000000
00100000
01000000
00010000
00100000
00001000
00010000
00000100
00001000
00000010
00000100
00000001
,
00001000
00001100
00000000
00000000
00000000
00000000
00000000
00000000
,
00000001
00001000
00000001
00001000
00000001
00001000
00000001
00001000
00000010
00000010
00000000
00000000
00000010
00000010
00000000
00000000
,
00001000
00000000
00000100
00000000
00000010
00000000
00000001
00000000
00000100
00000100
00000000
00000000
00000100
00000100
00000000
00000000
,
00000001
00000100
00000001
00000100
00000010
00001000
00000010
00001000
00000100
00000100
00000000
00000000
00010000
00010000
00000000
00000000
,
00001000
00001000
00000000
00000000
00100000
00100000
00000000
00000000
00010000
00010000
00000000
00000000
10000000
00100000
01000000
00000000
,
00010000
10000000
00100000
01000000
00010000
10000000
00100000
01000000
00010000
10000000
00000000
00000000
00010000
10000000
00000000
00000000
,
00100000
00000000
10000000
00000000
01000000
00000000
00100000
00000000
00010000
01000000
00000000
00000000
00010000
01000000
00000000
00000000
,
00010000
00100000
00010000
00100000
00001000
00010000
00001000
00010000
00000100
00001000
00000000
00000000
00000010
00001000
00000000
00000000
,
00000001
00000100
00000000
00000000
00000010
00001000
00000000
00000000
00000001
00000010
00000100
00001000
00000010
00000100
00000001
00001000
,
00000010
00000110
00000100
00000110
00000010
00001000
00000100
00000010
,
00000001
00001000
00000001
00000000
00001000
00000000
00001100
00000000
00000100
00000000
00010100
00000000
00010000
00000000
00001000
00000000
,
00100000
00010000
01000000
00000000
00100000
00000000
01100000
00000000
10000000
00000000
10100000
00000000
00010000
00000000
00100000
00000000
,
00010000
00100000
01000000
00000000
10000000
00000000
00010000
00000000
10000000
01000000
10000000
01000000
10000000
01000000
10000000
01000000
,
00100000
00010000
01000000
00000000
00100000
00000000
01100000
00000000
01000000
00000000
01010000
00000000
00010000
00000000
00100000
00000000
,
00010000
00100000
00001000
00000000
00010000
00000000
00011000
00000000
00010100
00000000
00001010
00000000
00000101
00000000
00000000
00000000
,
00000001
00000100
00000010
00000000
00001000
00000000
00000100
00000000
00000010
00000001
00000100
00000000
00000010
00000000
00001000
00000000
,
00000100
00010000
00001000
00000000
00100000
00001000
00010000
00000000
00001000
00100000
00010000
01000000
00100000
10000000
01000000
00100000
,
00010000
00010000
01000000
00010000
00100000
00010000
10000000
00010000
01000000
00010000
00100000
00010000
10000000
00000000
10010000
00000000
,
00000000
00000000
10000000
10000000
01000000
10000000
00010000
10000000
00100000
10000000
01000000
10000000
00100000
01000000
00010000
00100000
,
01000000
10000000
11000000
01000000
01100000
00100000
00110000
00010000
,
00110000
00100000
00001000
00100000
00011000
00010000
00000100
00001000
,
00000010
00001000
00000100
00000000
00000010
00000000
00000001
00000000
00000100
00000010
00000100
00000000
00000001
00000000
00000010
00000100
,
00001000
00000000
00000100
00010000
00000100
00010000
00001000
00010000
00001000
00000000
00100000
00000000
00000000
00000000
00000000
00000000
,
00001100
00000000
00001000
00000000
00000001
00000100
00000001
00000100
00000010
00000000
00001000
00000000
00000001
00000010
00000001
00000010
,
00000100
00000000
00001000
00000000
00000001
00000100
00000001
00000100
00000010
00000000
00001000
00000000
00000001
00000000
00000010
00000000
,
00000100
00001000
00000010
00000000
00000100
00000000
00000110
00000000
00000100
00000001
00000010
00000000
00000100
00000000
00000110
00000000
,
00000100
00001000
00000100
00000000
00010000
00001000
00010000
00000000
00001000
00100000
00010000
00000000
01000000
00000000
00000000
00000000
,
00110000
00000000
00010000
00000000
10000000
00100000
10000000
00100000
01000000
00000000
00010000
00000000
10000000
01000000
10000000
01000000
,
00100000
00000000
00010000
00000000
10000000
00100000
10000000
00100000
01000000
00000000
00010000
00000000
10000000
00000000
01000000
00000000
,
00100000
00010000
01000000
00000000
00100000
00000000
01100000
00000000
00100000
10000000
01000000
00000000
00100000
00000000
01100000
00000000
,
00100000
00010000
00100000
00000000
00001000
00010000
00001000
00000000
00010000
00000100
00001000
00000000
00000010
00000000
00000100
00000000
,
00000001
00000010
00000100
00001000
00000010
00000100
00000010
00001000
00000100
00010000
00001000
00100000
00010000
01000000
00100000
10000000
,
00020000
00000000
01000000
00000000
01000000
01030000
00000000
00000000
,
10000000
00010000
10000000
00010000
10000000
00010000
10000000
00010000
01000000
01000000
00000000
00000000
01000000
01000000
00000000
00000000
,
00010000
00000000
00100000
00000000
01000000
00000000
10000000
00000000
00100000
00100000
00000000
00000000
00100000
00100000
00000000
00000000
,
10000000
00100000
10000000
00100000
01000000
00010000
01000000
00010000
00100000
00100000
00000000
00000000
00001000
00001000
00000000
00000000
,
00010000
00010000
00000000
00000000
00000100
00000100
00000000
00000000
00001000
00000000
00000010
00000100
00000000
00000100
00000001
00000000
,
00001000
00000100
00000010
00000001
00000010
00000100
00001000
00000001
00000100
00000010
00000000
00000000
00000100
00000010
00000000
00000000
,
00001000
00000100
00010000
00001000
00011000
00101000
00110000
00010000
,
10000000
01000000
00100000
00010000
10000000
01000000
00100000
00010000
10000000
00100000
00000000
00000000
01000000
00010000
00000000
00000000
,
11000000
00000000
00000000
00000000
01010000
00000000
00000000
00000000
10000000
00000000
00100000
01000000
00000000
01000000
00010000
00000000
;
