#TITLE:Cruella De Vil;
#SUBTITLE:;
#ARTIST:Disney Grooves;
#TITLETRANSLIT:;
#SUBTITLETRANSLIT:;
#ARTISTTRANSLIT:;
#CREDIT:;
#BANNER:;
#BACKGROUND:;
#LYRICSPATH:;
#CDTITLE:./CDTITLES/DanceDanceRevolution Disney Grooves.png;
#MUSIC:Cruella De Vil.mp3;
#OFFSET:-0.072;
#SAMPLESTART:64.040;
#SAMPLELENGTH:15.000;
#SELECTABLE:YES;
#BPMS:0.000=97.000;
#STOPS:;
#BGCHANGES:;

//---------------dance-single - ----------------
#NOTES:
     dance-single:
     :
     Beginner:
     1:
     0.100,0.134,0.000,0.000,0.000:
0000
0000
0000
0000
,
0000
0000
0000
0000
,
0000
0000
0000
0000
,
0000
0000
0000
0000
,
1000
0000
0000
0000
,
0001
0000
0000
0000
,
1000
1000
0000
0000
,
0001
0001
0000
0000
,
0010
0000
0010
0000
,
1000
1000
1000
0000
,
0001
0000
0010
0000
,
1000
0000
0010
0000
,
1000
1000
0000
0000
,
0001
0001
0000
0000
,
0001
0000
1000
0000
,
0001
0000
0001
0000
,
1000
0000
0001
0000
,
0010
0010
0010
0000
,
1000
0000
0000
0000
,
0010
0000
0010
0000
,
0001
0000
0000
0000
,
0010
0000
0010
0000
,
1000
1000
1000
0000
,
0001
0001
0001
0000
,
1000
0000
0001
0000
,
0010
0000
0000
0000
,
1000
1000
0000
0000
,
0001
0001
0000
0000
,
0010
0000
0010
0000
,
1000
1000
1000
0000
,
0001
0000
0010
0000
,
1000
0000
0010
0000
,
1000
1000
0000
0000
,
0001
0001
0000
0000
,
0001
0000
1000
0000
,
0001
0000
0001
0000
,
1000
0000
0001
0000
,
0010
0010
0010
0000
;

//---------------dance-single - ----------------
#NOTES:
     dance-single:
     :
     Easy:
     2:
     0.127,0.134,0.000,0.000,0.000:
0000
0000
0000
0000
,
0000
0000
0000
0000
,
0000
0000
0000
0000
,
0000
0000
0000
0000
,
1000
0000
1000
0000
,
0001
0000
0001
0000
,
1000
1000
1000
0000
,
0001
0001
0001
0000
,
0010
0100
0010
0000
,
1000
1000
1000
0000
,
0001
0100
0010
0000
,
1000
0100
0010
0000
,
1000
1000
0000
0000
,
0001
0001
0000
0000
,
0001
0000
1000
0000
,
0001
0000
0001
0000
,
1000
0000
0001
0000
,
0010
0010
0010
0000
,
1000
0000
1000
0000
,
0010
0010
0010
0000
,
0001
0000
0001
0000
,
0100
0100
0100
0000
,
1000
1000
1000
0000
,
0001
0001
0001
0000
,
1000
0000
0001
0000
,
0010
0000
0000
0000
,
1000
1000
1000
0000
,
0001
0001
0001
0000
,
0010
0100
0010
0000
,
1000
1000
1000
0000
,
0001
0100
0010
0000
,
1000
0100
0010
0000
,
1000
1000
0000
0000
,
0001
0001
0000
0000
,
0001
0000
1000
0000
,
0001
0000
0001
0000
,
1000
1000
0001
0001
,
0010
0010
0010
0000
;

//---------------dance-single - ----------------
#NOTES:
     dance-single:
     :
     Medium:
     4:
     0.151,0.172,0.031,0.020,0.000:
0000
0000
0000
0000
,
0000
0000
0000
0000
,
0000
0000
0000
0000
,
0000
0000
0000
0000
,
0010
0001
1000
0000
,
0001
0000
0001
0000
,
1000
0010
1000
0000
,
0001
0010
0001
0000
,
0010
0000
0100
0000
,
1000
1000
1000
0000
,
0001
0001
0010
0010
,
1000
1000
0010
0010
,
1000
1000
0100
0000
,
0001
0001
0100
0000
,
0010
1000
0100
0000
,
0001
0000
0001
0000
,
1000
1000
0001
0001
,
1000
0001
1001
0000
,
1000
0001
0100
0000
,
0010
0000
0100
0000
,
0001
1000
0100
0000
,
0010
0000
0100
0000
,
0010
1000
0001
0000
,
0010
0001
1000
0000
,
0001
0001
1000
1000
,
2002
0000
0000
3003
,
0010
1000
0100
0000
,
0001
0000
0001
0000
,
0010
0001
0100
0000
,
1000
0000
1000
0000
,
0001
0001
0100
0100
,
1000
1000
0010
0010
,
1000
1000
0100
0000
,
0001
0001
0100
0000
,
0010
1000
0100
0000
,
0001
0000
0001
0000
,
1000
1000
0001
0001
,
1000
0001
1001
0000
;

//---------------dance-single - ----------------
#NOTES:
     dance-single:
     :
     Hard:
     6:
     0.218,0.248,0.214,0.041,0.000:
0000
0000
0000
0000
,
0000
0000
0000
0000
,
0000
0000
0000
0000
,
0000
0000
0000
0000
,
0010
0001
1000
0010
,
0002
0000
2000
3003
,
0010
1000
0010
0100
,
0010
0001
0010
0100
,
1000
0100
0001
0100
,
1000
0010
0001
1001
,
0001
0011
0010
1010
,
1000
1100
0100
0101
,
1000
1000
0100
0100
,
0001
0001
0100
0100
,
0010
1000
0100
1000
,
0001
0001
1000
1000
,
0010
0100
0001
0010
,
0100
0010
1001
0000
,
1000
0001
0100
0001
,
0110
0000
1000
1000
,
0001
1000
0100
1000
,
0110
0000
0001
0001
,
0010
1000
0101
0000
,
0010
0001
1100
0000
,
0001
0001
0100
0010
,
2002
0000
0000
3003
,
0010
1000
0010
0100
,
0010
0001
0010
0100
,
1000
0100
0001
0100
,
1000
0010
0001
1001
,
0001
0011
0010
1010
,
1000
1100
0100
0101
,
1000
1000
0100
0100
,
0001
0001
0100
0100
,
0010
1001
0100
1001
,
0010
1100
0010
0101
,
0010
0100
1000
0010
,
0100
0010
1001
0000
;
