#TITLE:Safe and Sound;
#SUBTITLE:;
#ARTIST:Capital Cities;
#TITLETRANSLIT:;
#SUBTITLETRANSLIT:;
#ARTISTTRANSLIT:;
#GENRE:Alternative;
#CREDIT:;
#BANNER:Safe and Sound.png;
#BACKGROUND:Safe and Sound-bg.png;
#LYRICSPATH:;
#CDTITLE:cdtitle.png;
#MUSIC:Safe and Sound.ogg;
#OFFSET:-1.140000;
#SAMPLESTART:58.093246;
#SAMPLELENGTH:17.959999;
#SELECTABLE:YES;
#BPMS:0.000000=118.000000
;
#STOPS:
;
#BGCHANGES:0.000=Safe And Sound.avi=1.000=0=0=1=====,
99999=-nosongbg-=1.000=0=0=0 // don't automatically add -songbackground-
;
#KEYSOUNDS:;
#ATTACKS:;

//---------------dance-single - ----------------
#NOTES:
     dance-single:
     :
     Hard:
     7:
     0.439542,0.447021,0.131962,0.187525,0.000000,397.000000,19.000000,27.000000,0.000000,0.000000,0.000000,0.439542,0.447021,0.131962,0.187525,0.000000,397.000000,19.000000,27.000000,0.000000,0.000000,0.000000:
0000
0000
0000
0000
,
0000
0000
0000
0000
,
0000
0000
0000
0000
,
0000
0000
0000
0000
,
1000
0100
1000
0000
0001
0100
0000
0100
,
0000
0010
0000
1000
1000
0010
0100
0000
,
0001
0100
0001
0000
0100
0001
0000
1000
,
0000
1000
0000
0010
1000
0001
0010
0000
,
1001
1000
0100
1000
0010
0000
0100
0010
,
0020
0000
1000
0000
0130
0000
0010
0100
,
0010
0010
1000
1000
0100
0100
0010
0010
,
0001
0010
0100
1000
0001
1000
1001
0000
,
2000
0000
3100
1000
0002
0000
0103
0010
,
0020
0000
0130
0000
0001
1000
0001
0000
,
0100
0100
0010
0010
1000
1000
0001
0001
,
1000
0100
0010
0001
0100
0100
0100
0000
,
2001
0000
3010
0000
1000
0010
0100
0001
,
0000
2000
0000
0000
0100
0100
3100
0000
,
1100
0000
0001
0000
1000
0100
0010
0001
,
0000
0200
0000
0000
0001
0001
0301
0000
,
1001
0000
0001
0100
1000
0000
1000
0010
,
0001
0000
0100
0000
0010
0100
0010
0000
,
1000
1000
0001
1000
0010
0010
0100
0100
,
0001
1000
0100
0100
0010
0010
0010
0000
,
0001
0000
0001
0010
1000
0000
1000
0100
,
0001
0000
1000
0000
0001
0100
0010
0000
,
0100
0100
0010
0010
1000
0100
0010
0001
,
0100
0100
0001
1000
0010
0010
0010
0000
,
2000
0000
3100
0010
0002
0000
0103
0010
,
1000
0001
1000
0010
0100
0100
0100
0000
,
0002
0000
0103
0001
2000
0000
3010
1000
,
0001
0010
0100
1000
0010
0010
0010
0000
,
1000
0100
1000
0100
0010
0100
0010
0100
,
0010
0001
0010
0001
0100
0100
0100
0000
,
0001
0100
0001
0100
0010
0100
0010
0100
,
0010
1000
0010
1000
0100
0100
0100
0000
,
2001
0100
0010
0001
,
3020
0000
0100
0130
,
0010
0100
0010
0000
0100
0001
0100
0000
,
0001
0100
1000
0100
0001
1000
0100
0000
,
1100
0110
0010
0001
,
0101
0110
0010
1000
,
0010
1000
0100
0010
0001
0100
0010
1000
,
0001
0000
0000
0000
0100
0100
0100
0000
,
0001
0100
1000
0100
0010
1000
0100
0010
,
0002
0100
1000
1003
,
0001
0100
0100
0010
1000
0100
0100
1000
,
0010
0010
0010
0010
0100
0001
1000
0000
,
1001
1000
0010
0100
0001
0010
0100
1000
,
0020
0000
0030
0000
1000
0001
1000
0000
,
0001
1000
0010
0010
0100
0100
0001
1000
,
0100
0100
0100
0100
0010
0010
0010
0000
,
0002
0000
0023
0000
0031
0010
0001
1000
,
0000
2100
0000
0000
3001
1000
0010
0000
,
2000
0000
3200
0000
1300
0100
1000
0001
,
0000
0102
0000
0000
0103
0010
1000
0000
,
0001
0100
0010
1000
0100
0010
0001
1000
,
0000
2001
0000
0000
0010
0010
3010
0000
,
1000
0010
0100
0001
0010
0100
1000
0001
,
0000
1002
0000
0000
0100
0100
0103
0000
,
1020
0000
1030
0100
0020
0000
0031
0010
,
0100
1000
0010
0100
0001
1000
0101
0000
,
2000
0000
3010
1000
0002
0000
0013
0001
,
1000
0010
0100
0001
0010
0001
1100
0000
,
0001
1000
0100
1000
0010
1000
0001
1000
,
0100
1000
0010
1000
0001
0001
0001
0000
,
1000
0001
1000
0100
1000
0010
1000
0001
,
1000
0010
1000
0001
1000
1000
0110
0000
;

//---------------dance-double - ----------------
#NOTES:
     dance-double:
     :
     Challenge:
     7:
     0.439542,0.423493,0.222252,0.256978,0.000000,374.000000,32.000000,37.000000,0.000000,0.000000,0.000000,0.439542,0.423493,0.222252,0.256978,0.000000,374.000000,32.000000,37.000000,0.000000,0.000000,0.000000:
00000000
00000000
00000000
00000000
,
00000000
00000000
00000000
00000000
,
00000000
00000000
00000000
00000000
,
00000000
00000000
00000000
00000000
,
00001000
00000100
00001000
00000000
00000001
00000100
00000001
00000100
,
00000010
00000000
00001000
00000001
00001000
00000000
00000100
00000000
,
00010000
00000100
00010000
00000000
00001000
00010000
00001000
00010000
,
00001000
00000000
00100000
00000000
00010000
10000000
00100000
00000000
,
10010000
00000000
10000000
01000000
00100000
00000000
01000000
00100000
,
00020000
01030000
00010000
10000000
,
00100000
10000000
00010000
00100000
00010000
00010000
01000000
01000000
,
00100000
01000000
00010000
00100000
00001000
00010000
00000100
00000000
,
00001000
00000000
00000100
00001000
00000010
00000000
00000100
00000001
,
00000020
00000000
00000130
00000000
00000010
00000001
00001000
00000000
,
00000001
00000100
00000010
00000010
00001000
00001000
00000001
00000010
,
00000001
00000001
00001000
00001000
00000100
00010000
00001000
00000000
,
00020100
00000000
00032000
00000000
00103000
00001000
00100000
00001000
,
00000000
00010000
00000000
00001000
00001000
00010000
00001000
00000000
,
00201000
00000000
00301000
00000000
00010000
00000100
00010000
00000100
,
00000000
00010000
00000000
00001000
00100000
00010000
01000000
00000000
,
20010000
00000000
31000000
10000000
00020000
00000000
01030000
00010000
,
20000000
00000000
30100000
00000000
10000000
00010000
00100000
00010000
,
01000000
01000000
00100000
00100000
10000000
00100000
01000000
00010000
,
00100000
00100000
00001000
00001000
00010000
00000100
00001000
00000000
,
00000010
00000000
00001000
00000001
00000100
00000000
00000001
00001000
,
00000100
00000000
00001000
00000000
00000001
00000010
00000100
00000000
,
00000010
00000010
00000001
00000100
00000010
00000010
00001000
00001000
,
00000100
00010000
00001000
00001000
00100000
00100000
00010000
00000000
,
02000000
00000000
03010000
01000000
00002000
00000000
00013000
00001000
,
02000000
00000000
03010000
01000000
00001000
00010000
00000200
00000000
,
00002300
00000000
00003100
00010000
00002000
00000000
00013000
00000100
,
00002000
00000000
00003100
00010000
00001000
00100000
00020000
00000000
,
00230000
00000000
00310000
00100000
00002000
00000000
00013000
00001000
,
00200000
00000000
00310000
00100000
00001000
00010000
00000020
00000000
,
00002030
00000000
00003010
00010000
00002000
00000000
00013000
00000010
,
00002000
00000000
00003010
00001000
00000010
00010000
00001000
00000000
,
00011000
00000000
00000100
00010000
00000100
00000000
00010000
00001000
,
00010000
00000000
00000000
00001000
,
00010000
00001000
00100000
00000000
00010000
00100000
01000000
00000000
,
00100000
01000000
10000000
00100000
01000000
00010000
00100000
00000000
,
00010000
00110000
00011000
00001100
,
00000010
00001010
00010100
00011000
,
00100000
00100000
00010000
00100000
00001000
00001000
00010000
00000100
,
00000100
00000000
00000000
00000000
,
00001001
00000000
00000010
00001000
00000001
00000000
00000100
00000100
,
00000100
00000000
00000010
00000000
00000100
00000001
00001000
00000000
,
00000010
00001000
00000100
00010000
00001000
00100000
00010000
10000000
,
01000000
10000000
00100000
01000000
00010000
00100000
00001000
00000000
,
00010000
00000000
00001000
00010000
00001000
00000000
00010000
00000100
,
00010000
00000000
00001000
00000000
00100000
00010000
01000000
00000000
,
00100000
00100000
10000000
00100000
01000000
00010000
00100000
00001000
,
00010000
00000010
00000100
00000001
00001000
00001000
00001000
00000000
,
00000002
00000000
00002003
00000000
00003010
00000100
00000010
00000100
,
00000000
00002002
00000000
00003003
00000001
00001000
00000010
00000000
,
00001100
00000000
00010100
00000000
00010000
00001000
00100000
00010000
,
01000000
00100000
10000000
00010000
00100000
00100000
00100000
00000000
,
10010000
00000000
00100000
00000000
10000000
01000000
00100000
00010000
,
00000000
20020000
00000000
30030000
00010000
10000000
00100000
00000000
,
10100000
00000000
01010000
00000000
10000000
01000000
00010000
00002000
,
00000000
00003200
00000000
00000310
00001000
00000001
00000100
00000000
,
00000020
00000000
00000130
00000010
00002000
00000000
00003010
00001000
,
00000200
00000000
00001300
00000100
00010000
00001000
00100000
00000000
,
00020000
00000000
01030000
00010000
20000000
00000000
30100000
10000000
,
02000000
00000000
13000000
00100000
01000000
00010000
00100000
00000000
,
00110000
00011000
00001010
00011000
,
01010000
00000000
10010000
00000000
10000000
01000000
00010000
00000000
,
00011000
00001100
00000110
00001001
,
00001100
00000000
00011000
00000000
00000100
00010000
00101000
00000000
;

//---------------dance-single - ----------------
#NOTES:
     dance-single:
     :
     Medium:
     5:
     0.317502,0.423493,0.104180,0.263924,0.000000,267.000000,15.000000,38.000000,0.000000,0.000000,0.000000,0.317502,0.423493,0.104180,0.263924,0.000000,267.000000,15.000000,38.000000,0.000000,0.000000,0.000000:
0000
0000
0000
0000
,
0000
0000
0000
0000
,
0000
0000
0000
0000
,
0000
0000
0000
0000
,
0100
0000
0100
0000
0000
0010
0000
0010
,
0000
1000
0001
0000
,
1000
0000
1000
0000
0000
0100
0000
0100
,
0000
0000
1000
0000
0010
0010
0100
0000
,
0001
1000
0001
1000
,
0010
0100
0010
0100
,
0001
0010
0001
0010
0001
0010
0001
0000
,
1000
0010
1000
0010
1000
0010
1000
0000
,
0001
0100
0001
0100
,
0010
1000
0010
1000
,
0001
0010
0001
0010
0001
0010
0001
0000
,
1000
0100
1000
0100
1000
0100
1000
0000
,
0002
0000
0003
0000
,
1000
0000
0000
0000
0010
0100
0010
0000
,
2000
0000
3000
0000
,
0002
0000
0003
0000
0010
0100
0010
0000
,
0001
0010
0100
1000
,
0010
0100
0001
1000
,
0010
0100
0010
0100
0010
0100
0010
0000
,
1000
0001
1000
0001
1000
0001
1000
0000
,
0001
0010
0100
1000
,
0001
0100
0010
1000
,
0001
1000
0001
1000
0001
1000
0001
0000
,
0100
0010
0100
0010
0100
0010
0100
0000
,
2002
3003
0200
0300
,
0010
0000
0010
0000
1000
0100
1000
0000
,
0002
0003
2000
3000
,
0010
0000
0010
0000
1000
0100
1000
0000
,
0002
0013
0020
0130
,
0200
0000
0300
0000
1000
0001
1000
0000
,
2000
3010
0020
0130
,
0200
0000
0300
0000
0001
1000
0001
0000
,
0100
0100
0010
0010
,
2002
0000
3003
0000
,
1000
0100
0010
0010
,
0001
0100
0010
0010
,
1000
1000
0001
0001
,
0010
0010
0100
0100
,
1000
0100
0001
0010
,
1000
0000
0000
0000
,
1001
1000
0010
0100
,
0010
0010
1000
0000
,
0001
0100
0001
0100
0001
0100
0001
0000
,
1000
0100
1000
0100
1000
0100
1000
0000
,
0010
0100
0010
0010
,
1000
0001
1000
0000
,
0001
1000
0001
1000
0001
1000
0001
0000
,
1000
0001
1000
0001
1000
0001
1000
0000
,
0002
0000
0103
0000
0001
0100
0001
0100
,
0000
0002
0000
0000
0103
0000
0000
0000
,
2000
0000
3100
0000
1000
0100
1000
0200
,
0000
2300
0000
0000
3100
0000
0000
0000
,
2000
0000
3002
0000
1003
0001
1000
0001
,
0000
2000
0000
0000
3001
0000
1000
0000
,
0020
0000
0130
0000
0010
0100
0010
0100
,
0000
0020
0000
0000
0130
0000
0000
0000
,
0210
0300
0102
0003
,
2001
0000
3000
0000
0010
1000
0010
0000
,
2100
3000
1002
0003
,
0201
0000
0300
0000
0001
1000
0001
0000
,
2001
3000
1020
0030
,
1002
0000
0003
0000
0100
0001
0100
0000
,
2001
3000
1200
0300
,
1002
0000
0003
0000
1000
0010
0100
0000
;

//---------------dance-single - ----------------
#NOTES:
     dance-single:
     :
     Easy:
     4:
     0.237134,0.376439,0.062508,0.347268,0.000000,180.000000,9.000000,50.000000,0.000000,0.000000,0.000000,0.237134,0.376439,0.062508,0.347268,0.000000,180.000000,9.000000,50.000000,0.000000,0.000000,0.000000:
// measure 0
0000
0000
0000
0000
,  // measure 1
0000
0000
0000
0000
,  // measure 2
0000
0000
0000
0000
,  // measure 3
0000
0000
0000
0000
,  // measure 4
0001
0001
0000
0000
,  // measure 5
1000
1000
0000
0000
,  // measure 6
0020
0030
0010
0000
,  // measure 7
0200
0300
0100
0100
,  // measure 8
0000
0001
0010
0100
,  // measure 9
0100
0000
0000
0000
,  // measure 10
0010
0001
0100
0100
,  // measure 11
0010
1000
0100
0100
,  // measure 12
0000
1000
0010
0100
,  // measure 13
0100
0000
0000
0000
,  // measure 14
0001
1000
0010
0010
,  // measure 15
1000
0001
0010
0010
,  // measure 16
0002
0003
2000
3000
,  // measure 17
0020
0030
0100
0100
,  // measure 18
0020
0030
2000
3000
,  // measure 19
0002
0003
0010
0010
,  // measure 20
1001
0000
1000
0001
,  // measure 21
0010
0000
0001
1000
,  // measure 22
0010
0010
0100
0100
,  // measure 23
0010
0100
0010
0010
,  // measure 24
1000
0000
1000
0001
,  // measure 25
0010
0000
0001
1000
,  // measure 26
0010
0010
0100
0100
,  // measure 27
0010
0010
0100
0100
,  // measure 28
0002
0003
2000
3000
,  // measure 29
0020
0030
0100
0100
,  // measure 30
0020
0030
2000
3000
,  // measure 31
0002
0003
0010
0010
,  // measure 32
0002
0003
0200
0300
,  // measure 33
0020
0030
1000
1000
,  // measure 34
0200
0300
2000
3000
,  // measure 35
0002
0003
0100
0100
,  // measure 36
0020
0000
0030
0010
,  // measure 37
2000
0000
3000
1000
,  // measure 38
0002
0003
2000
3000
,  // measure 39
0010
0010
0100
0100
,  // measure 40
0001
0001
0010
0000
,  // measure 41
0001
0001
0100
0000
,  // measure 42
0001
0010
0100
1000
,  // measure 43
0001
0000
0000
0000
,  // measure 44
1001
0000
1000
0010
,  // measure 45
0010
0000
0100
0000
,  // measure 46
0001
1000
0001
0001
,  // measure 47
1000
0001
1000
1000
,  // measure 48
0001
0000
0001
0100
,  // measure 49
0010
0000
0010
0000
,  // measure 50
1000
0001
1000
1000
,  // measure 51
0001
1000
0001
0001
,  // measure 52
0200
0300
0010
0010
,  // measure 53
2000
3000
0001
0010
,  // measure 54
0002
0003
0100
0100
,  // measure 55
0020
0030
1000
0100
,  // measure 56
2000
3000
0001
0001
,  // measure 57
0200
0300
0001
1000
,  // measure 58
0002
0003
1000
1000
,  // measure 59
0020
0030
0100
0000
,  // measure 60
2002
3003
0220
0330
,  // measure 61
2002
3003
1000
0001
,  // measure 62
0020
0030
0002
0003
,  // measure 63
0200
0300
0010
0000
,  // measure 64
2002
3003
0220
0330
,  // measure 65
2002
3003
1000
1000
,  // measure 66
0020
0030
2000
3000
,  // measure 67
0002
0003
0100
0110
;

//---------------dance-single - ----------------
#NOTES:
     dance-single:
     :
     Beginner:
     2:
     0.109141,0.188219,0.062508,0.000000,0.000000,101.000000,9.000000,0.000000,0.000000,0.000000,0.000000,0.109141,0.188219,0.062508,0.000000,0.000000,101.000000,9.000000,0.000000,0.000000,0.000000,0.000000:
// measure 0
0000
0000
0000
0000
,  // measure 1
0000
0000
0000
0000
,  // measure 2
0000
0000
0000
0000
,  // measure 3
0000
0000
0000
0000
,  // measure 4
0100
0000
0100
0000
,  // measure 5
0001
0000
0000
0000
,  // measure 6
1000
0000
1000
0000
,  // measure 7
0010
0000
0000
0000
,  // measure 8
0000
1000
1000
0000
,  // measure 9
1000
0000
0000
0000
,  // measure 10
0100
0000
0100
0000
,  // measure 11
0010
0000
0010
0000
,  // measure 12
0000
0001
0001
0000
,  // measure 13
0001
0000
0000
0000
,  // measure 14
0100
0000
0100
0000
,  // measure 15
0010
0000
0010
0000
,  // measure 16
1000
0000
0000
0000
,  // measure 17
0001
0000
0000
0000
,  // measure 18
0100
0000
0000
0000
,  // measure 19
0100
0000
0000
0000
,  // measure 20
1001
0000
0000
1000
,  // measure 21
1000
0000
0000
0000
,  // measure 22
0010
0000
0010
0000
,  // measure 23
0010
0000
0000
0000
,  // measure 24
0000
0000
0100
0100
,  // measure 25
0100
0000
0000
0000
,  // measure 26
0001
0000
0001
0000
,  // measure 27
0001
0000
0000
0000
,  // measure 28
1000
0000
1000
0000
,  // measure 29
1000
0000
0000
0000
,  // measure 30
0010
0000
0010
0000
,  // measure 31
0010
0000
0000
0000
,  // measure 32
0100
0000
0100
0000
,  // measure 33
0100
0000
0000
0000
,  // measure 34
0001
0000
0001
0000
,  // measure 35
0001
0000
0000
0000
,  // measure 36
1001
0000
0000
0000
,  // measure 37
1000
0000
0000
0000
,  // measure 38
0010
0010
0010
0000
,  // measure 39
0010
0010
0010
0000
,  // measure 40
0010
0000
0000
0000
,  // measure 41
1000
0000
0000
0000
,  // measure 42
0001
0001
0001
0000
,  // measure 43
1000
0000
0000
0000
,  // measure 44
1001
0000
0000
0001
,  // measure 45
0001
0000
0000
0000
,  // measure 46
0100
0000
0100
0000
,  // measure 47
0010
0000
0010
0000
,  // measure 48
1000
0000
0000
0100
,  // measure 49
0100
0000
0000
0000
,  // measure 50
1000
0000
1000
0000
,  // measure 51
0001
0000
0001
0000
,  // measure 52
0100
0000
0000
0000
,  // measure 53
0010
0000
0010
0010
,  // measure 54
0000
0000
0000
0000
,  // measure 55
1000
0000
1000
1000
,  // measure 56
0000
0000
0000
0000
,  // measure 57
0001
0000
0001
0001
,  // measure 58
0000
0000
0000
0000
,  // measure 59
0100
0000
0000
0000
,  // measure 60
1001
0000
1001
0000
,  // measure 61
1001
0000
0100
0100
,  // measure 62
0000
0000
0000
0000
,  // measure 63
0010
0000
0000
0000
,  // measure 64
1001
0000
1001
0000
,  // measure 65
1001
0000
0001
0001
,  // measure 66
0000
0000
0000
0000
,  // measure 67
0100
0000
0001
0001
;
