#TITLE:You're All I Have;
#SUBTITLE:;
#ARTIST:Snow Patrol;
#TITLETRANSLIT:;
#SUBTITLETRANSLIT:;
#ARTISTTRANSLIT:;
#GENRE:Chasing Hearts;
#CREDIT:;
#BANNER:You're All I Have.png;
#BACKGROUND:You're All I Have-bg.png;
#LYRICSPATH:;
#CDTITLE:;
#MUSIC:You're All I Have.ogg;
#OFFSET:0.033000;
#SAMPLESTART:65.307320;
#SAMPLELENGTH:13.714000;
#SELECTABLE:YES;
#BPMS:0.000000=132.000000
;
#STOPS:
;
#BGCHANGES:8.000=You're All I Have.avi=1.000=0=0=1=====,
99999=-nosongbg-=1.000=0=0=0 // don't automatically add -songbackground-
;
#KEYSOUNDS:;
#ATTACKS:;

//---------------dance-single - ----------------
#NOTES:
     dance-single:
     :
     Hard:
     8:
     0.555356,0.530912,0.093863,0.211192,0.089952,458.000000,12.000000,27.000000,0.000000,0.000000,0.000000,0.555356,0.530912,0.093863,0.211192,0.089952,458.000000,12.000000,27.000000,0.000000,0.000000,0.000000:
0000
0000
0000
0000
,
0000
0000
0000
0000
,
0000
0000
0000
0000
,
0000
0000
0000
0000
,
1000
0010
0100
0001
0010
0100
1000
0000
,
0012
0000
1003
0000
0010
1000
0001
0000
,
0100
0001
1000
0100
0010
0001
1000
0000
,
2010
0000
3001
0000
0100
0001
1000
0000
,
0010
1000
0100
0010
0001
1000
0010
0000
,
0210
0000
0301
0000
0100
0001
1000
0000
,
0001
0010
0100
1000
0010
0100
0001
0000
,
2001
0000
3100
0000
1000
0001
0100
0000
,
0020
0000
1030
0000
0100
1000
0100
1000
,
0002
0000
0103
0000
0010
1000
0010
1000
,
0100
0000
0010
0000
0001
1000
0010
0000
,
0100
0001
1000
0000
0100
0010
0001
0000
,
2000
0000
3100
0000
1000
0010
1000
0010
,
0200
0000
0301
0000
1000
0100
0010
0001
,
0200
0000
0310
0000
1000
0001
1000
0000
,
0010
0100
0001
1000
0100
0010
0001
0000
,
1000
0100
1000
0100
0010
0100
0010
0001
,
1000
0010
0100
0001
1000
0100
0010
0000
,
0001
0100
0001
0100
0010
0100
0010
1000
,
0100
0010
0001
1000
0010
0100
0001
0000
,
1000
0100
0001
0100
1000
0010
0100
0001
,
1000
0100
0010
0001
1000
0010
0100
0000
,
0001
0010
1000
0010
0001
0100
0010
1000
,
0100
0010
0001
1000
0010
0100
0001
0000
,
1000
0000
0100
0000
1000
0000
0010
0000
1000
0100
1000
0000
0010
0000
1000
0000
,
0200
0000
0310
0100
0010
0100
1000
0000
,
0001
0000
0010
0000
0001
0000
0100
0000
0001
0010
0001
0000
0100
0000
0001
0000
,
0020
0000
0130
0010
0100
0010
0001
0000
,
1000
0000
0010
0000
0100
0000
0001
0000
1000
0100
1000
0000
0010
0000
0100
0000
,
0001
1000
0100
0010
0001
1000
0010
0000
,
0100
0001
1000
0100
0010
0001
1000
0020
,
0000
0130
0001
2000
0000
0100
3100
0000
,
1100
0000
0011
0010
0100
1000
0010
0100
,
0100
0001
1000
0010
0100
0001
0010
0100
,
2000
0000
0100
0000
3010
1000
0001
0200
,
0010
0000
0001
0000
0310
0100
0001
0010
,
0011
0000
1100
0100
0010
0001
0100
0010
,
0010
1000
0001
0100
0010
1000
0100
0010
,
0002
0000
0010
0000
0103
0001
1000
0020
,
0100
0000
1000
0000
0130
0010
1000
0001
,
1002
0000
0203
0000
0320
0000
1030
0100
,
0010
0001
0100
1000
0001
0010
1000
0001
,
0200
0000
0010
0000
1300
0100
0001
2000
,
0100
0000
3001
0000
1000
0100
0010
0001
,
2001
0000
3020
0000
0230
0000
0301
0010
,
0100
1000
0010
0001
1000
0100
0001
1000
,
0020
0000
0100
0000
0031
0010
1000
0002
,
0010
0000
1003
0000
0001
0010
0100
1000
,
0001
0000
0100
0000
0001
0000
1000
0100
0000
0000
0010
0000
0001
0000
0010
0000
,
0100
0000
1000
0000
0001
0000
1000
0010
0000
0000
0100
0000
0001
0000
0100
0000
,
0010
0000
1000
0000
0001
0000
0010
0100
0000
0000
1000
0000
0100
0000
1000
0000
,
0001
0000
0010
0000
0100
0000
1000
0001
0000
0000
0100
0000
0010
0000
0100
0000
,
0001
0000
0010
0000
0100
0000
1000
0010
0000
0010
0100
0000
0001
0000
1000
0000
,
0100
0000
0010
0000
0001
0000
1000
0010
0000
0010
0100
0000
0001
0000
1000
0000
,
0100
0000
0010
0000
0001
0000
1000
0100
0000
0100
1000
0000
0010
0000
0100
0000
,
0001
0000
1000
0000
0100
0000
0010
0001
0000
0001
0010
0000
0100
0000
1000
0000
,
1010
0000
0010
0000
0100
0000
0001
1000
0001
0000
0010
0000
0100
0000
0010
0000
,
0001
0000
1000
0000
0010
0000
0100
0001
0100
0000
0010
0000
1000
0000
0010
0000
,
0100
0000
0001
0000
1000
0000
0100
0010
0100
0000
0010
0000
0001
0000
0010
0000
,
0001
0000
1000
0000
0010
0000
0100
0001
0100
0000
0010
0000
1000
0000
0010
0000
,
0100
0000
0001
0000
1000
0000
0100
0010
0100
0000
1000
0000
0010
0000
0100
0000
,
0001
0000
1000
0000
0100
0000
0010
0001
0010
0000
0100
0000
1000
0000
0010
0000
,
0100
0000
0001
0000
1000
0000
0010
0100
0010
0000
0100
0000
0001
0000
1000
0000
,
0100
0000
0010
0000
0001
0000
1000
0100
1000
0000
0001
0000
0010
0000
1001
0000
;

//---------------dance-single - ----------------
#NOTES:
     dance-single:
     :
     Medium:
     5:
     0.310642,0.371639,0.219013,0.265945,0.000000,216.000000,28.000000,34.000000,0.000000,0.000000,0.000000,0.310642,0.371639,0.219013,0.265945,0.000000,216.000000,28.000000,34.000000,0.000000,0.000000,0.000000:
0000
0000
0000
0000
,
0000
0000
0000
0000
,
0000
0000
0000
0000
,
0000
0000
0000
0000
,
1000
0000
0010
1000
0001
0000
0010
0000
,
2002
3003
0000
0000
,
0010
0000
0001
1000
0010
0000
0100
0000
,
2002
3003
0000
0000
,
0010
0000
1000
0100
0010
0000
0100
0000
,
2200
3300
0000
0000
,
0001
0000
0100
0001
0010
0000
0100
0000
,
0022
0033
0000
0000
,
0001
1000
0010
0100
,
0001
0000
1000
0000
0100
0010
0100
0000
,
0020
0030
0001
1000
,
0020
0030
0100
0001
,
1000
0100
0010
0001
,
1000
0010
1000
0000
0001
0100
0001
0000
,
2000
3000
0100
0010
,
0002
0003
1000
0000
,
0010
0100
0010
1000
,
0100
0000
0010
0000
0001
1000
0001
0000
,
0200
0300
0010
1000
,
0200
0300
0010
0001
,
1000
0001
0100
0010
,
1000
0100
1000
0000
0001
0010
0001
0000
,
2000
3000
0010
1000
,
0002
0003
0100
0000
,
0001
1000
0001
1000
0002
0000
0103
0000
,
0010
0000
0000
0000
,
1000
0001
1000
0001
2000
0000
3100
0000
,
0010
0000
0000
0000
,
0001
0010
0001
0010
0100
1000
0100
0000
,
1000
0000
0000
0000
,
1000
0010
1000
0010
0100
0001
0100
0000
,
0001
0000
0000
0000
,
1010
0000
0110
0000
0101
0000
1000
0200
,
0000
0000
0310
0000
0001
0000
1000
0020
,
0000
0130
0000
0000
0000
0000
0000
0000
,
0000
0000
0000
0000
,
1010
0000
1001
0000
0011
0000
0001
2000
,
0000
0000
3100
0000
0010
0000
0001
0200
,
0000
0310
0000
0000
0000
0000
0000
0000
,
0000
0000
0000
0000
,
0101
0000
0110
0000
1010
0000
0001
2000
,
0000
0000
3100
0000
0010
0000
0001
0200
,
0000
0310
0000
0000
0000
0000
0000
0000
,
0000
0000
0000
0000
,
0101
0000
0110
0000
1010
0000
0001
2000
,
0000
0000
3100
0000
0010
0000
0001
0200
,
0000
0310
0000
0000
0000
0000
0000
0000
,
0000
0000
0000
0000
,
1010
0000
0001
0000
1000
0100
0010
0000
,
0011
1000
0001
0000
,
0101
0000
1000
0000
0100
1000
0001
0000
,
0100
1010
0001
0000
,
1100
1100
0001
1000
,
0101
0101
1000
0000
,
0010
0000
0000
0000
1000
0100
1000
0000
,
0001
0000
0000
0000
0001
0100
0001
0000
,
1000
0000
0100
0010
0001
0000
1000
0000
,
2200
3300
0001
0000
,
1000
0000
0010
1000
0001
0000
0100
0000
,
0202
0303
1000
0000
,
0001
0000
0100
0010
1000
0000
0001
0000
,
2002
3003
0100
0000
,
1000
0000
0100
0010
0001
0000
0100
0000
,
2002
0000
3003
0000
1000
0100
0010
0001
;

//---------------dance-single - ----------------
#NOTES:
     dance-single:
     :
     Easy:
     3:
     0.195548,0.238471,0.007822,0.062575,0.000000,166.000000,1.000000,8.000000,0.000000,0.000000,0.000000,0.195548,0.238471,0.007822,0.062575,0.000000,166.000000,1.000000,8.000000,0.000000,0.000000,0.000000:
0000
0000
0000
0000
,
0000
0000
0000
0000
,
0000
0000
0000
0000
,
0000
0000
0000
0000
,
1000
0010
0100
0001
,
2000
3000
0000
0000
,
0001
1000
0010
0100
,
0002
0003
0000
0000
,
1000
0100
0100
0010
,
0002
0003
0000
0000
,
0001
0100
0100
0010
,
2000
3000
0000
0000
,
0001
0000
1000
0000
,
0010
0000
0100
0001
,
1000
0000
0100
0000
,
0010
0000
0010
0000
,
0001
0000
1000
0010
,
0100
0001
0010
0100
,
1000
0000
0001
0000
,
0100
0000
0100
0000
,
0010
0000
1000
0000
,
0001
0000
1000
0100
,
0010
0000
0001
0000
,
1000
0000
1000
0000
,
0010
0000
0100
0001
,
1000
0100
0010
0001
,
1000
0000
0010
0000
,
0100
0000
0100
0000
,
0001
1000
0001
1000
,
0010
0000
0000
0000
,
1000
0001
1000
0001
,
0010
0000
0000
0000
,
0001
0010
0100
1000
,
0100
0000
0000
0000
,
1000
0010
0100
0001
,
0100
0000
0010
0000
,
1000
1000
1000
0001
,
0100
0100
0100
0010
,
1000
0000
0001
0000
,
0010
0000
0000
0000
,
0001
0001
0001
1000
,
0100
0100
0100
0010
,
0001
0000
1000
0000
,
0010
0000
0000
0000
,
1000
1000
1000
0001
,
0100
0100
0100
0010
,
1000
0000
0001
0000
,
0010
0000
0000
0000
,
0001
0001
0001
1000
,
0100
0100
0100
0010
,
0001
0000
1000
0000
,
0010
0000
0000
0000
,
1000
0000
0010
0010
,
0100
0000
0001
0000
,
1000
0000
0100
0100
,
0010
0000
0001
0000
,
1000
0000
0001
0001
,
0100
0000
0010
0000
,
1000
0000
0100
0100
,
0010
0000
0001
0000
,
1000
0100
0010
0001
,
2000
3000
0000
0000
,
0001
0100
0010
1000
,
0002
0003
0000
0000
,
1000
0010
0100
0010
,
2000
3000
0000
0000
,
0001
0010
0100
0010
,
0002
0003
0000
1001
;

//---------------dance-single - ----------------
#NOTES:
     dance-single:
     :
     Beginner:
     2:
     0.117329,0.185477,0.000000,0.000000,0.000000,105.000000,0.000000,0.000000,0.000000,0.000000,0.000000,0.117329,0.185477,0.000000,0.000000,0.000000,105.000000,0.000000,0.000000,0.000000,0.000000,0.000000:
0000
0000
0000
0000
,
0000
0000
0000
0000
,
0000
0000
0000
0000
,
0000
0000
0000
0000
,
0100
0000
0100
0000
,
0001
0000
0000
0000
,
1000
0000
1000
0000
,
0100
0000
0000
0000
,
0010
0000
0010
0000
,
0001
0000
0000
0000
,
1000
0000
1000
0000
,
0010
0000
0000
0000
,
0100
0000
0000
0000
,
0001
0000
0000
0000
,
1000
0000
0000
0000
,
1000
0000
0000
0000
,
0010
0000
0000
0000
,
0100
0000
0000
0000
,
0001
0000
0000
0000
,
0001
0000
0000
0000
,
0010
0000
0000
0000
,
0100
0000
0000
0000
,
1000
0000
0000
0000
,
1000
0000
0000
0000
,
0010
0000
0000
0000
,
0100
0000
0000
0000
,
0001
0000
0000
0000
,
0001
0000
0000
0000
,
1000
0000
0100
0000
,
1000
0000
0000
0000
,
0001
0000
0100
0000
,
0001
0000
0000
0000
,
1000
0000
0010
0000
,
1000
0000
0000
0000
,
0001
0000
0010
0000
,
0001
0000
0000
0000
,
0100
0100
0100
0000
,
0100
0100
0100
0000
,
0100
0000
0000
0000
,
0001
0000
0000
0000
,
1000
1000
1000
0000
,
1000
1000
1000
0000
,
1000
0000
0000
0000
,
0010
0000
0000
0000
,
1000
1000
1000
0000
,
1000
1000
1000
0000
,
1000
0000
0000
0000
,
0001
0000
0000
0000
,
0010
0010
0010
0000
,
0010
0010
0010
0000
,
0010
0000
0000
0000
,
0001
0000
0000
0000
,
0100
0100
0000
0000
,
0001
0001
0000
0000
,
1000
1000
0000
0000
,
0010
0010
0000
0000
,
1000
1000
0000
0000
,
0001
0001
0000
0000
,
0100
0100
0000
0000
,
0100
0100
0000
0000
,
0001
0000
1000
0000
,
0010
0010
0000
0000
,
1000
0000
0001
0000
,
0100
0100
0000
0000
,
0001
0000
0010
0000
,
0100
0100
0000
0000
,
1000
0000
0001
0000
,
0100
0100
0000
0100
;

//---------------dance-double - ----------------
#NOTES:
     dance-double:
     :
     Challenge:
     8:
     0.510659,0.477821,0.046931,0.297233,0.015644,413.000000,6.000000,38.000000,0.000000,0.000000,0.000000,0.510659,0.477821,0.046931,0.297233,0.015644,413.000000,6.000000,38.000000,0.000000,0.000000,0.000000:
// measure 0
00000000
00000000
00000000
00000000
,  // measure 1
00000000
00000000
00000000
00000000
,  // measure 2
00000000
00000000
00000000
00000000
,  // measure 3
00000000
00000000
00000000
00000000
,  // measure 4
10000000
01000000
00100000
00010000
01000000
00100000
10000000
00000000
,  // measure 5
01020000
00000000
10030000
00000000
01000000
00100000
00010000
00000000
,  // measure 6
00100000
00001000
00010000
00000010
00001000
00000001
00000010
00000000
,  // measure 7
00000012
00000000
00001003
00000000
00000100
00001000
00000010
00000000
,  // measure 8
00000100
00000001
00000010
00000100
00001000
00000001
00000100
00000000
,  // measure 9
00000102
00000000
00001000
00000003
00000100
00001000
00000010
00000000
,  // measure 10
00001000
00000010
00010000
00001000
00010000
00100000
10000000
00000000
,  // measure 11
21000000
00000000
30010000
00000000
10000000
01000000
00100000
00000000
,  // measure 12
00020000
00000000
01030000
00000000
00100000
10000000
01000000
00000000
,  // measure 13
20000000
00000000
30100000
00000000
01000000
00010000
00100000
00000000
,  // measure 14
00002000
00013000
00100000
10000000
,  // measure 15
02000000
00000000
03010000
00000000
00001000
00000100
00000001
00000000
,  // measure 16
00002000
00000000
00003100
00000000
00000010
00000001
00001000
00000000
,  // measure 17
00000020
00000000
00000130
00000000
00000001
00001000
00000100
00000000
,  // measure 18
00000020
00000031
00000100
00000010
,  // measure 19
00002000
00000000
00003100
00000000
00010000
00001000
00100000
00000000
,  // measure 20
00010000
01000000
00010000
01000000
00100000
01000000
00100000
10000000
,  // measure 21
02000000
00000000
03100000
00000000
00010000
10000000
00010000
00000000
,  // measure 22
10000000
00100000
10000000
00100000
01000000
00100000
01000000
00010000
,  // measure 23
00200000
00000000
00301000
00000000
00010000
00001000
00000010
00000000
,  // measure 24
00000001
00000010
00000001
00001000
00000001
00001000
00000010
00000100
,  // measure 25
00000002
00000000
00001003
00000000
00000100
00000010
00000001
00000000
,  // measure 26
00001000
00000001
00001000
00000010
00001000
00000010
00000100
00000001
,  // measure 27
00002000
00000000
00003100
00000000
00010000
00001000
00010000
00000000
,  // measure 28
00001000
00100000
00001000
00100000
00001000
00010000
00001000
00010000
,  // measure 29
00000100
00010000
00000100
00010000
00001000
00010000
00001000
00010000
,  // measure 30
00001000
01000000
00001000
01000000
00001000
00010000
00001000
00010000
,  // measure 31
00000010
00010000
00000010
00010000
00001000
00010000
00001000
00010000
,  // measure 32
00001000
00100000
00010000
10000000
00100000
01000000
00010000
10000000
,  // measure 33
01000000
00100000
00010000
01000000
00100000
00010000
00001000
00000010
,  // measure 34
00000001
00000100
00000010
00001000
00000100
00000010
00000001
00000100
,  // measure 35
00001000
00010000
01000000
10000000
00100000
01000000
00010000
00000000
,  // measure 36
01020000
00000000
20030000
00000000
30200000
00000000
10300000
01000000
,  // measure 37
00100000
00010000
02000000
00000000
03002000
00000000
00013000
00100000
,  // measure 38
10000000
01000000
00100000
00000000
00010000
10000000
00100000
01000000
,  // measure 39
00020000
00000000
00130000
00000000
00001000
00010000
00001000
00000000
,  // measure 40
00010000
00001000
00000010
00000001
00002000
00000000
00003010
00000100
,  // measure 41
00000001
00001000
00000200
00000000
00000320
00000000
00000031
00001000
,  // measure 42
00000001
00001000
00000020
00000000
00000130
00000001
00001000
00000100
,  // measure 43
00000020
00000000
00000031
00000000
00001000
00000100
00001000
00000000
,  // measure 44
00002010
00000000
00003002
00000000
00000203
00000000
00000301
00000010
,  // measure 45
00000100
00001000
00000020
00000000
00020030
00000000
00031000
00000100
,  // measure 46
00000001
00000010
00000100
00000000
00001000
00000001
00000100
00000010
,  // measure 47
00002000
00000000
00003100
00000000
00010000
00001000
00010000
00000000
,  // measure 48
00001000
00010000
01000000
10000000
00020000
00000000
01030000
00100000
,  // measure 49
10000000
00010000
00200000
00000000
02300000
00000000
13000000
00010000
,  // measure 50
10000000
00010000
02000000
00000000
03100000
10000000
00010000
00100000
,  // measure 51
02000000
00000000
13000000
00000000
00010000
00100000
00010000
00000000
,  // measure 52
10000000
00000000
00100000
00000000
10000000
00000000
00000000
01000000
00000000
00000000
00100000
00000000
00010000
00000000
00000000
00000000
,  // measure 53
10000000
00000000
01000000
00000000
10000000
00000000
00000000
00010000
00000000
00000000
00100000
00000000
00001000
00000000
00000000
00000000
,  // measure 54
00010000
00000000
00001000
00000000
00010000
00000000
00000000
00000010
00000000
00000000
00001000
00000000
00000001
00000000
00000000
00000000
,  // measure 55
00001000
00000000
00000100
00000000
00000010
00000000
00000000
00000001
00000000
00000000
00000100
00000000
00000010
00000000
00000000
00000000
,  // measure 56
00001000
00000001
00001000
00000010
00000100
00000001
00001000
00000000
,  // measure 57
00000100
00010000
00001000
00010000
00000010
00001000
00000001
00000000
,  // measure 58
00001000
00000100
00000010
00000001
00000100
00000010
00001000
00000000
,  // measure 59
00000010
00010000
00001000
00010000
00001000
00100000
00010000
00000000
,  // measure 60
00100000
00010000
10000000
00100000
01000000
00010000
10000000
01000000
,  // measure 61
00100000
00010000
01000000
00100000
10000000
00010000
00100000
00001000
,  // measure 62
00010000
00001000
00010000
00000010
00001000
00000100
00000010
00000001
,  // measure 63
00000100
00000010
00001000
00000001
00000010
00001000
00010000
00100000
,  // measure 64
10000000
01000000
00100000
00010000
10000000
00100000
01000000
00010000
,  // measure 65
10000000
01000000
00100000
00010000
01000000
00001000
01000000
00001000
,  // measure 66
00010000
00000010
00001000
00000100
00000010
00000001
00000100
00000010
,  // measure 67
00001000
00000100
00010000
00001000
00010000
00100000
10000000
01000000
;
