#TITLE:Hella Good;
#SUBTITLE:;
#ARTIST:No Doubt;
#TITLETRANSLIT:;
#SUBTITLETRANSLIT:;
#ARTISTTRANSLIT:;
#CREDIT:;
#BANNER:Hella Good-bn.png;
#BACKGROUND:Hella Good-bg.png;
#LYRICSPATH:;
#CDTITLE:;
#MUSIC:Hella Good.mp3;
#OFFSET:-0.060;
#SAMPLESTART:45.920;
#SAMPLELENGTH:14.360;
#SELECTABLE:YES;
#BPMS:0.000=115.100;
#STOPS:91.500=0.010
,93.000=0.010
;
#BGCHANGES:0.000=Hella Good.avi=1.000=1=0=0,
99999=-nosongbg-=1.000=0=0=0 // don't automatically add -songbackground-
;

//---------------dance-single - ----------------
#NOTES:
     dance-single:
     :
     Beginner:
     1:
     0.086,0.141,0.038,0.000,0.000:
0000
0000
0000
0000
,
0000
0000
0000
0000
,
0010
0000
0000
0000
,
0010
0000
0000
0000
,
0100
0000
0000
0000
,
0100
0000
0000
0000
,
0001
0000
0000
0000
,
1000
0000
0000
0000
,
0010
0000
0010
0000
,
0010
0000
0000
0000
,
1000
0000
0000
0000
,
0001
0000
0000
0000
,
0100
0000
0100
0000
,
0100
0000
0000
0000
,
0001
0000
0000
0000
,
0100
0000
0000
0000
,
0010
0000
0010
0000
,
0010
0000
0000
0000
,
0100
0000
0000
0000
,
0001
0000
0000
0000
,
1000
0000
1000
0000
,
1000
0000
0000
0000
,
1001
0000
0000
0000
,
0100
0100
0100
0000
,
0100
0000
0000
0000
,
0010
0000
0000
0000
,
0110
0000
0000
0000
,
0010
0010
0010
0000
,
0010
0000
0000
0000
,
1000
0000
0000
0000
,
0001
0000
0000
0000
,
0001
0000
0000
0000
,
0001
0000
0000
0000
,
0001
0000
0000
0000
,
1000
0000
0000
0000
,
1000
0000
0000
0000
,
1000
0000
0000
0000
,
1000
0000
0000
0000
,
1001
0000
0000
0000
,
0100
0000
0000
0000
,
0010
0000
0000
0000
,
0100
0000
0000
0000
,
1001
0000
0000
0000
,
1000
0000
0000
0000
,
0001
0000
0000
0000
,
1000
0000
0000
0000
,
0010
0000
0010
0000
,
0010
0000
0010
0000
,
0010
0000
0010
0000
,
0010
0000
0000
0000
;

//---------------dance-single - ----------------
#NOTES:
     dance-single:
     :
     Medium:
     6:
     0.283,0.357,0.096,0.077,0.000:
0000
0000
0000
0000
,
0000
0000
0000
0000
,
0010
0100
0010
0000
,
1000
0001
1000
0000
,
0001
0100
0001
0000
,
1000
0010
1000
0000
,
0010
0010
0000
0010
0000
1000
0000
0001
,
0000
1000
0000
0001
0100
0001
0001
0100
,
0010
0010
0010
0000
,
0100
0100
0100
0000
,
0001
0001
0000
0010
0000
0001
0000
1000
,
0000
0010
0000
1000
0100
1000
1000
0100
,
1000
1000
1000
0000
,
0010
0010
0010
0000
,
0100
0000
0010
0100
0010
0000
0000
0000
,
1000
0001
1000
0001
0000
0000
0000
0000
,
0100
0100
0100
0000
,
0001
0001
0001
0000
,
0010
0000
0100
0010
0100
0000
0000
0000
,
1000
0100
1000
0100
0000
0000
0000
0000
,
1000
1000
1000
0000
,
0001
0001
0001
1001
,
0100
0001
0100
0010
0100
0000
0010
0000
,
2000
3200
2300
3002
,
0103
0100
0100
0000
,
0001
0001
0001
0000
,
1000
0010
1000
0100
1000
0000
0010
0000
,
0200
0320
2030
3002
,
0103
0100
0100
0000
,
0001
0001
0001
0000
,
1000
0001
0100
0000
,
0010
0100
0010
0000
,
1000
0001
0010
0000
,
0100
1000
0001
0000
,
1010
0100
0010
0100
,
0001
1000
0100
0010
,
0001
1000
0010
0100
,
0010
1000
0100
0000
,
1000
0010
0100
0000
0001
0000
1000
0000
,
0001
1001
0100
0110
,
1000
0000
0001
0010
0100
0000
1000
0000
,
0010
1010
0100
0101
,
0010
0000
1000
0001
0100
0000
0010
0000
,
1000
1100
0001
0101
,
0010
0000
1000
0001
0100
0000
0010
0000
,
0100
0101
1000
1100
,
0010
1000
0001
1000
0001
0000
0000
0000
,
0000
0100
0001
0100
0001
0000
0000
0000
,
1000
0010
0100
0010
0100
0000
0000
0000
,
0000
0010
0100
0001
1000
0000
0000
0000
;

//---------------dance-single - ----------------
#NOTES:
     dance-single:
     :
     Hard:
     10:
     0.422,0.452,0.154,0.000,0.197: // measure 1
0000
0000
0000
0000
,  // measure 2
0000
0000
0000
0000
,  // measure 3
0010
0000
0100
0001
1000
0000
0000
0000
,  // measure 4
0010
0000
1000
0100
0010
0000
0000
0000
,  // measure 5
0001
0000
0010
0001
0100
0000
0000
0000
,  // measure 6
0010
0000
0100
0001
0010
0000
0000
0000
,  // measure 7
0100
0010
0001
1000
0010
0100
0010
1000
,  // measure 8
0100
1000
0001
0100
0010
1000
0001
0000
,  // measure 9
0100
0000
0000
0001
0000
0000
1000
0000
0100
0000
0000
0000
0000
0000
0000
0000
,  // measure 10
1000
0000
0000
0001
0000
0000
0010
0000
0100
0000
0000
0000
0000
0000
0000
0000
,  // measure 11
0010
0001
1000
0010
0100
0010
1000
0100
,  // measure 12
0001
0100
1000
0010
0100
0010
1000
0000
,  // measure 13
0010
0000
0000
1000
0000
0000
0001
0000
0100
0000
0000
0000
0000
0000
0000
0000
,  // measure 14
0001
0000
0000
0010
0000
0000
0100
0000
1000
0000
0000
0000
0000
0000
0000
0000
,  // measure 15
0010
0000
1000
0010
0001
0000
0000
0000
,  // measure 16
0100
0001
1000
0100
0000
0000
0000
0000
,  // measure 17
1000
0000
0010
0100
0000
0010
0100
0000
0001
0000
0000
0000
0000
0000
0000
0000
,  // measure 18
0001
0000
0010
0100
0000
0010
0100
0000
1000
0000
0000
0000
0000
0000
0000
0000
,  // measure 19
0010
0000
0001
0100
1000
0000
0000
0000
,  // measure 20
0010
1000
0100
0010
0000
0000
0000
0000
,  // measure 21
0001
0000
0010
0100
0000
0010
0100
0000
1000
0000
0000
0000
0000
0000
0000
0000
,  // measure 22
1000
0000
0010
0100
0000
0010
0100
0000
0001
0000
0100
0000
0010
0000
1000
0100
,  // measure 23
1000
0000
0010
0000
0100
0000
0001
1000
0000
0000
0010
0000
0100
0000
0001
0000
,  // measure 24
0101
0100
0110
0000
1001
1000
1100
0000
,  // measure 25
0010
0000
1000
0010
0000
1000
0001
0000
0100
0000
0000
0000
0000
0000
0010
0100
,  // measure 26
0010
0000
1000
0000
0001
0000
0010
0000
0100
0000
0000
0000
0000
0000
0000
0001
,  // measure 27
0010
0000
0001
0000
1000
0000
0100
1000
0000
0000
0010
0000
0100
0000
0010
0000
,  // measure 28
1010
1000
1100
0000
0101
0100
1001
0000
,  // measure 29
0010
0000
1000
0100
0000
1000
0001
0000
0100
0000
0000
0000
0000
0000
0010
0100
,  // measure 30
0010
1000
0100
0010
0001
0000
0000
0000
,  // measure 31
0000
0000
0100
0001
0000
0100
0010
0000
1000
0000
0000
0000
0000
0000
0000
0000
,  // measure 32
0000
0110
0000
1100
0000
1001
0000
0000
,  // measure 33
0100
0000
0010
0100
0000
0000
0001
0000
0100
0000
0000
0000
0000
0000
0010
1000
,  // measure 34
0010
1000
0100
1000
0001
0000
0000
0000
,  // measure 35
0000
0000
0010
1000
0000
0010
0100
0000
0001
0000
0000
0000
0000
0000
0000
0000
,  // measure 36
0000
0110
0000
1010
0000
1001
0000
0000
,  // measure 37
0010
0000
0100
0010
0000
0000
1000
0000
0010
0000
0000
0000
0000
0000
0100
0001
,  // measure 38
0100
0001
0010
0001
1000
0000
0000
0000
,  // measure 39
0101
0100
0010
0100
0001
1000
0100
1000
,  // measure 40
0010
0100
0010
1000
0100
0010
0001
0000
,  // measure 41
1001
1000
0100
1000
0010
0100
0010
1000
,  // measure 42
0100
0010
0001
1000
0010
0100
0001
0000
,  // measure 43
0100
0000
0010
1000
0000
0100
1000
0000
0010
0000
0100
0000
0001
0000
1000
0000
,  // measure 44
0100
1000
0010
0100
0001
1000
0100
0010
,  // measure 45
0001
0100
1000
0100
0010
1000
0100
0010
,  // measure 46
0001
1000
0010
0001
0010
1000
0100
1000
,  // measure 47
0010
0000
0100
0010
0100
0000
0100
0010
0100
0000
0000
0000
0000
0000
0000
0000
,  // measure 48
0000
0000
1000
0001
1000
0000
1000
0001
1000
0000
0000
0000
0000
0000
0000
0010
,  // measure 49
0001
0000
0001
0100
0001
0000
0001
0100
0001
0000
0000
0000
0000
0000
0000
0000
,  // measure 50
0000
0000
0100
0010
1000
0000
0010
0100
0001
0000
0000
0000
0000
0000
0000
0000
;

//---------------dance-single - ----------------
#NOTES:
     dance-single:
     :
     Easy:
     3:
     0.185,0.212,0.115,0.067,0.000:
0000
0000
0000
0000
,
0000
0000
0000
0000
,
0010
0000
1000
0000
,
0100
0000
0100
0000
,
1000
0000
0001
0000
,
0010
0000
0010
0000
,
0001
0100
0001
1000
,
0010
1000
0100
0000
,
1001
0000
0000
0000
,
1001
0000
0000
0000
,
1000
0010
0100
0010
,
1000
0001
0010
0000
,
0101
0000
0000
0000
,
0101
0000
0000
0000
,
0001
1000
0100
1000
,
0010
0100
0010
0000
,
1010
0000
0000
0000
,
1010
0000
0000
0000
,
1000
0010
0100
0001
,
1000
0001
0010
0000
,
0110
0000
0000
0000
,
0110
0000
0001
1000
,
0010
0010
1000
0001
,
0100
0100
0100
0000
,
0010
0000
1000
0000
,
1001
0000
0000
0000
,
0010
0100
0001
0001
,
0010
0100
1000
1000
,
1000
0000
0001
0000
,
1001
0000
0000
0000
,
0200
0000
0310
0000
,
0200
0000
0310
0000
,
0200
0000
0310
0000
,
0200
0000
0310
0000
,
0100
0000
0001
0000
,
1000
0000
0010
0000
,
1000
0000
0100
0000
,
1000
0001
1000
0000
,
1010
1000
0001
0001
,
0100
0010
0100
0000
,
0001
0001
0010
0010
,
0001
1000
0100
0000
,
1001
0001
0100
0100
,
0010
1000
0010
0000
,
1000
1000
0010
0010
,
0100
0001
0100
0000
,
0002
0000
0003
0000
,
2000
0000
3000
0000
,
0020
0000
0030
0000
,
0100
0000
0000
0000
;
