#TITLE:A Spoonful of Sugar;
#SUBTITLE:;
#ARTIST:Disney Grooves;
#TITLETRANSLIT:;
#SUBTITLETRANSLIT:;
#ARTISTTRANSLIT:;
#CREDIT:;
#BANNER:;
#BACKGROUND:;
#LYRICSPATH:;
#CDTITLE:./CDTITLES/DanceDanceRevolution Disney Grooves.png;
#MUSIC:A Spoonful of Sugar.mp3;
#OFFSET:-0.050;
#SAMPLESTART:17.000;
#SAMPLELENGTH:15.000;
#SELECTABLE:YES;
#BPMS:0.000=138.000;
#STOPS:;
#BGCHANGES:;

//---------------dance-single - ----------------
#NOTES:
     dance-single:
     :
     Beginner:
     1:
     0.101,0.138,0.048,0.000,0.000:
0000
0000
0000
0000
,
0000
0000
0000
0000
,
0000
0000
0000
0000
,
0000
0000
0000
0000
,
0000
0000
0000
0000
,
0000
0000
0000
0000
,
0000
0000
1001
0000
,
0000
0000
1001
0000
,
0001
0000
1000
0000
,
0000
0000
1001
0000
,
1000
0000
0000
0000
,
0100
0000
0100
0000
,
0001
0000
0000
0000
,
1000
0000
0000
0000
,
1000
0000
0000
0000
,
0100
0000
0100
0000
,
0001
0000
0000
0000
,
0100
0000
0000
0000
,
1000
0000
1000
0000
,
0010
0000
0000
0000
,
0001
0000
0001
0000
,
0100
0000
0000
0000
,
1000
0000
0001
0000
,
0100
0000
0010
0000
,
0001
0000
1000
0000
,
0000
0000
1001
0000
,
0001
0000
0000
0000
,
0010
0000
0010
0000
,
1000
0000
0000
0000
,
0001
0000
0000
0000
,
0001
0000
0000
0000
,
0010
0000
0010
0000
,
1000
0000
0000
0000
,
0010
0000
0000
0000
,
0001
0000
0000
0000
,
1000
0000
0000
0000
,
0001
0000
0100
0000
,
0000
0000
0000
0000
,
1000
0000
0000
0000
,
0001
0000
0000
0000
,
0001
0000
0000
0000
,
0100
0000
0000
0000
,
0100
0000
0100
0000
,
0100
0000
0000
0000
,
1000
0000
1000
0000
,
1000
0000
0000
0000
,
0001
0000
0001
0000
,
0001
0000
0000
0000
,
1000
0000
0001
0000
,
1001
0000
0000
0000
,
0001
0000
0000
0000
,
0100
0000
0100
0000
,
1000
0000
0000
0000
,
0001
0000
0000
0000
,
0001
0000
0000
0000
,
0100
0000
0100
0000
,
1000
0000
0000
0000
,
0100
0000
0000
0000
;

//---------------dance-single - ----------------
#NOTES:
     dance-single:
     :
     Easy:
     3:
     0.137,0.193,0.058,0.000,0.000:
0000
0000
0000
0000
,
0000
0000
0000
0000
,
0000
0000
0000
0000
,
0000
0000
0000
0000
,
0000
0000
0000
0000
,
0000
0000
0000
0000
,
0000
0000
1001
0000
,
0000
0000
0110
0000
,
0001
0000
1000
0000
,
0000
0000
1001
0000
,
0001
0000
0001
0000
,
0010
0000
0010
0000
,
0001
0000
0100
0000
,
0100
0000
0100
0000
,
0001
0000
0001
0000
,
0010
0000
0010
0000
,
0001
0000
1000
0000
,
0100
0000
0000
0000
,
0001
0000
1000
1000
,
1000
0000
0001
0001
,
0001
0000
0100
0000
,
1000
0000
0000
0000
,
1000
0000
0100
0000
,
0010
0000
0001
0000
,
1000
0000
0001
0000
,
0000
0000
1001
0000
,
1000
0000
1000
0000
,
0010
0000
0010
0000
,
1000
0000
0100
0000
,
0100
0000
0100
0000
,
1000
0000
1000
0000
,
0010
0000
0010
0000
,
1000
0000
0001
0000
,
0100
0000
0000
0000
,
0001
0000
1000
0000
,
1000
0000
0001
0000
,
0001
0000
1000
0000
,
0000
0000
0000
0000
,
1000
0000
0010
0000
,
0010
0000
0001
0000
,
0001
0000
0100
0000
,
0100
0000
0000
0000
,
0100
0000
0100
0000
,
0000
0010
0010
0000
,
1000
0000
1000
0000
,
0000
0001
0001
0000
,
0001
0000
0001
0000
,
0000
1000
1000
0000
,
0000
0000
0110
0000
,
1001
0000
0000
0000
,
1000
0000
1000
0000
,
0100
0000
0100
0000
,
1000
0000
0010
0000
,
0010
0000
0010
0000
,
1000
0000
1000
0000
,
0100
0000
0100
0000
,
1000
0000
0001
0000
,
0010
0000
0000
0000
;

//---------------dance-single - ----------------
#NOTES:
     dance-single:
     :
     Medium:
     5:
     0.193,0.248,0.097,0.039,0.000:
0000
0000
0000
0000
,
0000
0000
0000
0000
,
0000
0000
0000
0000
,
0000
0000
0000
0000
,
0000
0000
0000
0000
,
0000
0000
0000
0000
,
1000
1000
1001
0000
,
0001
0001
1001
0000
,
0001
0000
1001
0000
,
0110
0000
1001
0000
,
0001
1000
0001
0000
,
0001
1000
0001
0000
,
1000
0000
0010
0000
,
1000
0000
0100
0000
,
0001
1000
0001
0000
,
0001
1000
0001
0000
,
1000
1000
0001
0000
,
0100
0000
0000
0000
,
0100
0000
0100
0100
,
0010
0000
0010
0010
,
0001
0000
0001
0001
,
1000
0000
1000
1000
,
0002
0000
2003
0000
,
3002
0000
2003
0000
,
3001
0000
1001
0000
,
0110
0000
1001
0000
,
1000
0001
1000
0000
,
1000
0001
1000
0000
,
0001
0000
0010
0000
,
0001
0000
0100
0000
,
1000
0001
1000
0000
,
1000
0001
1000
0000
,
0001
0001
1000
0000
,
0100
0000
0000
0000
,
0100
0000
1000
0000
,
1000
0000
0100
0000
,
0010
0000
0001
0000
,
0100
0100
0100
0000
,
0001
0000
0100
0000
,
0100
0000
1000
0000
,
1000
0000
0010
0000
,
0001
0000
1000
1000
,
0001
0000
0100
0000
,
0010
0010
0010
0000
,
1000
0000
0010
0000
,
0100
0100
0100
0000
,
0010
0000
1000
0000
,
0001
0001
0001
0000
,
1000
0000
1001
0000
,
0110
0000
0000
0000
,
0001
1000
0001
0000
,
0001
1000
0001
0000
,
1000
0000
0010
0000
,
1000
0000
0100
0000
,
0001
1000
0001
0000
,
0001
1000
0001
0000
,
1000
1000
0001
0000
,
0100
0000
0000
0000
;

//---------------dance-single - ----------------
#NOTES:
     dance-single:
     :
     Hard:
     7:
     0.284,0.363,0.116,0.039,0.000:
0000
0000
0000
0000
,
0000
0000
0000
0000
,
0000
0000
0000
0000
,
0000
0000
0000
0000
,
0000
0000
0000
0000
,
0000
0000
0000
0000
,
1100
0100
1001
0000
,
1010
0010
0011
0000
,
0110
0000
1001
0000
,
0010
0100
1001
0000
,
0010
0000
0100
0000
0010
0000
1000
0001
,
0010
0000
0100
0000
0010
0001
1000
0000
,
0100
0100
0010
0100
,
0001
0100
0010
0000
,
0010
0000
0100
0000
0010
0000
1000
0001
,
0010
0000
0100
0000
0010
0001
1000
0000
,
1000
0100
0010
0001
,
0010
0000
0000
0000
,
0010
0000
0000
1000
0100
0000
0010
0000
,
0001
0100
0000
0100
0001
0001
0001
0000
,
1000
0000
0000
0000
0010
0010
0010
0000
,
0100
0000
0000
0000
1000
1000
1000
0000
,
0001
0002
0103
0200
,
0310
0020
1030
2000
,
3010
0000
1001
0000
,
0100
0010
1001
0000
,
0100
0000
0010
0000
0100
0000
0001
1000
,
0100
0000
0010
0000
0100
1000
0001
0000
,
0010
0010
0100
0010
,
1000
0010
0100
0000
,
0100
0000
0010
0000
0100
0000
0001
1000
,
0100
0000
0010
0000
0100
1000
0001
0000
,
0001
0010
0100
1000
,
0100
0000
0000
0000
,
0001
0100
1000
0000
,
1000
0100
0001
0000
,
0001
1000
1000
0001
,
0100
0100
0100
0100
,
0010
0000
1000
0010
,
0100
0000
1000
0100
,
0010
0000
0001
0100
,
1000
0000
1000
0001
,
1000
0000
0100
0100
,
0001
0010
0001
0010
,
0001
0000
0010
0010
,
1000
0100
1000
0100
,
1000
0000
0001
0001
,
1000
0001
1000
0001
,
1000
0000
0011
0000
,
1100
0000
0000
0000
,
0100
0000
0010
0000
0100
0000
1000
0001
,
0100
0000
0010
0000
0100
0001
1000
0000
,
0010
0010
0100
0010
,
0001
0010
0100
0000
,
0100
0000
0010
0000
0100
0000
1000
0001
,
0100
0010
0100
1001
,
1000
0010
0100
0001
,
0100
0001
1000
0010
;
