#TITLE:Kiss Kiss;
#SUBTITLE:;
#ARTIST:Holly Valence;
#TITLETRANSLIT:;
#SUBTITLETRANSLIT:;
#ARTISTTRANSLIT:;
#CREDIT:;
#BANNER:Kiss Kiss-bn.png;
#BACKGROUND:Kiss Kiss-bg.png;
#LYRICSPATH:;
#CDTITLE:;
#MUSIC:Kiss Kiss.mp3;
#OFFSET:0.403;
#SAMPLESTART:94.848;
#SAMPLELENGTH:14.980;
#SELECTABLE:YES;
#BPMS:0.000=194.000;
#STOPS:;
#BGCHANGES:0.500=Kiss Kiss.avi=1.000=1=0=0,
99999=-nosongbg-=1.000=0=0=0 // don't automatically add -songbackground-
;

//---------------dance-single - ----------------
#NOTES:
     dance-single:
     :
     Beginner:
     1:
     0.134,0.160,0.009,0.000,0.000:
0000
0000
0000
0000
,
0000
0000
0000
0000
,
0000
0000
0000
0000
,
0000
0000
0000
0000
,
0000
0000
0000
0000
,
0000
0000
0000
0000
,
0000
0000
0000
0000
,
0000
0000
0000
0000
,
0000
0000
0000
0000
,
1000
0000
0000
0000
,
0001
0000
0000
0000
,
1000
0000
0000
0000
,
0001
0000
0000
0000
,
0100
0000
0000
0000
,
0010
0000
0000
0000
,
0100
0000
0000
0000
,
0010
0000
0000
0000
,
1001
0000
0000
0000
,
0100
0000
0000
0000
,
1000
0000
1000
0000
,
1000
0000
0000
0000
,
0100
0000
0000
0000
,
1000
0000
0000
0000
,
0010
0000
0000
0000
,
0001
0000
0001
0000
,
0001
0000
0000
0000
,
1000
0000
0000
0000
,
0100
0000
0000
0000
,
1000
0000
1000
0000
,
0010
0000
0000
0000
,
1000
0000
0000
0000
,
0001
0000
0000
0000
,
0010
0000
0010
0000
,
0010
0000
0000
0000
,
0000
0000
0000
0000
,
0001
0000
0001
0000
,
0001
0000
0000
0000
,
0100
0000
0100
0000
,
0100
0000
0000
0000
,
0001
0000
0001
0000
,
0001
0000
0000
0000
,
1000
0000
1000
1000
,
0000
0000
0000
0000
,
0100
0000
0100
0000
,
0100
0000
0000
0000
,
1000
0000
1000
0000
,
1000
0000
0000
0000
,
0010
0000
0010
0000
,
0010
0000
0000
0000
,
1000
0000
1000
1000
,
0000
0000
0000
0000
,
0001
0000
0000
0000
,
1000
0000
0000
0000
,
0001
0000
0000
0000
,
1000
0000
0000
0000
,
0010
0000
0000
0000
,
0100
0000
0000
0000
,
0010
0000
0000
0000
,
0100
0000
0000
0000
,
0001
0000
0000
0000
,
1000
0000
0000
0000
,
0100
0000
0000
0000
,
1000
0000
1000
0000
,
0100
0000
0000
0000
,
1000
0000
0000
0000
,
0001
0000
0000
0000
,
0010
0000
0010
0000
,
0001
0000
0000
0000
,
1000
0000
0000
0000
,
0010
0000
0000
0000
,
1000
0000
0100
0000
,
1000
0000
0000
0000
,
0010
0000
0000
0000
,
1000
0000
0000
0000
,
0001
0000
0100
0000
,
0001
0000
0000
0000
,
0100
0000
0000
0000
,
0010
0000
0010
0000
,
0010
0000
0000
0000
,
1000
0000
1000
0000
,
1000
0000
0000
0000
,
0001
0000
0001
0000
,
0001
0000
0000
0000
,
0010
0000
0010
0010
,
0000
0000
0000
0000
,
0010
0000
0010
0000
,
0010
0000
0000
0000
,
0100
0000
0100
0000
,
0100
0000
0000
0000
,
1000
0000
1000
0000
,
1000
0000
0000
0000
,
0001
0000
0001
0001
;

//---------------dance-single - ----------------
#NOTES:
     dance-single:
     :
     Medium:
     9:
     0.441,0.559,0.148,0.009,0.000:
0000
0000
0000
0000
,
0000
0000
0000
0000
,
0000
0000
0000
0000
,
0000
0000
0000
0000
,
0000
0000
0000
0000
,
0000
0000
1000
0000
0000
1000
0000
0000
,
0000
0000
0000
0000
,
0000
0000
0001
0000
0000
0001
0000
0000
,
0000
0000
0000
0000
,
0100
0010
0100
0010
,
1000
0000
0100
0000
1000
0001
0100
0000
,
0010
0100
0010
0100
,
0001
0000
0100
0000
0010
1000
0001
0000
,
1000
0100
1000
0100
,
0010
0000
0001
0000
1000
0001
0100
0000
,
0010
0100
0001
1000
,
1001
0000
0000
0000
,
0100
1000
0100
1000
,
0010
0100
0010
0100
,
0001
0100
0001
0100
,
0110
0101
1001
0000
,
0100
1000
0100
1000
,
0010
1000
0010
1000
,
0001
0100
0001
0100
,
0101
0110
1001
0000
,
0010
1000
0001
0100
,
0010
1000
0000
1000
0010
0000
0100
0000
,
0001
1000
0100
0010
,
0001
1000
0100
0000
1001
0000
0000
0000
,
0010
0100
0001
1000
,
0010
1000
0000
1000
0010
0000
0100
0000
,
0001
0100
0010
1000
,
1100
0100
1001
0001
,
0110
0001
0100
1000
,
0010
0000
0000
0000
,
1000
0000
0000
0100
0010
0000
0000
1000
,
0100
0010
0001
0000
,
0100
0000
0000
0001
0010
0000
0000
0100
,
1000
0010
0100
0000
,
0001
0000
0000
1000
0100
0000
0000
1000
,
0010
0100
0001
0000
,
0010
0100
0010
0001
1000
0001
0100
0000
,
0000
0000
0000
0000
,
0010
0000
0000
1000
0010
0000
0000
0100
,
0001
1000
0100
0000
,
0010
0000
0000
0001
0010
0000
0000
0100
,
1000
0010
0100
0000
,
0010
0000
0000
1000
0100
0000
0000
1000
,
0001
0100
0010
1000
,
0100
1000
0100
1000
0010
0100
0001
0000
,
0000
0000
0000
0000
,
0010
0100
0010
0100
,
0001
0000
0100
0000
0010
1000
0100
0000
,
0010
0100
0010
0100
,
1000
0000
0001
0000
0100
0010
1000
0000
,
0001
0100
0010
1000
,
0100
0000
0010
0000
0001
0010
0100
0000
,
1000
0010
0100
0010
,
1000
0000
0000
0000
,
0001
0000
0000
0100
0000
0000
0010
0000
,
1000
0000
0000
0100
0000
0000
1000
0000
,
0010
0000
0000
0100
0000
0000
0001
0000
,
0101
1001
1100
0000
,
1000
0000
0000
0100
0000
0000
0010
0000
,
0001
0000
0000
0100
0000
0000
0010
0000
,
1000
0000
0000
0001
0000
0000
1000
0000
,
0110
1100
0011
0000
,
0100
0010
1000
0001
,
0100
0010
0100
0000
0010
0100
0010
0000
,
1000
0001
1000
0100
,
0010
0001
0010
0000
0001
0010
0001
0000
,
0100
0010
0100
0001
,
1000
0100
1000
0000
1000
0100
1000
0000
,
0010
1000
0001
0100
,
0010
0100
0001
1000
,
0100
0100
0100
0100
,
2000
0000
0000
0000
,
3010
1000
0100
1000
,
0010
0100
0010
0100
0010
0000
1000
0000
,
0001
1000
0100
0010
,
0001
0100
0001
0100
0001
0000
0010
0000
,
0001
1000
0010
0100
,
0010
1000
0010
1000
0010
0000
0100
0001
,
0100
0010
0100
0001
1000
0100
0010
0000
,
0000
0000
0000
0000
,
0001
0010
0100
1000
,
0100
1000
0100
1000
0100
0000
1000
0000
,
0010
0100
0001
1000
,
0010
1000
0010
1000
0010
0000
0100
0000
,
0010
1000
0001
0010
,
0100
0010
0100
0010
0100
0000
0010
0001
,
0010
0100
1000
0001
0100
0010
1000
0000
;

//---------------dance-single - ----------------
#NOTES:
     dance-single:
     :
     Hard:
     12:
     0.629,0.679,0.383,0.104,0.000: // measure 1
0000
0000
0000
0000
,  // measure 2
0000
0000
0000
0000
,  // measure 3
0000
0000
0000
0000
,  // measure 4
0000
0000
0000
0000
,  // measure 5
0000
0000
0000
0000
,  // measure 6
0010
0000
1010
0000
0000
1001
0000
0000
,  // measure 7
0010
0000
0000
0100
0000
0000
0001
0000
,  // measure 8
0000
0000
0101
0000
0000
1001
0000
0000
,  // measure 9
0100
0000
0000
1000
0000
0000
0000
0000
,  // measure 10
0010
1000
0010
0000
0100
0001
0100
0000
,  // measure 11
0010
1000
0010
1000
0001
1000
0001
0000
,  // measure 12
0010
0100
0010
0000
1000
0100
1000
0000
,  // measure 13
0001
0100
0001
0100
0010
0100
0010
0000
,  // measure 14
1000
0100
1000
0000
0001
0010
0001
0000
,  // measure 15
1000
0010
1000
0010
0100
0010
0100
0000
,  // measure 16
0001
0100
0001
0000
1000
0100
1000
0000
,  // measure 17
1001
0000
0000
0100
0000
0000
0010
0000
,  // measure 18
1000
0000
0100
1000
0000
0000
0010
0000
,  // measure 19
1000
0000
0010
0100
0010
1000
0001
0000
,  // measure 20
1000
0000
0001
0100
0000
0000
1000
0000
,  // measure 21
0110
0101
1010
0000
,  // measure 22
0010
0000
0100
0001
0000
0000
1000
0000
,  // measure 23
0100
0000
1000
0010
1000
0001
0100
0000
,  // measure 24
0010
0000
0100
0000
0001
0100
0010
0000
,  // measure 25
1100
1001
0110
0000
,  // measure 26
2000
0000
3002
0000
,  // measure 27
0103
0010
0100
0001
1000
0010
0100
0000
,  // measure 28
0002
0000
2003
0000
,  // measure 29
3100
1000
0010
1000
0001
0100
0010
0000
,  // measure 30
0200
0000
0320
0000
,  // measure 31
1030
0010
0100
0010
1000
0001
0010
0000
,  // measure 32
0200
0000
2300
0000
,  // measure 33
3010
0000
0000
0100
0001
0000
0000
1000
,  // measure 34
0100
0101
1010
0110
,  // measure 35
1001
0000
0000
0100
0000
0000
0100
0000
,  // measure 36
0010
0000
0010
1000
0100
0000
0100
0010
,  // measure 37
0001
0010
0001
0010
0001
0000
0100
0010
,  // measure 38
1000
0000
1000
0010
0100
0000
0100
0001
,  // measure 39
1000
0100
1000
0100
1000
0000
0010
0100
,  // measure 40
0001
0000
0001
0010
1000
0000
1000
0010
,  // measure 41
0001
0100
0001
0100
0001
0000
0010
0100
,  // measure 42
0001
0100
0010
1000
0001
0100
0010
0000
,  // measure 43
0000
0110
0110
0000
,  // measure 44
0001
0000
0001
0100
0010
0000
0010
1000
,  // measure 45
0100
0010
0100
0010
0100
0000
1000
0010
,  // measure 46
0100
0000
0100
0010
1000
0000
1000
0001
,  // measure 47
0010
1000
0010
1000
0010
0000
0001
0100
,  // measure 48
0010
0000
0010
0100
0001
0000
0001
1000
,  // measure 49
0100
1000
0100
1000
0100
0000
0010
1000
,  // measure 50
0100
1000
0010
0100
0001
0010
1000
0000
,  // measure 51
0000
0110
1001
0000
,  // measure 52
0010
1000
0010
0000
0100
0001
0100
0000
,  // measure 53
0001
1000
0001
1000
0100
0010
0100
0000
,  // measure 54
1000
0100
1000
0000
0010
0100
0010
0000
,  // measure 55
1000
0100
1000
0100
0010
0001
0010
0000
,  // measure 56
0001
0100
0001
0000
1000
0100
1000
0000
,  // measure 57
0010
0100
0010
0100
0001
0100
0001
0000
,  // measure 58
0010
0100
0001
0100
0010
1000
0001
0000
,  // measure 59
1100
0000
0000
0101
0000
0000
0000
0000
,  // measure 60
0010
0000
1000
0100
1000
0000
0010
0000
,  // measure 61
0100
0001
0100
0010
1000
0000
0100
0000
,  // measure 62
1000
0100
1000
0001
0010
0100
0010
0000
,  // measure 63
1001
0101
1010
0000
,  // measure 64
0100
0010
0100
0001
1000
0000
0010
0000
,  // measure 65
1000
0100
1000
0000
0001
0100
0001
0000
,  // measure 66
1000
0100
1000
0010
0100
0001
0010
0000
,  // measure 67
0110
0011
1100
0000
,  // measure 68
0020
0000
0230
0000
,  // measure 69
0301
1000
0000
1000
0100
0000
1000
0000
,  // measure 70
0110
1010
1001
0110
,  // measure 71
0011
1100
1001
0000
,  // measure 72
0020
0000
0230
0000
,  // measure 73
0301
0100
0000
0100
0001
0000
1000
0000
,  // measure 74
0010
0100
0010
1000
,  // measure 75
1100
0110
0011
1001
,  // measure 76
1010
0101
0110
1001
,  // measure 77
0100
0000
0000
0100
0000
0000
0010
0000
,  // measure 78
0001
0000
0001
0010
0100
0000
0100
1000
,  // measure 79
0010
0100
0010
0100
0010
0000
1000
0001
,  // measure 80
0100
0000
0100
0010
1000
0000
1000
0001
,  // measure 81
0010
1000
0010
1000
0010
0000
0001
0010
,  // measure 82
0100
0000
0100
1000
0010
0000
0010
1000
,  // measure 83
0001
1000
0001
1000
0001
0000
1000
0100
,  // measure 84
0001
0100
1000
0010
0100
0001
1000
0000
,  // measure 85
0000
1001
1001
0000
,  // measure 86
0001
0000
0001
0010
0100
0000
0100
1000
,  // measure 87
0010
0100
0010
0100
0010
0000
1000
0100
,  // measure 88
0010
0000
0010
0001
0100
0000
0100
0010
,  // measure 89
1000
0001
1000
0001
1000
0000
0100
1000
,  // measure 90
0001
0000
0001
0010
1000
0000
1000
0010
,  // measure 91
0100
0010
0100
0010
0100
0000
1000
0100
,  // measure 92
0010
0001
0100
0010
1000
0001
0100
0000
;

//---------------dance-single - ----------------
#NOTES:
     dance-single:
     :
     Easy:
     6:
     0.312,0.359,0.009,0.026,0.000:
0000
0000
0000
0000
,
0000
0000
0000
0000
,
0000
0000
0000
0000
,
0000
0000
0000
0000
,
0000
0000
0000
0000
,
0000
0000
1000
0000
0000
1000
0000
0000
,
0000
0000
0000
0000
,
0000
0000
0001
0000
0000
0001
0000
0000
,
0000
0000
0000
0000
,
0010
0000
1000
0000
,
0100
1000
0001
1000
,
0010
0000
1000
0000
,
0001
0010
0100
1000
,
0010
0000
1000
0000
,
0100
1000
0010
0100
,
0001
0000
0100
0010
,
0000
0000
0000
0000
,
1000
0000
0100
0000
,
1000
0000
0001
0000
,
0010
0001
0100
0010
,
1000
1000
1000
0000
,
0100
0000
1000
0000
,
0001
0000
1000
0000
,
0010
1000
0100
0010
,
0001
0001
0001
0000
,
0100
0000
0100
0000
,
0010
0010
1000
0001
,
0100
0000
0100
0000
,
0010
1000
0001
0000
,
0100
0000
0100
0000
,
0010
0010
1000
0001
,
0100
0000
0100
0000
,
0010
0000
1000
0000
,
0001
1000
0001
1000
,
0001
0000
0000
0000
,
1000
0000
0100
0000
,
0010
0001
0010
0000
,
0001
0000
0100
0000
,
0010
1000
0010
0000
,
0100
0000
0010
0000
,
1000
0001
1000
0000
,
0100
1000
0010
0200
,
0000
0001
0301
0000
,
0010
0000
0100
0000
,
0001
0100
0010
0000
,
1000
0000
0001
0000
,
1000
0100
0010
0000
,
0001
0000
1000
0000
,
0010
1000
0100
0000
,
1000
0010
0100
0002
,
0000
0100
0103
0000
,
0010
0000
0100
0000
,
0001
1000
0100
1000
,
0001
0000
0010
0000
,
0001
0010
0100
1000
,
0010
0000
1000
0000
,
0010
1000
0100
0010
,
0001
0000
0100
0000
,
0010
0000
0000
0000
,
0100
0010
0100
0010
,
1000
0010
1000
0010
,
1000
0001
1000
0001
,
0100
0100
0100
0000
,
0001
0010
0001
0010
,
0100
0010
0100
0010
,
0100
1000
0100
1000
,
0010
0010
0010
0000
,
1000
0000
0001
0000
,
0100
0100
0010
0010
,
1000
0000
0001
0000
,
1000
0000
0100
0000
,
1000
0000
0010
0000
,
0100
0100
0001
0001
,
1000
0000
0010
0000
,
1000
0000
0100
0000
,
0010
0000
0001
0000
,
1001
0000
0000
0000
,
0010
1000
0100
1000
,
0001
0001
0001
0010
,
0001
0100
0010
1000
,
0100
0100
0100
0010
,
0001
0100
0010
0100
,
1000
1000
1000
0100
,
0001
1000
0100
0020
,
0000
0100
0130
0000
,
0010
0001
1000
0010
,
1000
1000
1000
0100
,
1000
0010
0100
0010
,
1000
1000
1000
0100
,
0010
0001
0100
0001
,
0010
0010
0010
1000
,
0010
0001
0100
0010
;
