#TITLE:Shake It Off;
#SUBTITLE:;
#ARTIST:Taylor Swift;
#TITLETRANSLIT:;
#SUBTITLETRANSLIT:;
#ARTISTTRANSLIT:;
#GENRE:Anti-Hater;
#CREDIT:;
#BANNER:Shake It Off.png;
#BACKGROUND:Shake It Off-bg.png;
#LYRICSPATH:;
#CDTITLE:;
#MUSIC:Shake It Off.ogg;
#OFFSET:0.000000;
#SAMPLESTART:92.993813;
#SAMPLELENGTH:13.714000;
#SELECTABLE:YES;
#BPMS:0.000000=160.000000
;
#STOPS:
;
#BGCHANGES:8.000=Shake It Off.avi=1.000=0=0=1=====,
99999=-nosongbg-=1.000=0=0=0 // don't automatically add -songbackground-
;
#KEYSOUNDS:;
#ATTACKS:;

//---------------dance-single - ----------------
#NOTES:
     dance-single:
     :
     Hard:
     7:
     0.287711,0.339883,0.370073,0.202566,0.000000,370.000000,95.000000,52.000000,0.000000,0.000000,0.000000,0.287711,0.339883,0.370073,0.202566,0.000000,370.000000,95.000000,52.000000,0.000000,0.000000,0.000000:
0000
0000
0000
0000
,
0000
0000
0000
0000
,
0000
0000
0000
0000
,
0000
0000
0000
0000
0001
0010
0100
0000
,
1000
1100
0101
1000
,
0101
0000
1100
0000
1000
0100
0010
0000
,
0001
0011
1010
1000
,
1010
0000
0011
0000
1000
0001
0100
0000
,
0010
1000
0001
0000
0000
0000
1100
0000
,
0101
0000
1000
0000
0001
1000
0100
0000
,
1000
0001
0100
0000
0000
0000
0101
0000
,
1100
0000
0001
0000
0100
0010
0100
0000
,
0001
1001
1100
1000
,
1001
0000
0101
0000
1000
0100
0010
0000
,
0001
1001
0101
1000
,
1001
0000
1100
0000
0001
1000
0010
0000
,
0100
0001
1000
0000
0000
0000
0011
0000
,
1010
0000
0001
0000
1000
0001
0010
0000
,
0001
1000
0010
0000
0000
0000
1010
0000
,
0011
2000
3002
0203
,
0320
0000
1030
0000
,
0010
1000
0010
0000
1000
0100
1000
0000
,
0200
0000
0310
0000
,
0010
0001
0010
0000
0001
1000
0001
0000
,
2000
0000
3010
0000
,
0010
1000
0001
0000
0010
0001
1000
0000
,
0110
0000
0001
0010
0100
2000
0000
3001
,
0000
0000
1001
0000
0110
0000
1000
0100
,
1000
1000
0010
1000
0002
0000
0023
0000
,
0230
2300
3001
0110
,
0001
0001
0010
0001
2000
0000
3200
0000
,
0320
0032
1003
0110
,
1000
0010
0100
0010
2000
0000
3002
0000
,
0203
0320
0130
1001
,
0001
0100
1000
0000
0000
0000
0001
0100
,
1000
0110
1001
0110
,
0001
0001
0100
0001
2000
0000
3200
0000
,
0320
0032
1003
0110
,
1000
1000
0100
1000
0002
0000
0023
0000
,
0230
2300
3001
0110
,
0001
0100
0010
0100
0002
0000
2003
0000
,
3020
0230
0310
1001
,
1000
0010
0001
0000
0000
0000
1000
0010
,
0001
0110
1001
0110
,
1000
0000
0001
0000
,
0100
0000
0000
0000
0010
1000
0001
0000
,
1000
0000
0001
0000
,
0010
0001
1000
0100
,
0110
0000
0001
0000
,
1000
0000
0001
0000
0100
0010
1000
0000
,
2020
3030
0202
0303
,
1002
0100
0100
0103
,
2000
0000
3200
0000
0320
0000
0031
1000
,
0200
0000
2300
0000
3002
0000
0103
0010
,
0110
1001
0220
0330
,
1000
0010
0100
0001
0010
0100
1000
0000
,
0002
0000
2003
0000
3020
0000
0130
0001
,
2000
3200
0320
0031
,
0100
0010
0100
0001
0010
0100
1000
0010
,
0100
0000
0000
0100
0000
0000
0100
0000
,
0000
0000
0000
0000
,
0000
1010
0101
1001
,
0010
1000
0100
0010
0011
0000
1100
0000
,
0101
0000
1010
0000
1001
0000
0010
0010
,
0100
0001
0010
0100
1100
0000
0011
0000
,
1010
0000
0101
0000
1001
0000
0100
0100
,
0001
1000
0010
1000
1001
0000
0110
0000
,
1100
0011
0101
1010
,
0001
0100
1000
0000
0000
0000
0001
0100
,
1000
1001
1001
1001
,
0100
0001
0010
0100
1100
0000
0011
0000
,
1010
0000
0101
0000
1001
0000
0100
0100
,
0010
1000
0100
0010
0011
0000
1100
0000
,
0101
0000
1010
0000
1001
0000
0010
0010
,
1000
0001
0100
0001
1001
0000
0110
0000
,
0011
1100
1010
0101
,
1000
0010
0001
0000
0000
0000
1000
0010
,
0001
1001
1001
1001
,
0001
1000
0100
0000
0000
0000
1000
0001
,
0100
0000
0000
1001
0000
1001
0000
0000
,
0001
1000
0010
0000
0000
0000
1000
0001
,
0010
0000
0000
1001
0000
1001
0000
0000
,
0001
0100
1000
0000
0000
0000
1000
0100
,
0001
0000
0000
0101
0000
1100
0000
0000
,
1000
0100
0001
0000
0000
0000
0001
0100
,
2000
3001
0110
1001
,
0200
0000
0000
0000
,
0000
0300
0000
0000
;

//---------------dance-single - ----------------
#NOTES:
     dance-single:
     :
     Challenge:
     8:
     0.330562,0.322426,0.292163,0.109074,0.000000,491.000000,75.000000,28.000000,0.000000,0.000000,0.000000,0.330562,0.322426,0.292163,0.109074,0.000000,491.000000,75.000000,28.000000,0.000000,0.000000,0.000000:
0000
0000
0000
0000
,
0000
0000
0000
0000
,
0000
0000
0000
0000
,
0000
0000
0000
0000
1000
0100
0010
0001
,
0100
0010
0010
0000
1001
0000
0100
0010
,
0010
0000
1001
0000
0001
0010
0100
1000
,
0010
0100
0100
0000
1001
0000
0010
0100
,
0100
0000
1001
0000
1000
0100
1000
0001
,
0100
0001
0020
0000
0130
0000
2000
0000
,
3002
0000
0103
0000
0001
0010
0001
1000
,
0010
1000
0200
0000
0310
0000
0002
0000
,
2003
0000
3010
0010
0100
0001
0010
0100
,
1000
0000
1100
0000
0011
0000
0100
0001
,
1000
0000
1001
0000
0010
1000
0100
0010
,
0001
0000
0011
0000
1100
0000
0010
1000
,
0001
0000
1001
0000
0001
0010
0001
1000
,
0010
1000
0200
0000
0310
0000
0002
0000
,
2003
0000
3010
0000
1000
0100
1000
0001
,
0100
0001
0020
0000
0130
0000
2000
0000
,
3002
0103
1001
0110
,
1000
0010
0001
0000
1000
0010
0001
0000
,
0100
0001
0010
0100
1000
0010
0100
0010
,
1000
0100
0001
0000
1000
0100
0001
0000
,
0101
1010
1100
0011
,
0100
0010
0100
0000
0001
1000
0001
0000
,
2000
0000
3002
0000
0013
0000
0001
1000
,
0100
0000
0010
0010
0001
0100
0010
1000
,
0001
0000
1001
0000
0110
0000
1000
0010
,
1000
0001
0010
0100
1100
0000
0110
0000
,
0011
0000
1001
0000
1010
0000
0001
0100
,
0001
1000
0100
0010
0011
0000
0110
0000
,
1100
0000
1001
0000
1010
0000
0100
0010
,
0100
0100
0001
1000
1010
0000
0011
0000
,
0101
1100
1001
0000
,
1000
0001
0100
0000
0001
1000
0001
1000
,
0100
0000
1000
0010
0100
0001
1000
0000
,
0001
0010
0100
1000
1100
0000
0110
0000
,
0011
0000
1010
0000
1001
0000
0001
0100
,
0001
1000
0100
0010
0110
0000
1100
0000
,
0011
0000
0101
0000
1010
0000
0001
1000
,
0001
0001
0100
0010
0110
0000
1010
0000
,
1100
0101
1001
0000
,
0001
1000
0010
0000
1000
0001
1000
0001
,
0010
0000
0001
0100
1000
0100
0001
0000
,
0100
0000
0001
1000
0100
0100
0100
0000
,
1000
0000
0101
0100
0000
1100
0100
0000
,
2001
0000
3010
0100
0000
0100
0010
0000
,
1000
1000
0001
0001
0000
0100
0010
1000
,
0001
0000
0010
0001
0000
1000
0010
0000
,
0010
1000
0001
1001
0000
0100
0101
0000
,
2200
3300
0022
0033
,
2001
0000
3010
0000
0100
0010
0100
0000
,
0101
0000
1010
0000
1001
0000
0100
0001
,
0010
0000
0200
0000
1300
0000
0100
1000
,
1001
0000
1001
0000
1001
0000
0100
0100
,
0001
0010
0100
1000
0010
0100
0100
0001
,
0001
1000
0010
1000
0001
0000
1000
0100
,
0010
0010
0002
0000
0203
0000
0310
0100
,
0001
0001
1000
1000
0100
1000
0010
0100
,
0002
0000
0103
0020
0000
1030
0200
0000
,
0000
0300
0000
0000
,
0000
0110
1001
0110
,
0001
0010
0001
0100
0010
1000
0010
0100
,
0010
0001
0010
0100
0010
0000
0100
0001
,
0010
0100
1000
0010
0100
1000
0100
0010
,
0100
0001
0100
1000
0100
0000
0001
0010
,
0100
1000
0010
0100
0110
0000
1010
0000
,
1100
0000
0101
0000
1001
0000
0010
1000
,
0001
1000
0001
0000
0010
0001
1000
0001
,
1000
0000
0001
0100
1000
0100
0001
0000
,
1000
0100
1000
0010
1000
0001
1000
0100
,
1000
0010
1000
0001
1000
0000
1100
0000
,
0001
0100
0001
0010
0001
1000
0001
0100
,
0001
0010
0001
1000
0001
0000
0101
0000
,
1000
1000
0001
0100
0101
0000
1010
0000
,
0010
1000
0001
0000
1100
0000
0001
1000
,
0001
1000
0010
0000
1000
0001
1000
0001
,
0010
0000
0001
0010
1000
0010
0001
0000
,
1000
0100
0010
0001
0100
0010
1000
0001
,
0100
0010
1000
0001
0100
0001
0100
0001
,
1000
0100
0010
0001
0100
0010
1000
0001
,
0010
0001
1000
0100
0010
0100
0010
0100
,
1000
0010
0100
0001
1000
0100
0010
0001
,
1000
0010
0100
0001
1000
0001
1000
0001
,
0100
0010
1000
0100
0010
0001
1000
0010
,
0200
0000
0301
1000
0001
1000
0010
0200
,
0000
0000
0000
0000
,
0000
0300
0000
0000
0000
0000
0000
0000
;

//---------------dance-single - ----------------
#NOTES:
     dance-single:
     :
     Medium:
     5:
     0.195332,0.271517,0.303850,0.038955,0.000000,263.000000,78.000000,10.000000,0.000000,0.000000,0.000000,0.195332,0.271517,0.303850,0.038955,0.000000,263.000000,78.000000,10.000000,0.000000,0.000000,0.000000:
0000
0000
0000
0000
,
0000
0000
0000
0000
,
0000
0000
0000
0000
,
0000
0000
0000
0000
0001
0000
1000
0100
,
2000
3000
0000
0000
,
0000
0000
0000
0000
1000
0000
0001
0100
,
0002
0003
0000
0000
,
0000
0000
0100
0001
,
1000
1000
0000
1001
,
1001
0000
0100
1000
,
0001
0001
0000
1001
,
1001
0000
0000
0000
0100
0001
1000
0000
,
0002
0003
0000
0000
,
0000
0000
0000
0000
0010
1000
0001
0000
,
2000
3000
0000
0000
,
0000
0000
0000
0000
0001
0100
0001
0000
,
1000
0001
0000
1001
,
1001
0000
0000
0000
1000
0100
1000
0000
,
0001
1000
0000
1001
,
1001
0100
0010
1000
,
0200
0000
0310
0000
,
0001
0010
0100
1000
,
0020
0000
0130
0000
,
0010
0100
0001
1000
,
0200
0000
0310
0000
,
0001
0010
0100
1000
,
0001
0000
0100
0010
0100
0010
0000
0100
,
0000
1001
1001
1001
,
0100
0010
1010
1010
,
1010
1010
1010
0000
,
1000
0100
0110
0110
,
0110
0110
0110
0000
,
0010
0001
0101
0101
,
0101
0101
0101
0000
,
1000
0001
1000
0000
0000
0000
0001
1000
,
0001
0000
0000
0000
,
0010
0100
0101
0101
,
0101
0101
0101
0000
,
0001
0010
0110
0110
,
0110
0110
0110
0000
,
0100
1000
1010
1010
,
1010
1010
1010
0000
,
0001
1000
0001
0000
0000
0000
1000
0001
,
1000
0000
0000
0000
,
1000
0000
0001
0000
,
0100
0010
1000
0000
,
0001
0000
1000
0000
,
0100
0010
0001
0000
,
1000
0000
0001
0000
,
0100
0010
1000
0000
,
1001
0000
0110
0000
,
2002
0000
0000
3003
,
0010
1000
0001
0001
,
0010
0001
1000
0100
,
0010
0010
0010
0000
,
0001
0010
0100
1000
,
0010
0010
1000
0001
,
0100
0100
0001
0000
,
1000
0100
0010
0001
,
1000
0000
0000
0001
0000
0000
1001
0000
,
0000
0000
0000
0000
,
0000
1001
0110
1001
,
0100
0010
1010
1010
,
1010
1010
1010
0000
,
0010
1000
1001
1001
,
1001
1001
1001
0000
,
0100
0001
0101
0101
,
0101
0101
0101
0000
,
1000
0001
1000
0000
0000
0000
0001
1000
,
0001
0000
0000
0000
,
0010
0100
1100
1100
,
1100
1100
1100
0000
,
1000
0001
0101
0101
,
0101
0101
0101
0000
,
0001
0100
0110
0110
,
0110
0110
0110
0000
,
1000
0001
1000
0000
0000
0000
0001
1000
,
0001
0000
0000
0000
,
1000
0100
1000
0000
0000
0000
0001
0100
,
0001
0000
1000
0001
,
0100
0010
0100
0000
0000
0000
0010
0100
,
0010
0000
0100
0001
,
1000
0010
1000
0000
0000
0000
0001
0010
,
0001
0000
0100
0001
,
1000
0100
1000
0000
0000
0000
0001
0100
,
0001
0000
1000
0001
,
0200
0000
0000
0000
,
0000
0300
0000
0000
0000
0000
0000
0000
;

//---------------dance-single - ----------------
#NOTES:
     dance-single:
     :
     Easy:
     3:
     0.119091,0.152728,0.046746,0.050642,0.000000,189.000000,12.000000,13.000000,0.000000,0.000000,0.000000,0.119091,0.152728,0.046746,0.050642,0.000000,189.000000,12.000000,13.000000,0.000000,0.000000,0.000000:
0000
0000
0000
0000
,
0000
0000
0000
0000
,
0000
0000
0000
0000
,
0000
0000
1000
0001
,
0200
0300
0000
0000
,
0000
0000
0001
1000
,
0200
0300
0000
0000
,
0000
0000
1000
0001
,
0020
0030
0000
0100
,
0100
0000
0010
0001
,
0200
0300
0000
0010
,
0010
0000
0100
0001
,
2000
3000
0000
0000
,
0000
0000
0100
1000
,
0002
0003
0000
0000
,
0000
0000
0100
0001
,
0020
0030
0000
0100
,
0100
0000
0100
1000
,
0020
0030
0000
0100
,
0100
0000
0001
0000
,
2000
0000
3001
0000
,
0100
0000
0100
0000
,
0002
0000
1003
0000
,
0100
0000
0100
0000
,
2000
0000
3010
0000
,
0001
0000
0001
0000
,
0010
0000
0100
0000
,
1001
0000
0000
0000
,
1000
0000
0001
0100
,
0001
0100
0001
0000
,
0001
0000
1000
0100
,
1000
0100
1000
0000
,
0100
0000
0010
0001
,
0010
0001
0010
0000
,
1001
0000
0000
1001
,
0000
0000
0000
0000
,
0100
0000
0010
1000
,
0010
1000
0010
0000
,
0100
0000
0001
1000
,
0001
1000
0001
0000
,
0010
0000
0100
1000
,
0100
1000
0100
0000
,
1001
0000
0000
1001
,
0000
0000
0000
0000
,
0010
0000
0010
0000
,
0001
0000
0001
0000
,
1000
0000
1000
0000
,
0010
0000
0010
0000
,
1000
0000
1000
0000
,
0001
0000
0001
0000
,
1001
0000
1001
0000
,
1001
0000
0000
0000
,
0100
0100
0100
0000
,
0001
0001
0001
0000
,
1000
0000
0001
0000
,
0010
0010
0010
0000
,
0001
0001
0001
0000
,
1000
1000
1000
0000
,
0100
1000
0010
0100
,
0002
0000
0000
0000
,
0003
0000
0000
0000
,
0000
0001
1000
0001
,
0100
0000
0010
1000
,
0010
1000
0010
0000
,
0100
0000
0001
1000
,
0001
1000
0001
0000
,
0010
0000
0100
1000
,
0100
1000
0100
0000
,
1001
0000
0000
1001
,
0000
0000
0000
0000
,
1000
0000
0001
0010
,
0001
0010
0001
0000
,
1000
0000
0010
0100
,
0010
0100
0010
0000
,
1000
0000
0100
0010
,
0100
0010
0100
0000
,
1001
0000
0000
1001
,
0000
0000
0000
0000
,
0100
0100
0000
0001
,
0001
0000
1000
0000
,
0010
0010
0000
1000
,
1000
0000
0001
0000
,
0010
0010
0000
0100
,
0100
0000
1000
0000
,
0001
0001
0000
0100
,
0100
0000
0010
0000
,
2000
0000
0000
0000
,
0000
3000
0000
0000
0000
0000
0000
0000
;

//---------------dance-single - ----------------
#NOTES:
     dance-single:
     :
     Beginner:
     2:
     0.090153,0.134005,0.031164,0.000000,0.000000,154.000000,8.000000,0.000000,0.000000,0.000000,0.000000,0.090153,0.134005,0.031164,0.000000,0.000000,154.000000,8.000000,0.000000,0.000000,0.000000,0.000000:
0000
0000
0000
0000
,
0000
0000
0000
0000
,
0000
0000
0000
0000
,
0000
0000
0000
0000
,
1000
0000
0000
0000
,
0001
0000
0000
0000
,
0100
0000
0000
0000
,
0100
0000
0000
0000
,
0010
0010
0000
0010
,
0010
0000
0000
0000
,
1000
1000
0000
1000
,
1000
0000
0000
0000
,
0001
0000
0000
0000
,
1000
0000
0000
0000
,
0100
0000
0000
0000
,
0010
0000
0000
0000
,
0001
0001
0000
0001
,
0001
0000
0000
0000
,
1000
1000
0000
1000
,
1000
0000
0000
0000
,
0010
0000
0010
0000
,
1000
0000
0000
0000
,
0001
0000
0001
0000
,
0100
0000
0000
0000
,
0001
0000
0001
0000
,
1000
0000
0000
0000
,
0100
0000
0100
0000
,
0100
0000
0000
0000
,
1000
0000
0010
0010
,
0010
0010
0010
0000
,
0100
0000
0001
0001
,
0001
0001
0001
0000
,
0010
0000
0100
0100
,
0100
0100
0100
0000
,
1000
0000
0000
0000
,
0001
0000
0000
0000
,
1000
0000
0010
0010
,
0010
0010
0010
0000
,
0100
0000
0001
0001
,
0001
0001
0001
0000
,
0010
0000
0100
0100
,
0100
0100
0100
0000
,
1000
0000
0000
0000
,
0001
0000
0000
0000
,
0100
0000
0000
0000
,
0010
0000
0000
0000
,
1000
0000
0000
0000
,
0001
0000
0000
0000
,
1000
0000
0000
0000
,
0100
0000
0000
0000
,
0010
0000
0010
0000
,
0010
0000
0000
0000
,
0001
0000
0001
0000
,
0001
0001
0001
0000
,
1000
0000
1000
0000
,
1000
1000
1000
0000
,
0010
0000
0010
0000
,
0010
0010
0010
0000
,
0100
0000
0100
0000
,
0100
0000
0000
0000
,
0000
0000
0000
0000
,
0000
0000
0000
0000
,
1001
0000
0100
0100
,
0100
0000
0100
0000
,
1001
0000
0010
0010
,
0010
0000
0010
0000
,
1001
0000
0100
0100
,
0100
0000
0100
0000
,
1001
0000
0000
0000
,
0100
0000
0000
0000
,
1001
0000
0010
0010
,
0010
0000
0010
0000
,
1001
0000
0100
0100
,
0100
0000
0100
0000
,
1001
0000
0010
0010
,
0010
0000
0010
0000
,
1001
0000
0000
0000
,
0100
0000
0000
0000
,
0001
0001
0000
0001
,
0001
0000
0000
0000
,
1000
1000
0000
1000
,
1000
0000
0000
0000
,
0100
0100
0000
0100
,
0100
0000
0000
0000
,
0010
0010
0000
0010
,
0010
0000
0000
0000
,
0001
0000
0000
0000
;

//---------------dance-double - ----------------
#NOTES:
     dance-double:
     :
     Challenge:
     8:
     0.299398,0.305457,0.202566,0.074015,0.000000,467.000000,52.000000,19.000000,0.000000,0.000000,0.000000,0.299398,0.305457,0.202566,0.074015,0.000000,467.000000,52.000000,19.000000,0.000000,0.000000,0.000000:
// measure 0
00000000
00000000
00000000
00000000
,  // measure 1
00000000
00000000
00000000
00000000
,  // measure 2
00000000
00000000
00000000
00000000
,  // measure 3
00000000
00000000
00000000
00000000
10000000
01000000
10000000
00010000
,  // measure 4
01000000
00000000
01010000
00000000
10100000
00000000
00010000
10000000
,  // measure 5
01000000
00000000
10010000
00000000
10000000
01000000
00010000
00001000
,  // measure 6
00010000
00000000
00011000
00000000
00010100
00000000
00010000
00001000
,  // measure 7
00100000
00000000
00101000
00000000
00001000
00010000
00000100
00010000
,  // measure 8
00000010
00001000
00000200
00000000
00000310
00000000
00000001
00000010
,  // measure 9
00000100
00000000
00001000
00000000
00000010
00001000
00000001
00000000
,  // measure 10
00000100
00000001
00002000
00000000
00003010
00000000
00001000
00000001
,  // measure 11
00000010
00000000
00000001
00000000
00001000
00000100
00010000
00001000
,  // measure 12
00010000
00000000
00011000
00000000
00010100
00000000
00001000
00000100
,  // measure 13
00010000
00000000
00010100
00000000
00010000
00001000
00100000
00010000
,  // measure 14
01000000
00000000
01010000
00000000
11000000
00000000
10000000
00100000
,  // measure 15
01000000
00000000
01100000
00000000
10000000
00100000
01000000
00010000
,  // measure 16
00100000
01000000
20000000
00000000
30010000
00000000
10000000
00010000
,  // measure 17
01000000
00000000
10010000
00000000
00100000
10000000
01000000
00100000
,  // measure 18
00010000
01000000
00002000
00000000
00013000
00000000
00001000
00010000
,  // measure 19
00000100
00001100
00000110
00000011
,  // measure 20
00002000
00000000
00003010
00001000
00000002
00000000
00000013
00000000
,  // measure 21
00000001
00000010
00000100
00001000
00000010
00000100
00000001
00000000
,  // measure 22
00000200
00000000
00000310
00001000
00000200
00000000
00010300
00000000
,  // measure 23
00010100
00011000
00101000
00110000
,  // measure 24
20010000
00100000
30020000
01000000
,  // measure 25
10030000
00100000
01000000
00010000
10000000
00000000
00010000
00100000
,  // measure 26
01000000
00000000
10000000
01000000
00100000
00010000
01000000
00001000
,  // measure 27
00000000
00101000
00011000
00010100
,  // measure 28
00001000
00001000
00000010
00000100
00000001
00000100
00000010
00000100
,  // measure 29
00001000
00000100
00000010
00000100
00000001
00000010
00000100
00000000
,  // measure 30
00001000
00000100
00000010
00000001
00001000
00000010
00000100
00000010
,  // measure 31
00000001
00000010
00000100
00000010
00001000
00000000
00000001
00000010
,  // measure 32
00000100
00000100
00001000
00000000
00001100
00000000
00010100
00000000
,  // measure 33
00011000
00110000
00101000
00000000
,  // measure 34
00100000
00001000
00010000
00000000
00000000
00000000
00001000
00100000
,  // measure 35
00010000
00000000
00100000
00110000
00000000
10100000
00000000
00000000
,  // measure 36
00010000
10000000
00100000
01000000
00010000
10000000
01000000
10000000
,  // measure 37
00100000
10000000
01000000
10000000
00010000
00000000
10010000
00000000
,  // measure 38
10000000
01000000
00100000
00010000
10000000
00010000
01000000
00010000
,  // measure 39
00100000
00010000
10000000
00010000
01000000
00000000
10010000
00000000
,  // measure 40
10000000
10000000
00100000
01000000
00020000
00000000
00230000
00000000
,  // measure 41
00302000
00023000
00030200
00000310
,  // measure 42
00000001
00000010
00000100
00000000
00000000
00000000
00001000
00000100
,  // measure 43
00000010
00000000
00000001
00001000
00000001
00001000
00000010
00000000
,  // measure 44
00000100
00000010
00001000
00000000
,  // measure 45
00000001
00001000
00000000
00000100
,  // measure 46
00010000
00010100
00001000
00100000
,  // measure 47
00010000
00000000
00110000
00000000
10000000
01000000
10000000
00000000
,  // measure 48
10100000
00010000
00000000
01000000
,  // measure 49
00010000
00000000
10000000
01000000
00000000
01000000
00100000
00000000
,  // measure 50
00110000
00000000
00101000
00000000
,  // measure 51
00100200
00010000
00010000
00010300
,  // measure 52
00010100
00000000
00011000
00000000
00101000
00000000
00100000
00001000
,  // measure 53
00010000
00000000
00011000
00000000
00010100
00000000
00010000
00001000
,  // measure 54
00010000
00000000
00000100
00010000
00001000
00000000
00100000
00000000
,  // measure 55
00001000
00001000
00100000
00001000
00010000
00010000
00000100
00010000
,  // measure 56
00001000
00010000
00001000
00010000
00000100
00000000
00010000
00001000
,  // measure 57
00100000
00001000
00010000
00000100
00010000
00000000
00001000
00010000
,  // measure 58
00001000
00001000
00010000
00001000
00100000
00100000
00001000
00010000
,  // measure 59
00000100
00000000
00000000
00100000
00000000
00000000
00011000
00000000
,  // measure 60
00000000
00000000
00000000
00000000
,  // measure 61
00000000
00010000
00001000
00011000
,  // measure 62
00000100
00001000
00000100
00000010
00000001
00000010
00000100
00001000
,  // measure 63
00000010
00000100
00000001
00000100
00000010
00001000
00000001
00000000
,  // measure 64
00001000
00000100
00010000
00001000
00100000
00001000
00010000
00000100
,  // measure 65
00000010
00000001
00000100
00000010
00001000
00000100
00010000
00000000
,  // measure 66
00001000
00010000
00001000
00100000
00010000
01000000
00100000
10000000
,  // measure 67
01000000
00100000
00010000
10000000
00100000
00000000
00000000
00000000
,  // measure 68
10000000
01000000
00010000
00000000
00000000
00000000
00001000
00000100
,  // measure 69
00000001
00000000
00001000
00000001
00001000
00000001
00000100
00000000
,  // measure 70
00000001
00000010
00000100
00001000
00000010
00000100
00001000
00010000
,  // measure 71
00001000
00010000
00001000
00000100
00000010
00001000
00000100
00000000
,  // measure 72
00001000
00000100
00010000
00001000
00100000
00001000
00010000
00100000
,  // measure 73
10000000
01000000
00100000
00010000
10000000
00100000
01000000
00000000
,  // measure 74
00010000
10000000
01000000
00100000
00010000
01000000
00010000
00100000
,  // measure 75
00001000
00010000
00000100
00001000
00000010
00000100
00000001
00000000
,  // measure 76
00000001
00000010
00001000
00000000
00000000
00000000
00010000
00100000
,  // measure 77
10000000
00000000
00010000
10000000
00010000
10000000
00100000
00000000
,  // measure 78
10000000
01000000
00100000
00010000
01000000
00100000
10000000
01000000
,  // measure 79
00100000
00000000
00000000
01100000
00000000
00110000
00000000
00000000
,  // measure 80
00001000
00100000
00001000
00010000
00000100
00001000
00000010
00000100
,  // measure 81
00000001
00000000
00000000
00000101
00000000
00001100
00000000
00000000
,  // measure 82
00000010
00001000
00000100
00010000
00001000
00100000
00010000
00100000
,  // measure 83
00001000
00000000
00000000
00101000
00000000
00011000
00000000
00000000
,  // measure 84
00010000
00000100
00001000
00000010
00000100
00000001
00001000
00000010
,  // measure 85
00000100
00000000
00000001
00002000
00000000
00003200
00000000
00020000
,  // measure 86
00000000
00000000
00000000
00000000
,  // measure 87
00000000
00030300
00000000
00000000
00000000
00000000
00000000
00000000
;
