#TITLE:THIS IS THE LIFE;
#SUBTITLE:;
#ARTIST:HANNAH MONTANA;
#TITLETRANSLIT:;
#SUBTITLETRANSLIT:;
#ARTISTTRANSLIT:;
#CREDIT:;
#BANNER:THIS IS THE LIFE.png;
#BACKGROUND:THIS IS THE LIFE-bg.png;
#LYRICSPATH:;
#CDTITLE:./CDTITLES/Dance Dance Revolution Disney Channel Edition.png;
#MUSIC:THIS IS THE LIFE.mp3;
#OFFSET:-0.302;
#SAMPLESTART:30.057;
#SAMPLELENGTH:15.000;
#SELECTABLE:YES;
#DISPLAYBPM:139.000:142.000;
#BPMS:0.000=141.000,230.000=120.000;
#STOPS:;
#BGCHANGES:;

//---------------dance-single - ----------------
#NOTES:
     dance-single:
     :
     Beginner:
     1:
     0.109,0.164,0.019,0.000,0.000:
0000
0000
0000
0000
,
0000
0000
0000
0000
,
0000
0000
0000
0000
,
0000
0000
0000
0000
,
1000
0000
0000
0100
,
0000
0000
0000
0010
,
0010
0000
0000
0001
,
0000
0000
0000
1000
,
0000
0000
0000
0010
,
0000
0000
0000
0100
,
0000
0000
0000
0010
,
0000
0000
0000
1000
,
0000
0000
0000
0001
,
0000
0000
0000
1000
,
0000
0000
0000
0001
,
0000
0000
0000
0010
,
0000
0010
0000
0010
,
0000
0000
0000
0000
,
0100
0000
0100
0000
,
0010
0000
0010
0000
,
0001
0000
0000
0000
,
1000
0000
0000
0000
,
0010
0000
0010
0000
,
0100
0000
0100
0000
,
0001
0000
0000
0000
,
1000
0000
1000
0000
,
1000
0000
0001
0000
,
0010
0000
0100
0000
,
1000
0000
0001
0000
,
0100
0000
0010
0000
,
1000
0000
0001
0000
,
1001
0000
0000
0000
,
0100
0000
0000
0000
,
0010
0000
0000
0100
,
0000
0000
0000
0010
,
0000
0000
0000
0100
,
0000
0000
0000
0000
,
0001
0000
0000
1000
,
0000
0000
0000
0001
,
0000
0000
0000
1000
,
0000
0000
0000
0100
,
0000
0100
0000
0100
,
0000
0000
0000
0000
,
0010
0000
0010
0000
,
0100
0000
0100
0000
,
1000
0000
0000
0000
,
0001
0000
0000
0000
,
0100
0000
0100
0000
,
0010
0000
0010
0000
,
1000
0000
0000
0000
,
0001
0000
0001
0000
,
0001
0000
1000
0000
,
0100
0000
0010
0000
,
0001
0000
1000
0000
,
0010
0000
0100
0000
,
0001
0000
1000
0000
,
1001
0000
0000
0000
,
0010
0000
0000
0000
;

//---------------dance-single - ----------------
#NOTES:
     dance-single:
     :
     Easy:
     3:
     0.185,0.198,0.029,0.096,0.000:
0000
0000
0000
0000
,
0000
0000
0000
0000
,
0000
0000
0000
0000
,
0000
0000
0000
0000
,
2000
0000
3000
0000
,
0020
0000
0030
0000
,
0200
0000
0300
0000
,
0000
0001
0001
0001
,
0000
1000
0000
0100
,
0000
1000
0000
0100
,
0000
0001
0000
0100
,
0000
0001
0000
0100
,
0000
0010
0000
1000
,
0000
0010
0000
1000
,
0000
0001
0000
0010
,
0000
0001
0000
0010
,
0000
0100
0000
1000
,
0001
1000
0001
1000
,
0200
0300
0100
0000
,
0010
0001
0001
0000
,
1000
0000
0001
0000
,
0100
0000
1000
0001
,
0200
0300
0100
0000
,
0010
1000
1000
0000
,
0001
0000
1000
0000
,
0100
0010
0100
0010
,
0001
0000
1000
0000
,
0100
1000
0100
0000
,
0010
0000
0100
0000
,
0001
0100
0001
0000
,
0010
0000
1000
0000
,
1001
0000
0000
0000
,
0200
0000
0300
0000
,
0020
0000
0030
0110
,
0000
0001
0000
0010
,
0000
0001
0000
0010
,
0000
1000
0000
0010
,
0000
1000
0000
0010
,
0000
0100
0000
0001
,
0000
0100
0000
0001
,
0000
1000
0000
0100
,
0000
1000
0000
0100
,
0000
0010
0000
0001
,
1000
0001
1000
0001
,
0020
0030
0010
0000
,
0100
1000
1000
0000
,
0001
0000
1000
0000
,
0010
0000
0001
1000
,
0020
0030
0010
0000
,
0100
0001
0001
0000
,
1000
0000
0001
0000
,
0010
0100
0010
0100
,
1000
0000
0001
0000
,
0010
0001
0010
0000
,
0100
0000
0010
0000
,
1000
0010
1000
0000
,
0100
0000
0001
0000
,
1001
0000
0000
0000
,
0200
0000
0000
0300
;

//---------------dance-single - ----------------
#NOTES:
     dance-single:
     :
     Medium:
     5:
     0.313,0.340,0.077,0.240,0.000:
0000
0000
0000
0000
,
0000
0000
0000
0000
,
0000
0000
0000
0000
,
0000
0000
0000
0000
,
0001
0000
1000
1100
,
0010
0000
0001
0101
,
0010
0000
1000
1001
,
0000
0000
0100
0100
0100
0000
0110
0000
,
0000
0001
0000
1000
,
0000
0000
0001
0000
0000
0000
1000
0010
,
0100
0010
0000
0100
,
0000
0000
0010
0000
0000
0100
0010
0100
,
0001
1000
0000
0100
,
0000
0000
0001
0000
0000
0000
0100
1000
,
0010
0100
0000
0001
,
0000
0000
0010
0000
0000
0000
0100
1000
,
0010
0100
0010
0001
,
1000
0000
0001
0000
0100
0001
0100
0010
,
2000
0000
0000
3001
0000
0000
0010
0000
,
0200
0000
0000
2300
0000
0000
3001
0000
,
0010
0010
0100
0100
,
1000
0000
1000
0000
0001
0100
0010
0100
,
0002
0000
0000
1003
0000
0000
0010
0000
,
0200
0000
0000
0302
0000
0000
1003
0000
,
0010
0100
0001
1000
,
0010
0100
0001
0000
0010
0100
1000
0000
,
0002
0000
0003
2000
0000
3000
0010
0000
,
0100
1000
0100
0001
,
0020
0000
0030
0200
0000
0300
0001
0000
,
0100
1000
0100
0010
,
0002
0000
0003
2000
0000
3000
0001
0000
,
1001
0000
0000
0000
0010
0100
0010
0100
,
1000
0000
0001
0101
,
1000
0000
1000
1100
,
0000
1000
0000
0001
,
0000
0000
1000
0000
0000
0000
0001
0100
,
0010
0100
0000
0010
,
0000
0000
0100
0000
0000
0010
0100
0010
,
1000
0001
0000
0010
,
0000
0000
1000
0000
0000
0000
0010
0001
,
0100
0010
0000
1000
,
0000
0000
0100
0000
0000
0000
0010
0001
,
0100
0010
0100
1000
,
0001
0000
1000
0000
0010
1000
0010
0100
,
0002
0000
0000
1003
0000
0000
0100
0000
,
0020
0000
0000
0032
0000
0000
1003
0000
,
0100
0100
0010
0010
,
0001
0000
0001
0000
1000
0010
0100
0010
,
2000
0000
0000
3001
0000
0000
0100
0000
,
0020
0000
0000
2030
0000
0000
3001
0000
,
0100
0010
1000
0001
,
0100
0010
1000
0000
0100
0010
0001
0000
,
2000
0000
3000
0002
0000
0003
0100
0000
,
0010
0001
0010
1000
,
0200
0000
0300
0020
0000
0030
1000
0000
,
0010
0001
0010
0100
,
2000
0000
3000
0002
0000
0003
1000
0000
,
1001
0000
0000
0000
0100
0010
0100
0020
,
0000
0000
0000
0000
,
0030
0000
0000
0000
;

//---------------dance-single - ----------------
#NOTES:
     dance-single:
     :
     Hard:
     7:
     0.446,0.425,0.115,0.231,0.000: // measure 1
0000
0000
0000
0000
,  // measure 2
0000
0000
0000
0000
,  // measure 3
0000
0000
0000
0000
,  // measure 4
0000
0000
0000
0000
,  // measure 5
0020
0000
0000
1000
1030
0000
1010
0000
,  // measure 6
0002
0000
0000
0010
0013
0000
0011
0000
,  // measure 7
0200
0000
0000
1000
1300
0000
1100
0000
,  // measure 8
0000
1000
0001
1000
0001
1000
1001
0000
,  // measure 9
0020
0000
1000
0000
0000
0000
1030
0010
,  // measure 10
0200
0000
0001
0000
0000
0000
0301
0010
,  // measure 11
0200
0000
1000
0000
0000
0000
1300
0001
,  // measure 12
0020
0000
0100
0000
0000
0130
1000
0100
,  // measure 13
0020
0000
0001
0000
0000
0031
0100
0001
,  // measure 14
2000
0000
0010
0000
0000
3010
1000
0100
,  // measure 15
2000
0000
0100
0000
0000
3100
0010
0001
,  // measure 16
1000
0000
1000
0000
0001
0000
0001
0010
,  // measure 17
0100
0000
1000
0010
0100
0000
0001
1000
,  // measure 18
0100
0010
0000
0100
1000
0010
0100
0001
,  // measure 19
1000
0000
0100
1000
0000
1000
0010
0000
,  // measure 20
1000
0100
0010
0001
0000
0001
0100
0000
,  // measure 21
0010
1000
0010
0000
1000
0100
1000
0000
,  // measure 22
0001
0010
0001
0000
0100
0001
1000
0100
,  // measure 23
0010
0000
0001
0100
0000
0100
0010
0000
,  // measure 24
1000
0010
0100
0001
0000
0001
0010
0000
,  // measure 25
1000
0100
1000
0000
0001
0010
0001
0000
,  // measure 26
1000
0010
0100
0001
2000
0000
3002
0000
,  // measure 27
0013
0100
1000
0000
0010
0100
0001
0000
,  // measure 28
0010
0001
0100
0010
1000
0000
1001
0000
,  // measure 29
0100
0010
0001
0000
0100
0010
1000
0000
,  // measure 30
0010
0100
0001
1000
0100
0000
0110
0000
,  // measure 31
0001
1000
0100
0000
0010
0001
1000
0000
,  // measure 32
1001
0000
0000
0000
0010
0100
1000
0002
,  // measure 33
0000
0000
0000
0100
0103
0000
1001
0000
,  // measure 34
2000
0000
0000
0100
3100
0000
1001
0000
,  // measure 35
0200
0000
0001
0000
0000
0000
0301
0100
,  // measure 36
0020
0000
1000
0000
0000
0000
1030
0100
,  // measure 37
0020
0000
0001
0000
0000
0000
0031
1000
,  // measure 38
0200
0000
0010
0000
0000
0310
0001
0010
,  // measure 39
0200
0000
1000
0000
0000
1300
0010
1000
,  // measure 40
0002
0000
0100
0000
0000
0103
0001
0010
,  // measure 41
0002
0000
0010
0000
0000
0013
0100
1000
,  // measure 42
0001
0000
0001
0000
1000
0000
1000
0100
,  // measure 43
0010
0000
0001
0100
0010
0000
1000
0001
,  // measure 44
0010
0100
0000
0010
0001
0100
0010
1000
,  // measure 45
0001
0000
0010
0001
0000
0001
0100
0000
,  // measure 46
0001
0010
0100
1000
0000
1000
0010
0000
,  // measure 47
0100
0001
1000
0000
0010
1000
0100
0000
,  // measure 48
0010
0001
1000
0000
0010
1000
0001
0010
,  // measure 49
0100
0000
1000
0010
0000
0010
0100
0000
,  // measure 50
0001
0100
0010
1000
0000
1000
0100
0000
,  // measure 51
0001
0010
0100
0000
1000
0010
0100
0000
,  // measure 52
0001
0100
0010
1000
0002
0000
2003
0000
,  // measure 53
3100
0010
0001
0000
0100
0010
1000
0000
,  // measure 54
0100
1000
0010
0100
0001
0000
1001
0000
,  // measure 55
0010
0100
1000
0000
0010
0100
0001
0000
,  // measure 56
0100
0010
1000
0001
0010
0000
0110
0000
,  // measure 57
1000
0001
0100
0000
0010
1000
0001
0000
,  // measure 58
0110
0000
0000
0000
1000
0010
0100
0002
,  // measure 59
0000
0000
0000
0000
,  // measure 60
0003
0000
0000
0000
;

//---------------dance-double - ----------------
#NOTES:
     dance-double:
     :
     Hard:
     7:
     0.416,0.454,0.183,0.010,0.000:
00000000
00000000
00000000
00000000
,
00000000
00000000
00000000
00000000
,
00000000
00000000
00000000
00000000
,
00000000
00000000
00000000
00000000
,
10000000
00000000
00000000
10000000
10000000
00000000
10010000
00000000
,
00010000
00000000
00000000
00010000
00010000
00000000
00011000
00000000
,
00001000
00000000
00000000
00001000
00001000
00000000
00001001
00000000
,
00000000
00000001
00000010
00000100
00001000
00010000
00100000
00000000
,
01000000
00010000
01000000
10000000
,
00100000
00010000
00001000
00000100
,
00001000
00010000
01000000
00010000
,
00001000
00000010
00000001
00000010
,
00001000
00010000
01000000
10000000
,
01000000
00010000
00001000
00000100
,
00001000
00010000
00100000
00010000
,
00001000
00000100
00001000
00000000
00000001
00000100
00000001
00000000
,
00000010
00000100
00001000
00000000
00000010
00000000
00000110
00000000
,
00001000
00000001
00000100
00000010
00001000
00000100
00010000
00001000
,
00011000
00000000
00010000
01000000
00000000
10000000
01000000
00000000
,
00100000
00010000
01000000
00100000
00000000
01000000
00010000
00000000
,
00100000
00001000
00010000
00000000
00000100
00010000
00001000
00000000
,
01000000
00001000
00010000
00000000
00000010
00010000
00001000
00010000
,
00011000
00000000
00001000
00000100
00000000
00000001
00000100
00000000
,
00000010
00001000
00000100
00000010
00000000
00000100
00001000
00000000
,
00000100
00010000
00001000
00000000
01000000
00010000
00100000
00000000
,
00001000
00010000
00000010
00000100
00000010
00000000
00000110
00000000
,
00000100
00001000
00010000
00000000
00001000
00010000
01000000
00000000
,
00100000
00010000
01000000
00100000
10000000
00000000
10100000
00000000
,
01000000
00010000
00100000
00000000
00010000
00100000
00001000
00000000
,
00010000
00000100
00001000
00000010
00000100
00000000
00000110
00000000
,
00000001
00000010
00001000
00000000
00000010
00001000
00010000
00000000
,
00011000
00000000
00000000
00000000
00010000
00001000
00010000
00100000
,
00000000
00000000
00000000
00100000
00100000
00000000
00011000
00000000
,
00000100
00000000
00000000
00000100
00000100
00000000
00011000
00000000
,
00100000
00010000
00100000
10000000
,
01000000
00010000
00001000
00000010
,
00001000
00010000
00100000
00010000
,
00001000
00000100
00000001
00000100
,
00001000
00010000
00100000
10000000
,
00100000
00010000
00001000
00000010
,
00001000
00010000
01000000
00010000
,
00001000
00000010
00001000
00000000
00000001
00000010
00000001
00000000
,
00000100
00000010
00001000
00000000
00000100
00000000
00000110
00000000
,
00001000
00000001
00000010
00000100
00001000
00000010
00010000
00001000
,
00011000
00000000
00010000
00100000
00000000
10000000
00100000
00000000
,
01000000
00010000
00100000
01000000
00000000
00100000
00010000
00000000
,
01000000
00001000
00010000
00000000
00000010
00010000
00001000
00000000
,
00100000
00001000
00010000
00000000
00000100
00010000
00001000
00010000
,
00011000
00000000
00001000
00000010
00000000
00000001
00000010
00000000
,
00000100
00001000
00000010
00000100
00000000
00000010
00001000
00000000
,
00000010
00010000
00001000
00000000
00100000
00010000
01000000
00000000
,
00001000
00010000
00000100
00000010
00000100
00000000
00000110
00000000
,
00000010
00001000
00010000
00000000
00001000
00010000
00100000
00000000
,
01000000
00010000
00100000
01000000
10000000
00000000
11000000
00000000
,
00100000
00010000
01000000
00000000
00010000
01000000
00001000
00000000
,
00010000
00000010
00001000
00000100
00000010
00000000
00000110
00000000
,
00000001
00000100
00001000
00000000
00000100
00001000
00010000
00000000
,
00011000
00000000
00000000
00000000
00010000
00001000
00010000
02000000
,
00000000
00000000
00000000
00000000
,
03000000
00000000
00000000
00000000
;

//---------------dance-double - ----------------
#NOTES:
     dance-double:
     :
     Medium:
     5:
     0.315,0.312,0.096,0.250,0.000:
00000000
00000000
00000000
00000000
,
00000000
00000000
00000000
00000000
,
00000000
00000000
00000000
00000000
,
00000000
00000000
00000000
00000000
,
10000000
00000000
00100000
01100000
,
01000000
00000000
00010000
00110000
,
00100000
00000000
00001000
00011000
,
00000000
00001000
00010000
00001000
00010000
00000000
00011000
00000000
,
00000000
00001000
00000000
00000100
,
00000000
00000000
00000010
00000000
00000000
00000000
00000100
00000001
,
00000100
00000010
00000000
00000100
,
00000000
00000000
00001000
00000000
00000000
00010000
00001000
00010000
,
01000000
00100000
00000000
00010000
,
00000000
00000000
01000000
00000000
00000000
00000000
00100000
10000000
,
00100000
01000000
00000000
00010000
,
00000000
00000000
00100000
00000000
00000000
00000000
00001000
00010000
,
00001000
00001000
00010000
00010000
,
00000100
00000000
00001000
00000000
00000010
00000100
00000010
00000100
,
00000002
00000000
00000000
00001000
00000000
00000000
00000103
00000000
,
00000020
00000000
00000030
00002000
00000000
00003000
00000100
00000000
,
00010000
00010000
00001000
00001000
,
01000000
00000000
00010000
00000000
00100000
01000000
00100000
01000000
,
20000000
00000000
00000000
00100000
00000000
00000000
31000000
00000000
,
00200000
00000000
00300000
00020000
00000000
00030000
01000000
00000000
,
00001000
00001000
00010000
00010000
,
00001000
00000100
00000001
00000000
00001000
00000000
00001001
00000000
,
00000200
00000000
00000300
00020000
00000000
00030000
00001000
00000000
,
00100000
00010000
00100000
00001000
,
00020000
00000000
00030000
00002000
00000000
00003000
00010000
00000000
,
00000010
00001000
00000010
00010000
,
00002000
00000000
00003000
00020000
00000000
00030000
00001000
00000000
,
00011000
00000000
00000000
00000000
00010000
00100000
00010000
02000000
,
00000000
00000000
03100000
10100000
,
10000000
00000000
00010000
01010000
,
00000000
00001000
00000000
00000010
,
00000000
00000000
00000100
00000000
00000000
00000000
00000010
00000001
,
00000010
00000100
00000000
00000010
,
00000000
00000000
00001000
00000000
00000000
00010000
00001000
00010000
,
00100000
01000000
00000000
00010000
,
00000000
00000000
00100000
00000000
00000000
00000000
01000000
10000000
,
01000000
00100000
00000000
00010000
,
00000000
00000000
01000000
00000000
00000000
00000000
00001000
00010000
,
00001000
00001000
00010000
00010000
,
00000010
00000000
00001000
00000000
00000100
00000010
00000100
00000010
,
00000002
00000000
00000000
00001000
00000000
00000000
00000013
00000000
,
00000200
00000000
00000300
00002000
00000000
00003000
00000010
00000000
,
00010000
00010000
00001000
00001000
,
00100000
00000000
00010000
00000000
01000000
00100000
01000000
00100000
,
20000000
00000000
00000000
01000000
00000000
00000000
30100000
00000000
,
02000000
00000000
03000000
00020000
00000000
00030000
00100000
00000000
,
00001000
00001000
00010000
00010000
,
00001000
00000010
00000001
00000000
00001000
00000000
00001001
00000000
,
00000020
00000000
00000030
00020000
00000000
00030000
00001000
00000000
,
01000000
00100000
01000000
00001000
,
00020000
00000000
00030000
00002000
00000000
00003000
00010000
00000000
,
00000100
00001000
00000100
00010000
,
00002000
00000000
00003000
00020000
00000000
00030000
00001000
00000000
,
00011000
00000000
00000000
00000000
00100000
00001000
00100000
00020000
,
00000000
00000000
00000000
00000000
,
00030000
00000000
00000000
00000000
;

//---------------dance-double - ----------------
#NOTES:
     dance-double:
     :
     Easy:
     3:
     0.183,0.198,0.019,0.096,0.000:
00000000
00000000
00000000
00000000
,
00000000
00000000
00000000
00000000
,
00000000
00000000
00000000
00000000
,
00000000
00000000
00000000
00000000
,
20000000
00000000
30000000
00000000
,
02000000
00000000
03000000
00000000
,
00020000
00000000
00030000
00000000
,
00000000
00001000
00010000
00001000
,
00000000
00000100
00000000
00000010
,
00000000
00000100
00000000
00000010
,
00000000
00001000
00000000
00000100
,
00000000
00001000
00000000
00000100
,
00000000
00010000
00000000
00001000
,
00000000
00010000
00000000
00001000
,
00000000
01000000
00000000
00010000
,
00000000
01000000
00000000
00010000
,
00000000
00100000
00000000
01000000
,
00100000
01000000
00100000
01000000
,
00020000
00030000
00010000
00000000
,
00001000
00010000
00001000
00000000
,
00000100
00000000
00000001
00000000
,
00000010
00000000
00001000
00010000
,
00002000
00003000
00001000
00000000
,
00010000
00001000
00010000
00000000
,
01000000
00000000
10000000
00000000
,
00100000
00010000
00100000
00010000
,
00001000
00000000
00000100
00000000
,
00000010
00000100
00000010
00000000
,
00001000
00000000
00010000
00000000
,
00001000
00010000
00001000
00000000
,
00100000
00000000
00010000
00000000
,
10010000
00000000
00000000
00000000
,
00020000
00000000
00030000
00000000
,
00002000
00000000
00003000
00000000
,
00000000
00000010
00000000
00000100
,
00000000
00000010
00000000
00000100
,
00000000
00001000
00000000
00000010
,
00000000
00001000
00000000
00000010
,
00000000
00010000
00000000
00001000
,
00000000
00010000
00000000
00001000
,
00000000
00100000
00000000
00010000
,
00000000
00100000
00000000
00010000
,
00000000
01000000
00000000
00100000
,
01000000
00100000
01000000
00100000
,
00020000
00030000
00010000
00000000
,
00001000
00010000
00001000
00000000
,
00000010
00000000
00000001
00000000
,
00000100
00000000
00001000
00010000
,
00002000
00003000
00001000
00000000
,
00010000
00001000
00010000
00000000
,
00100000
00000000
10000000
00000000
,
01000000
00010000
01000000
00010000
,
00001000
00000000
00000010
00000000
,
00000100
00000010
00000100
00000000
,
00001000
00000000
00010000
00000000
,
00001000
00010000
00001000
00000000
,
01000000
00000000
00010000
00000000
,
10010000
00000000
00000000
00000000
,
02000000
00000000
00000000
03000000
;
