#TITLE:KIM POSSIBLE THEME SONG;
#ARTIST:KIM POSSIBLE;
#FILE:KIM POSSIBLE THEME SONG.mp3;
#BPM:122.000;
#GAP:28;
#SAMPLESTART:1.960;
#SAMPLELENGTH:15.000;
#CDTITLE:./CDTITLES/Dance Dance Revolution Disney Channel Edition.png;
#DISPLAYBPM:122..125;
#CHANGEBPM:272.000=125.000,288.000=123.000,544.000=122.000,656.000=123.000;
#SINGLE:BEGINNER:1:
00000000
00000000
60000000
40000000
60000000
20202020
00000000
80000000
20000000
60000000
40008000
40006000
20006000
40000000
60004000
20008000
60004000
B0000000
80002000
60004000
60008000
20004000
00800020
00600040
4!40000040
6!60000060
80002000
A0000000
40006000
80002000
40006000
B0000000
20008000
40006000
40002000
80006000
00200080
00400060
6!60000060
4!40000040
20008000
A0000000
40006000
20000000
80000000
;
#SINGLE:BASIC:3:
00000000
00000000
40006000
40008000
20008000
60406040
20008000
20402000
80006000
40204000
60606000
40404000
8!80802!2020
A0000000
20602040
20604060
80002000
A0000000
60604040
80206040
B0008000
20602000
80004000
20602000
4!40406!6060
4!40406!6060
20208080
A0000000
80408060
80406040
20008000
A0000000
40406060
20804060
B0002000
80408000
20006000
80408000
6!60604!4040
6!60604!4040
80802020
A0000000
20604080
2!20002000
B0000000
;
#SINGLE:ANOTHER:4:
00000000
00000000
B0008020
40008020
60004020
10103030
40008040
20008060
20004020
80402080
64606!6060
4!40480802
02804060
8!80000080
20406860
20804640
60204080
6!60000060
68204820
80206040
B0602060
40204!4000
B0806040
80402!2000
A0608060
40204020
80602040
B0000000
80604240
80206460
40806020
4!40000040
42806280
20804060
B0408040
60806!6000
B0204060
20608!8000
A0402040
60806080
20408060
B0000000
24602640
A!A000A000
B0000000
;
#SINGLE:MANIAC:6:
00000000
00000000
70284826
80246428
60428246
90701030
B0826284
20864682
40682864
8!80A!203!60B!40
14828406
04010304
06202804
B!B00000B0
44662846
24268280
4!40702!2030
B0000000
6!60B!401!203!60
34868!8070
B0284820
82628070
30428682
46268060
(2002000080080000)
(4004002060060020)
(4004004060060060)
B!B00000B0
66448264
86842860
2!20A04!40B0
B0000000
4!40B!609!807!40
76242!2030
B0826280
28482030
70682428
64842040
(8008000020020000)
(6006008040040080)
(6006006040040040)
B!B00000B0
68248460
A!A00000A0
B0000000
;
#DOUBLE:BASIC:3:
00000000
00000000
40002000
80006000
40008000
60006000
00000000
00000000
00000000
00000000
60606000
00000000
8!80802!2020
A0000000
40604060
20006000
00000000
00000000
00000000
00600060
60008000
60806000
40002000
60206000
00000000
00000000
00600060
60000000
40604060
80006000
00000000
00000000
00000000
00600060
60002000
60206000
40008000
60806000
00000000
00000000
00600060
60000000
60008060
B0000000
A0000000
:
00000000
00000000
00000000
00000000
00000000
00400040
20006000
80002000
40008000
20402000
00000000
40404000
00000000
00000000
00000000
00400020
40006000
B0000000
80802020
40004000
40000000
00000000
00000000
00000000
4!40402!2020
8!80802!2020
40004000
40000000
00000000
00400080
40006000
B0000000
20208080
40004000
40000000
00000000
00000000
00000000
4!40408!8080
2!20208!8080
40004000
40000000
00400000
00000000
00000000
;
#DOUBLE:ANOTHER:5:
00000000
00000000
60006020
40008060
20006080
80606000
60000000
00000000
00000000
60002060
48402!2020
8!80800600
00000000
00000000
00000000
00000600
60204080
A0000000
06006020
60800060
60600060
00206!6000
90006000
00000000
00000060
00806040
80200060
60000000
00000000
00000600
60804020
A0000000
06006080
60200060
60600060
00806!6000
30006000
00000000
00000060
00206040
20800060
60000000
00000000
00000000
60000000
:
00000000
00000000
40000000
00000000
00000000
40004040
20004020
60008040
20008020
00400000
00000000
00040002
02404606
2!20000020
70308260
42804040
00000000
00000000
40200400
00004000
40002000
40000000
00400080
40208!8000
90408000
40000000
00004000
40000000
10902860
48204040
00000000
00000000
40800400
00004000
40008000
40000000
00400020
40802!2000
30402000
40000000
00004000
40000000
24802680
10000000
40000000
;
#DOUBLE:MANIAC:7:
00000000
00000000
60608680
60060006
00864628
8!809!606000
00000006
00264826
40282482
6!609!80806!60
60006660
00000000
00000606
00008620
88446806
08620600
00000000
00000000
(0000000060006000)
06246!603!20
20600060
02620020
60060600
00000000
(0000000060060000)
(0000000060060060)
(8008008020020020)
B!B00000B0
22446206
02680600
00000000
00000000
(0000000060006000)
06846!609!80
80600060
08680080
60060600
00000000
(0000000060060000)
(0000000060060060)
(2000408020060040)
B!B00000B0
84262800
6!60000060
60000000
:
00000000
00000000
40040004
00408480
40000000
00004!4010
A0686420
40000000
00000000
00004!4040
44400002
04080206
48204004
00400000
00000040
40004080
70209020
B!B00000B0
(8080480000004000)
40000000
40024200
40004040
20204024
82646040
(2002000000000000)
(4004004000000000)
(0000000000000000)
00000000
00000040
40004020
10803080
B!B00000B0
(2020420000004000)
40000000
40084800
40004040
80804084
28646040
(8008000000000000)
(4004004000000000)
(0000000000000000)
00000000
00000040
4!40000040
40000000
;
