#VERSION:0.83;
#TITLE:Remember The Name;
#SUBTITLE:;
#ARTIST:Fort Minor;
#TITLETRANSLIT:;
#SUBTITLETRANSLIT:;
#ARTISTTRANSLIT:;
#GENRE:;
#ORIGIN:;
#CREDIT:;
#BANNER:Remember The Name.png;
#BACKGROUND:Remember The Name-bg.png;
#PREVIEWVID:;
#JACKET:jacket.png;
#CDIMAGE:;
#DISCIMAGE:;
#LYRICSPATH:;
#CDTITLE:;
#MUSIC:Remember The Name.ogg;
#OFFSET:-0.052000;
#SAMPLESTART:22.491112;
#SAMPLELENGTH:13.994001;
#SELECTABLE:YES;
#BPMS:0.000=85.000;
#STOPS:;
#DELAYS:;
#WARPS:;
#TIMESIGNATURES:0.000=4=4;
#TICKCOUNTS:0.000=4;
#COMBOS:0.000=1;
#SPEEDS:0.000=1.000=0.000=0;
#SCROLLS:0.000=1.000;
#FAKES:;
#LABELS:0.000=Song Start;
#BGCHANGES:4.000=Remember The Name.avi=1.000=0=0=1=====,
99999=-nosongbg-=1.000=0=0=0 // don't automatically add -songbackground-
;
#KEYSOUNDS:;
#ATTACKS:
;

//---------------dance-single - ----------------
#NOTEDATA:;
#CHARTNAME:;
#STEPSTYPE:dance-single;
#DESCRIPTION:;
#CHARTSTYLE:;
#DIFFICULTY:Hard;
#METER:8;
#RADARVALUES:0.544583,0.552791,0.139750,0.085403,0.687106,491.000000,473.000000,18.000000,11.000000,0.000000,0.000000,0.000000,0.000000,0.000000,0.544583,0.552791,0.139750,0.085403,0.687106,491.000000,473.000000,18.000000,11.000000,0.000000,0.000000,0.000000,0.000000,0.000000;
#CREDIT:Ben Speirs;
#NOTES:
0000
0000
0000
0000
,
0000
0000
0000
0000
,
0000
0000
0000
0000
,
0000
0000
0000
0000
,
1010
0000
1000
0010
0100
0010
1000
0001
0100
0000
0001
0010
0100
0010
0001
1000
,
0001
0000
0100
0001
1000
0001
0100
0010
1000
0000
0100
1000
0010
1000
0100
0010
,
0001
0000
0010
0100
0010
0001
1000
0010
0100
0000
0010
0100
0010
0100
0001
0010
,
0200
0000
0000
0000
1300
0000
0001
0000
0200
0000
0000
0000
0310
1000
0001
1000
,
0001
0000
0100
0000
0101
0000
0100
0010
1000
0100
1000
0000
1100
0000
0100
1000
,
0010
1000
0010
0000
1010
0000
1000
0010
0100
0000
0001
1000
0001
0000
0100
0001
,
1000
0001
0100
0000
0101
0000
0100
0010
1000
0100
1000
0000
1100
0000
1000
0100
,
0010
0001
1000
0001
0100
0010
1000
0100
0010
0001
0100
0020
0000
0000
1000
0000
,
1030
0000
0000
0001
1000
0000
0001
0000
0100
0010
0100
0010
0000
0000
1000
0100
,
1000
0000
0001
0100
0001
0000
1000
0000
0100
0010
0100
0010
0000
0000
0001
1000
,
0001
0000
0100
0000
0010
0000
1000
0100
1000
0000
0010
0100
0010
0000
0100
0000
,
0001
0010
0001
0000
0010
0000
0100
0000
1000
0001
1000
0001
1000
0100
0010
0001
,
0100
0000
0010
1000
0010
0000
0000
0000
1000
0000
0001
0000
1000
0100
1000
0000
,
0010
0000
1000
0000
0001
0100
0001
0000
1000
0100
0010
0001
0000
0000
1000
0100
,
1000
0000
0010
0000
0100
0000
0001
0100
0001
1000
0010
1000
0001
0000
1000
0000
,
1200
0000
0310
0001
0201
0000
0310
0100
,
0001
0010
0001
0000
1000
0100
1000
0000
0001
0000
1000
0000
0010
0100
0010
0000
,
0100
0001
0100
0010
1000
0000
0001
0000
1000
0100
1000
0001
0100
0000
0100
0000
,
0001
0010
0001
0000
1000
0000
0010
0000
1000
0100
1000
0010
1000
0000
0001
0000
,
0100
0010
0100
0000
0001
0000
1000
0000
0100
0010
0100
0010
0000
0001
0000
1000
,
0001
0000
1000
0000
0010
0100
0010
0000
1000
0000
0010
1000
0000
0000
0001
0100
,
0001
0000
1000
0100
0010
0000
0000
0000
0001
0100
0010
1000
0000
0000
0001
0000
,
1000
0100
1000
0100
0010
0001
1000
0000
0001
0100
0001
0100
0001
1000
0010
0000
,
0210
0000
0310
1000
2100
0000
3001
0000
,
1100
0000
1000
0100
1000
0001
0100
0001
1000
0000
0001
0010
0001
1000
0010
1000
,
0100
0000
1000
0010
1000
0001
0100
0001
1000
0000
0001
0010
0001
1000
0100
1000
,
0010
0000
0100
0010
0100
0001
0100
0001
1000
0000
0010
1000
0010
1000
0100
1000
,
0001
0000
1000
0100
1000
0100
0010
0100
0010
0000
0001
0100
0001
0100
0010
0100
,
0010
0000
1000
0010
0100
0001
0010
0100
1000
0000
0100
1000
0010
0100
0001
1000
,
0100
0000
0010
0001
0010
0100
1000
0001
0100
0000
0010
1000
0010
0100
0001
1000
,
0100
0000
0010
0001
0010
0100
1000
0010
0100
0001
0100
0010
1000
0100
0010
0001
,
0200
0000
0020
0330
,
1001
0000
0010
0000
1010
0000
0010
0100
0001
0010
0001
0000
0011
0000
0010
0001
,
0100
0001
0100
0000
0101
0000
0001
0100
0010
0000
1000
0001
1000
0000
0010
1000
,
0001
1000
0010
0000
1010
0000
0010
0100
0001
0010
0001
0000
0011
0000
0001
0010
,
0100
1000
0001
1000
0010
0100
0001
0010
0100
1000
0010
0200
0000
0000
0301
0000
,
0101
0000
0100
0010
0100
0001
0010
0100
1000
0100
1000
0010
0100
0001
0010
0100
,
1000
0000
0100
1000
0010
0100
0010
0100
0001
0010
0100
1000
0010
1000
0010
1000
,
0001
0000
0100
0010
0100
0001
0010
0100
0010
0001
1000
0010
1000
0100
0010
0001
,
0100
0100
0010
0010
1000
0100
0010
0001
1000
1000
0001
0001
0100
0001
1000
0010
,
0200
0000
0300
0000
;

//---------------dance-double - ----------------
#NOTEDATA:;
#CHARTNAME:;
#STEPSTYPE:dance-double;
#DESCRIPTION:;
#CHARTSTYLE:;
#DIFFICULTY:Challenge;
#METER:7;
#RADARVALUES:0.403724,0.427015,0.209626,0.062111,0.287265,364.000000,337.000000,27.000000,8.000000,0.000000,0.000000,0.000000,0.000000,0.000000,0.403724,0.427015,0.209626,0.062111,0.287265,364.000000,337.000000,27.000000,8.000000,0.000000,0.000000,0.000000,0.000000,0.000000;
#CREDIT:Ben Speirs;
#NOTES:
00000000
00000000
00000000
00000000
,
00000000
00000000
00000000
00000000
,
00000000
00000000
00000000
00000000
,
00000000
00000000
00000000
00000000
,
11000000
00000000
00000000
01000000
01000000
00000000
00100000
00000000
00010000
00000000
00000000
01000000
01000000
00000000
00100000
00000000
,
00010000
00000000
00000000
00010000
00010000
00000000
00001000
00000000
00010000
00000000
00000000
00001000
00001000
00000000
00000010
00000000
,
00000011
00000000
00000000
00000001
00000001
00000000
00000100
00000000
00000010
00000000
00000000
00001000
00001000
00000000
00000100
00000000
,
00002002
00003003
00000202
00000303
,
00001000
00000010
00001000
00000001
00000010
00000100
00001000
00000000
,
00000001
00000100
00000001
00000000
00001000
00000100
00001000
00000000
00000001
00000100
00001000
00010000
00000000
00000000
00001000
00010000
,
00001000
00100000
00001000
00000000
00100000
00000000
00010000
01000000
00010000
10000000
00100000
00000000
10000000
00000000
01000000
00100000
,
01000000
00000000
10000000
01000000
10000000
00000000
00010000
00000000
10000000
01000000
00100000
00010000
00000000
00000000
10000000
00100000
,
10000000
00010000
01000000
10010000
,
10000000
00000000
00000000
00100000
01000000
00000000
00000000
00000000
00010000
00000000
10000000
00000000
01000000
00000000
00000000
00000000
,
00100000
00000000
00000000
00001000
00010000
00000000
00000000
00000000
00000100
00000000
00001000
00000000
00000010
00000000
00000000
00000000
,
00000100
00000001
00000100
00000010
00001000
00000100
00000100
00000010
,
00001001
00000000
00000000
00000000
00001001
00000000
00000000
00000000
00000100
00000000
00000000
00000100
00001000
00000000
00000001
00000000
,
00000100
00000000
00000010
00000000
00001000
00000000
00000100
00000000
00010000
00000000
00000000
00010000
00001000
00000000
00100000
00000000
,
00010000
00000000
00000000
10000000
01000000
00000000
00100000
00000000
00010000
00000000
00000000
10000000
00010000
00000000
00000000
00000000
,
10000000
00000000
00100000
01000000
00100000
00000000
10000000
00000000
01000000
00100000
01000000
00100000
00000000
00000000
00010000
00000000
,
01000000
00000000
00001000
00000000
00010000
00000000
00000100
00000000
00000010
00000000
00000001
00000000
00000100
00000010
00000100
00000010
,
00001000
00000000
00000001
00000000
00000010
00000000
00000100
00000000
00001000
00000000
00000100
00000000
00010000
00001000
00010000
00001000
,
00100000
00000000
00010000
00000000
01000000
00000000
00100000
00000000
10000000
00000000
00010000
00000000
10000000
01000000
10000000
01000000
,
00100000
00000000
00010000
00000000
10000000
00000000
00100000
00000000
01000000
00000000
00010000
00000000
00100000
00001000
00100000
00001000
,
00010000
00000000
00000000
00000000
00001010
00000000
00000000
00000000
00000001
00000000
00000100
00000010
00000100
00000000
00000001
00001000
,
00000001
00000000
00000000
00000000
00001100
00000000
00000000
00000000
00010000
00000000
00001000
00010000
00001000
00000000
00100000
00010000
,
00100000
00000000
00000000
00000000
11000000
00000000
00000000
00000000
00010000
00000000
10000000
00100000
10000000
00000000
00010000
10000000
,
00020000
00000000
01030000
00100000
20000000
00000000
31000000
00000000
,
11000000
00000000
10000000
01000000
10000000
00000000
00010000
00000000
10000000
00000000
00010000
01000000
00010000
00000000
10000000
00000000
,
00010000
00000000
01000000
00100000
01000000
00000000
00010000
00000000
00100000
00000000
00001000
00010000
00001000
00000000
00010000
00000000
,
00000100
00000000
00001000
00000010
00001000
00000000
00000100
00000000
00000010
00000000
00000001
00001000
00000001
00000000
00001000
00000000
,
00000010
00000000
00000100
00000001
00000100
00000000
00000010
00000000
00001000
00000000
00000100
00001000
00000100
00000000
00000010
00000000
,
00000001
00000000
00000010
00000100
00001000
00000100
00000010
00000000
00000001
00000000
00001000
00000000
00000100
00000000
00010000
00000000
,
00001000
00000000
10000000
01000000
00100000
01000000
10000000
00000000
00010000
00000000
10000000
00000000
00100000
00000000
01000000
00000000
,
00010000
00000000
00100000
00010000
01000000
00010000
10000000
00000000
00010000
00000000
01000000
00000000
00001000
00000000
00010000
00000000
,
00000020
00000000
00000200
00000330
,
00001001
00000000
00001100
00000000
00000101
00000000
00000000
00000000
00001000
00000100
00010000
00000000
00011000
00000000
00000000
00000000
,
00100000
00000000
00010000
00000000
10000000
00100000
10000000
00000000
00010000
00100000
00010000
00100000
00000000
00000000
00010000
00000000
,
11000000
00000000
01000000
00100000
00010000
00000000
00000000
00000000
10000000
00100000
10000000
00000000
00010000
00000000
00000000
00000000
,
01000000
00100000
01000000
00000000
00010000
00000000
10000000
00000000
00001000
00010000
00001000
00010000
00000000
00000000
00000100
00000000
,
00001010
00000000
00000101
00000000
00001001
00000000
00000001
00000010
00000100
00001000
00000001
00000000
00000101
00000000
00000000
00000000
,
00001000
00000000
00000100
00000000
00010000
00001000
00010000
00000000
00011000
00000000
00110000
00000000
10010000
00000000
00000000
00000000
,
10000000
01000000
10000000
00000000
01010000
00000000
00000000
00000000
00010000
01000000
00010000
00000000
11000000
00000000
00000000
00000000
,
01010000
10000000
00010000
00000000
10000000
00000000
01000000
00000000
00100000
00010000
10000000
00010000
10000000
00000000
10100000
00010000
,
01000000
00000000
00000000
00000000
;

//---------------dance-single - ----------------
#NOTEDATA:;
#CHARTNAME:;
#STEPSTYPE:dance-single;
#DESCRIPTION:;
#CHARTSTYLE:;
#DIFFICULTY:Medium;
#METER:5;
#RADARVALUES:0.278392,0.276395,0.038820,0.077639,0.097049,251.000000,246.000000,5.000000,10.000000,0.000000,0.000000,0.000000,0.000000,0.000000,0.278392,0.276395,0.038820,0.077639,0.097049,251.000000,246.000000,5.000000,10.000000,0.000000,0.000000,0.000000,0.000000,0.000000;
#CREDIT:Ben Speirs;
#NOTES:
0000
0000
0000
0000
,
0000
0000
0000
0000
,
0000
0000
0000
0000
,
0000
0000
0000
0000
,
1000
0000
0000
0001
0100
0000
0000
0000
0001
0000
0000
1000
0100
0000
0000
0000
,
1000
0000
0000
0001
0010
0000
0000
0000
0001
0000
0000
1000
0010
0000
0000
0000
,
1000
0000
0000
0010
0100
0000
0000
0000
0001
0000
0000
0010
0100
0000
0000
0000
,
2200
3300
0202
0303
,
1000
0001
0100
0000
0001
1000
0100
0000
,
0010
0010
0100
0100
1000
0001
1000
0000
,
0010
1000
0100
0000
0010
0001
0100
0000
,
0010
0000
0010
0000
0100
0000
0100
0000
0001
1000
0001
1000
0000
0000
0000
0000
,
1100
0000
0001
0000
0100
0001
1000
0000
,
0010
0000
0000
0001
1000
0000
0000
0000
0010
0000
1000
0000
0100
0000
0000
0000
,
0010
0000
0000
0001
1000
0000
0000
0000
0001
0000
1000
0000
0100
0000
0000
0000
,
0100
0000
0000
1000
0001
0000
0000
0000
1000
0000
0010
0000
0100
0000
0000
0000
,
0001
0000
1000
0000
0100
0010
0001
0000
,
1000
0000
0000
0001
0100
0000
0000
0000
0001
0000
1000
0000
0010
0000
0000
0000
,
1000
0000
0000
0100
1000
0000
0000
0000
0100
0000
1000
0000
0001
0000
0000
0000
,
1000
0100
0010
0001
0100
0100
0100
0000
,
0001
1000
0010
0000
1000
0100
0010
0000
,
0001
1000
0100
0000
1000
0001
0100
0000
,
0010
0000
0000
0010
0100
0000
0000
0000
0010
0000
0000
0010
0100
0000
0000
0000
,
0001
0001
1000
1000
0100
0010
0001
0000
,
0100
0000
0000
0100
0010
0000
0000
0000
0100
0000
0000
0100
0010
0000
0000
0000
,
0100
0100
0001
1000
0100
0100
0010
0000
,
0001
0010
0100
0000
1000
0010
0100
0000
,
0002
1000
2003
0100
,
3100
0010
0001
0100
0010
1000
0001
0000
,
1000
0010
0100
0001
0010
0100
1000
0000
,
0001
1000
0100
1000
0010
0100
0001
0000
,
0100
0010
0100
0001
0010
0100
1000
0000
,
0001
0000
0000
0001
1000
0000
0000
0000
1000
0000
0000
1000
0001
0000
0000
0000
,
1000
0100
1000
0000
0001
0100
0001
0000
,
0100
0000
0000
0100
0010
0000
0000
0000
0010
0000
0000
0010
1000
0000
0000
0000
,
2020
0000
0000
3030
,
0001
1000
0010
0100
0001
1000
0100
0000
,
1000
0100
0010
0001
0100
0100
0100
0000
,
0001
1000
0010
0000
1000
0001
0010
0000
,
0001
0000
0010
0000
0100
0000
1000
0000
0010
0100
0010
0100
0000
0000
0000
0000
,
0010
1000
0100
0100
1000
0001
0100
0000
,
0001
1000
0100
0100
0010
0010
0001
0000
,
0010
0001
1000
0000
0001
1000
0010
0000
,
1000
0000
0001
0000
0100
0000
0010
0000
1000
0100
1000
0100
0000
0000
0000
0000
,
0202
0000
0303
0000
;

//---------------dance-single - ----------------
#NOTEDATA:;
#CHARTNAME:;
#STEPSTYPE:dance-single;
#DESCRIPTION:;
#CHARTSTYLE:;
#DIFFICULTY:Easy;
#METER:2;
#RADARVALUES:0.138641,0.172747,0.015528,0.062111,0.000000,125.000000,123.000000,2.000000,8.000000,0.000000,0.000000,0.000000,0.000000,0.000000,0.138641,0.172747,0.015528,0.062111,0.000000,125.000000,123.000000,2.000000,8.000000,0.000000,0.000000,0.000000,0.000000,0.000000;
#CREDIT:Ben Speirs;
#NOTES:
// measure 0
0000
0000
0000
0000
,  // measure 1
0000
0000
0000
0000
,  // measure 2
0000
0000
0000
0000
,  // measure 3
0000
0000
0000
0000
,  // measure 4
1000
0010
0100
0001
,  // measure 5
1000
1000
0001
0001
,  // measure 6
0001
1000
0100
0010
,  // measure 7
0002
0003
2000
3000
,  // measure 8
0010
1000
0100
0100
,  // measure 9
0010
0001
1000
0000
,  // measure 10
0001
1000
0010
0010
,  // measure 11
0100
0000
0000
0000
0001
1000
0001
0000
,  // measure 12
1001
0000
1000
0000
,  // measure 13
0100
0100
0010
0010
,  // measure 14
0001
0000
1000
0000
,  // measure 15
1000
0010
0100
0100
,  // measure 16
0000
0001
0000
1000
,  // measure 17
0010
0010
0100
0100
,  // measure 18
0001
0000
1000
0000
,  // measure 19
2000
3000
0002
0003
,  // measure 20
0100
0001
1000
0000
,  // measure 21
1000
0010
0100
0000
,  // measure 22
0001
0010
0100
0000
,  // measure 23
1000
0001
1000
0000
,  // measure 24
0010
0010
1000
1000
,  // measure 25
0001
0001
0100
0000
,  // measure 26
0001
0001
1000
1000
,  // measure 27
0100
0000
0100
0000
,  // measure 28
0010
0010
0000
0010
,  // measure 29
0100
0100
0000
0100
,  // measure 30
0001
0000
1000
0000
,  // measure 31
0010
0000
0010
0000
,  // measure 32
1000
0100
0010
0000
,  // measure 33
0001
0100
0010
0000
,  // measure 34
1000
0100
1000
0000
,  // measure 35
0002
0003
2000
3000
,  // measure 36
0010
0000
1000
0000
,  // measure 37
0100
0010
0001
1000
,  // measure 38
0010
0000
1000
0000
,  // measure 39
0001
0010
0100
1000
,  // measure 40
0010
0000
1000
0000
,  // measure 41
0001
1000
0100
0010
,  // measure 42
0001
0000
1000
0000
,  // measure 43
0010
0000
0010
0000
1000
0001
1000
0000
,  // measure 44
2002
0000
3003
0000
;

//---------------dance-single - ----------------
#NOTEDATA:;
#CHARTNAME:;
#STEPSTYPE:dance-single;
#DESCRIPTION:;
#CHARTSTYLE:;
#DIFFICULTY:Beginner;
#METER:1;
#RADARVALUES:0.072093,0.102484,0.031056,0.000000,0.000000,65.000000,61.000000,4.000000,0.000000,0.000000,0.000000,0.000000,0.000000,0.000000,0.072093,0.102484,0.031056,0.000000,0.000000,65.000000,61.000000,4.000000,0.000000,0.000000,0.000000,0.000000,0.000000,0.000000;
#CREDIT:Ben Speirs;
#NOTES:
// measure 0
0000
0000
0000
0000
,  // measure 1
0000
0000
0000
0000
,  // measure 2
0000
0000
0000
0000
,  // measure 3
0000
0000
0000
0000
,  // measure 4
0001
0000
0001
0000
,  // measure 5
0001
0000
0000
0000
,  // measure 6
1000
0000
1000
0000
,  // measure 7
1000
0000
0000
0000
,  // measure 8
0010
0010
0000
0000
,  // measure 9
0010
0000
0010
0000
,  // measure 10
0100
0100
0000
0000
,  // measure 11
0100
0000
0100
0000
,  // measure 12
0001
0000
0000
0000
,  // measure 13
1000
0000
0000
0000
,  // measure 14
0010
0000
0010
0000
,  // measure 15
0010
0000
0000
0000
,  // measure 16
0100
0000
0000
0000
,  // measure 17
0001
0000
0000
0000
,  // measure 18
1000
0000
0000
0000
,  // measure 19
0010
0000
0010
0000
,  // measure 20
1001
0000
0000
0000
,  // measure 21
0001
0000
0001
0000
,  // measure 22
0001
0000
0000
0000
,  // measure 23
0100
0000
0100
0000
,  // measure 24
0100
0000
0000
0000
,  // measure 25
0010
0000
0010
0000
,  // measure 26
0010
0000
0000
0000
,  // measure 27
1000
0000
1000
0000
,  // measure 28
1001
0000
0000
0000
,  // measure 29
0001
0001
0000
0000
,  // measure 30
0100
0100
0000
0000
,  // measure 31
0100
0000
0100
0000
,  // measure 32
1000
0000
0000
0000
,  // measure 33
0001
0000
0000
0000
,  // measure 34
0010
0000
0000
0000
,  // measure 35
0010
0000
0000
0000
,  // measure 36
1001
0000
0001
0000
,  // measure 37
1000
1000
0000
0000
,  // measure 38
1000
0000
0001
0000
,  // measure 39
0001
0000
0000
0000
,  // measure 40
0001
0000
0000
0000
,  // measure 41
0100
0100
0000
0000
,  // measure 42
0001
0000
0000
0000
,  // measure 43
1000
0000
1000
0000
,  // measure 44
1001
0000
0000
0000
;
