#TITLE:Kids;
#SUBTITLE:;
#ARTIST:MGMT;
#TITLETRANSLIT:;
#SUBTITLETRANSLIT:;
#ARTISTTRANSLIT:;
#CREDIT:;
#BANNER:Kids-bn.png;
#BACKGROUND:Kids-bg.png;
#LYRICSPATH:;
#CDTITLE:;
#MUSIC:Kids.mp3;
#OFFSET:-0.260;
#SAMPLESTART:84.220;
#SAMPLELENGTH:14.360;
#SELECTABLE:YES;
#BPMS:0.000=122.990;
#STOPS:171.000=0.010
;
#BGCHANGES:-1.400=Kids.avi=1.000=1=0=0,
99999=-nosongbg-=1.000=0=0=0 // don't automatically add -songbackground-
;

//---------------dance-single - ----------------
#NOTES:
     dance-single:
     :
     Beginner:
     1:
     0.075,0.097,0.025,0.000,0.000:
0000
0000
0000
0000
,
0000
0000
0000
0000
,
0000
0000
0000
0000
,
0000
0000
0000
0000
,
0000
0000
0000
0000
,
0000
0000
0000
0000
,
0000
0000
0000
0000
,
1000
0000
0000
0000
,
0001
0000
0000
0000
,
0100
0000
0000
0000
,
0100
0000
0000
0000
,
0010
0010
0000
0000
,
0010
0000
0000
0000
,
1000
0000
0000
0000
,
0001
0000
0000
0000
,
0100
0100
0000
0000
,
0100
0000
0000
0000
,
0001
0000
0000
0000
,
1000
0000
0000
0000
,
0100
0100
0000
0000
,
0100
0000
0000
0000
,
1000
0000
0000
0000
,
0001
0000
0000
0000
,
1000
1000
0000
0000
,
1000
0000
0000
0000
,
0001
0000
0000
0000
,
0010
0000
0000
0000
,
0100
0000
0000
0000
,
0100
0000
0000
0000
,
1000
0000
0000
0000
,
1000
0000
0000
0000
,
0001
0000
0000
0000
,
0001
0000
0000
0000
,
0010
0000
0000
0000
,
0010
0000
0000
0000
,
0001
0000
0001
0000
,
0000
0000
0000
0000
,
0100
0000
0100
0000
,
0000
0000
0000
0000
,
0001
0000
0001
0000
,
0000
0000
0000
0000
,
1000
0000
1000
0000
,
0000
0000
0000
0000
,
0010
0010
0000
0000
,
0010
0000
0000
0000
,
0100
0000
0100
0000
,
0100
0000
0000
0000
,
0001
0001
0000
0000
,
0001
0000
0000
0000
,
1000
0000
1000
0000
,
1000
0000
0000
0000
,
1001
0000
0000
0000
,
0100
0000
0000
0000
,
0100
0000
0000
0000
,
0100
0000
0000
0000
,
0110
0000
0000
0000
,
0010
0000
0000
0000
,
0010
0000
0000
0000
,
0010
0000
0000
0000
,
1001
0000
0000
0000
;

//---------------dance-single - ----------------
#NOTES:
     dance-single:
     :
     Medium:
     4:
     0.215,0.219,0.033,0.213,0.000:
0000
0000
0000
0000
,
0000
0000
0000
0000
,
0000
0000
0000
0000
,
0000
0000
0000
0000
,
0000
0000
0000
0000
,
0000
0000
0000
0000
,
0000
0000
0000
0000
,
0001
0001
1000
1000
,
0010
0100
0010
2000
,
0002
0000
0000
0000
,
3003
0000
0000
0000
0000
0010
0010
0000
,
0100
0100
0001
0001
,
1000
0100
1000
0020
,
0200
0000
0000
0330
,
2002
0000
0000
3003
,
0010
0010
1000
1000
,
0010
0100
0001
2000
,
0020
0000
0000
3030
,
0001
0000
1000
0100
0000
0000
0000
0000
,
0010
0010
0100
0100
,
0001
1000
0010
0200
,
0002
0000
0000
0303
,
2200
0000
0000
3300
,
0010
0010
0001
0001
,
0100
0001
1000
0020
,
0200
0000
0000
0330
,
1000
0000
0001
0100
0000
0000
0000
0000
,
0010
0000
1000
0001
,
0100
0000
0000
0000
0010
0100
0010
0100
,
0010
0000
1000
0100
,
1000
0000
0001
0000
,
0010
0001
0100
0010
,
0010
0000
0000
0000
,
0100
0001
1000
0100
,
0100
0000
0000
0000
,
0010
0010
0000
1000
,
1000
0001
0010
0001
,
0200
0000
0301
0000
,
0010
0001
1000
0000
,
0010
0000
1000
0100
1000
0000
0010
0000
,
0100
0000
0000
0000
,
0010
0000
0100
0001
0100
0000
0001
0010
,
0001
0010
0000
0000
,
0101
0000
0000
0000
0001
0100
1000
0000
,
0000
0000
0010
0100
,
0002
0000
2003
0000
,
3200
0000
0300
0000
,
1000
0000
0010
0000
1000
0010
0001
0000
,
0200
0000
0302
0000
,
2003
0000
0000
0000
,
3010
0000
0100
0001
0000
0000
0000
0000
,
0010
0000
0001
0000
1000
0100
0001
0000
,
1000
0000
0010
1000
,
0020
0000
0230
0000
,
0302
0000
0003
0000
,
0010
0000
0001
0000
1000
0100
0001
0000
,
1000
0000
0001
1000
,
0010
0010
0010
0000
1000
0000
0001
0000
,
0100
0100
0100
0000
0001
0000
1000
0000
,
2200
0000
3300
0000
;

//---------------dance-single - ----------------
#NOTES:
     dance-single:
     :
     Hard:
     7:
     0.311,0.366,0.139,0.188,0.000: // measure 1
0000
0000
0000
0000
,  // measure 2
0000
0000
0000
0000
,  // measure 3
0000
0000
0000
0000
,  // measure 4
0000
0000
0000
0000
,  // measure 5
0000
0000
0000
0000
,  // measure 6
0000
0000
0000
0000
,  // measure 7
0000
0000
0000
0000
,  // measure 8
0010
1000
0001
0010
,  // measure 9
0001
0000
0100
0100
0000
0010
0000
2000
,  // measure 10
0000
0000
0000
0000
,  // measure 11
3000
0000
0000
0000
0000
0001
0001
0000
,  // measure 12
0100
0000
0010
0000
0000
0100
0000
0001
,  // measure 13
0000
1000
0000
0100
1000
0001
2000
0002
,  // measure 14
0000
0000
3000
0003
0000
0000
0000
0020
,  // measure 15
0000
0130
0001
0000
1000
0100
0010
0001
,  // measure 16
0100
0000
0010
0000
0000
1000
0000
0001
,  // measure 17
0000
1000
0000
0100
1000
0001
0020
0200
,  // measure 18
0000
0000
0030
0300
0000
0000
0000
0000
,  // measure 19
0010
0001
0100
1000
0000
0100
0010
0100
,  // measure 20
0001
1000
0010
0100
,  // measure 21
0002
0000
1003
0020
0000
0230
0000
2000
,  // measure 22
0000
0000
0000
0000
0000
3300
0000
0100
,  // measure 23
0000
0100
0001
0000
1000
0001
1000
0100
,  // measure 24
1000
0001
0100
0010
,  // measure 25
2000
0000
3001
0200
0000
0320
0000
0002
,  // measure 26
0000
0000
0000
0000
0000
0033
0000
0000
,  // measure 27
1000
0010
1000
0100
0000
0001
0100
1000
,  // measure 28
0010
0100
0000
0000
0001
0100
0001
1000
,  // measure 29
0000
0000
0000
0000
1000
0100
0010
0001
,  // measure 30
2000
0000
0000
0000
0010
3010
0000
0000
,  // measure 31
0000
0100
0000
0100
0000
0100
0000
0000
,  // measure 32
0000
0000
0010
1000
0100
1000
0001
0000
,  // measure 33
0100
0000
0000
0000
0000
0001
0000
1000
,  // measure 34
0000
0000
0001
0010
0100
1000
0001
0000
,  // measure 35
1000
0000
0000
0000
0000
0010
0010
0000
,  // measure 36
0101
0000
1000
0000
0000
0110
0000
0001
,  // measure 37
0000
1000
0000
0010
0100
0010
1000
0000
,  // measure 38
1002
0000
0000
0000
0010
0013
0000
0101
,  // measure 39
0000
1000
0100
0000
1000
0001
1000
0010
,  // measure 40
0100
0000
0010
0100
0001
1000
0001
0010
,  // measure 41
1000
0000
0000
0000
,  // measure 42
0000
1000
0100
1000
0001
0010
0100
0010
,  // measure 43
0001
0000
1000
0000
1000
0010
0010
0000
,  // measure 44
1010
0000
0101
0000
1000
0100
0001
0000
,  // measure 45
0000
0000
0000
0010
0010
1000
0100
1000
,  // measure 46
0002
0000
0000
0000
0100
0103
0000
0000
,  // measure 47
0200
0010
0000
0310
,  // measure 48
0110
0000
1001
0000
0010
0001
1000
0000
,  // measure 49
0200
0000
0000
0000
0010
0310
0000
0000
,  // measure 50
0001
1000
0001
1000
0100
0100
1000
0000
,  // measure 51
0001
0100
0010
1000
0000
0010
0100
0010
,  // measure 52
1010
0000
0100
0001
0001
1000
1000
0000
,  // measure 53
0000
0000
0010
1000
1000
0001
0001
0100
,  // measure 54
0200
0000
0000
0000
0010
0310
0000
0000
,  // measure 55
2000
0001
0000
3001
,  // measure 56
0110
0101
1100
1010
,  // measure 57
1001
0110
0101
1100
,  // measure 58
0001
1000
0100
0000
1000
0001
0100
0000
,  // measure 59
0010
1000
0100
0001
0000
0010
0100
2000
,  // measure 60
0002
0000
3003
0000
;

//---------------dance-single - ----------------
#NOTES:
     dance-single:
     :
     Easy:
     2:
     0.128,0.146,0.041,0.074,0.000:
0000
0000
0000
0000
,
0000
0000
0000
0000
,
0000
0000
0000
0000
,
0000
0000
0000
0000
,
0000
0000
0000
0000
,
0000
0000
0000
0000
,
0000
0000
0000
0000
,
0010
0000
1000
0000
,
0001
1000
0001
0000
,
0020
0000
0000
0000
,
0030
0000
0000
0000
,
0001
0000
1000
0000
,
0010
0000
1000
0100
,
2000
0000
0000
0000
,
3002
0000
0000
0000
,
0103
0000
0001
0000
,
1000
0000
0100
0010
,
0200
0000
0000
0000
,
0300
0000
0000
0000
,
0010
0000
0001
0000
,
1000
0000
0001
0100
,
0002
0000
0000
0000
,
0203
0000
0000
0000
,
0310
0000
1000
0000
,
0001
0000
1000
0100
,
2000
0000
0000
0000
,
3000
0000
0000
0000
,
0010
0000
0000
0100
,
0100
0000
0001
1000
,
0001
0000
0000
0000
,
0010
0000
0100
0000
,
1000
0000
0000
0010
,
0010
0000
0000
0000
,
1000
0000
0000
0010
,
0010
0000
0000
0000
,
1001
0000
0000
0100
,
0100
0010
0010
0000
,
1000
0000
0000
0000
,
0001
0000
0000
0000
,
0010
0010
0000
0001
,
0001
0000
0000
0000
,
0100
0000
0000
0010
,
0010
0010
0000
0000
,
1001
0000
0100
0100
,
0000
0000
0010
1000
,
0100
0000
1000
0000
,
0001
0000
0000
0000
,
1001
0000
0010
0010
,
0001
0000
0100
0000
,
0000
0010
0010
0000
,
1000
0000
0001
0000
,
1001
0000
1000
1000
,
0000
0000
0100
1000
,
0010
0000
0000
0000
,
1000
0000
0000
0000
,
0001
0000
0010
0001
,
0100
0000
0000
0000
,
0010
0010
0000
1000
,
0100
0100
0000
0000
,
2002
0000
3003
0000
;
