#TITLE:Kids;
#ARTIST:MGMT;
#FILE:Kids.mp3;
#BPM:122.990;
#GAP:260;
#SAMPLESTART:84.220;
#SAMPLELENGTH:14.360;
#FREEZE:684.000=10.000;
#SINGLE:BEGINNER:1:
00000000
00000000
00000000
00000000
00000000
00000000
00000000
40000000
60000000
20000000
20000000
80800000
80000000
40000000
60000000
20200000
20000000
60000000
40000000
20200000
20000000
40000000
60000000
40400000
40000000
60000000
80000000
20000000
20000000
40000000
40000000
60000000
60000000
80000000
80000000
60006000
00000000
20002000
00000000
60006000
00000000
40004000
00000000
80800000
80000000
20002000
20000000
60600000
60000000
40004000
40000000
B0000000
20000000
20000000
20000000
A0000000
80000000
80000000
80000000
B0000000
;
#SINGLE:ANOTHER:4:
00000000
00000000
00000000
00000000
00000000
00000000
00000000
60604040
8020804!40
6!60000000
B0000880
20206060
4020408!80
2!200000A0
B!B00000B0
80804040
8020604!40
8!80000070
60420000
80802020
6040802!20
6!60000030
1!10000010
80806060
2060408!80
2!200000A0
40620000
80004060
20008282
80004020
40006000
80602080
80000000
20604020
20000000
80800040
40608060
2!20003000
80604000
80424080
20000000
80262068
60800000
30006240
00008020
6!6000B!4000
1!20002000
40804860
2!20003!6000
B!40000000
70260000
80604260
40008040
8!8000A!2000
3!60006000
80604260
40006040
88804060
22206040
1!10001000
;
#SINGLE:MANIAC:7:
00000000
00000000
00000000
00000000
00000000
00000000
00000000
80406080
60220804!4
00000000
40000660
20800206
0402464!46!6
00460008!8
0A604286
20800406
0402468!82!2
00820000
86240282
60408020
6!60B8!80A!204!4
00000102
02604642
40602080
4!40B2!20A!806!6
00000900
48420624
82006264
00004286
4!40008700
02020200
00842460
20000604
00682460
40000880
30400A06
04082840
B!60008903
04204648
20826468
40000000
04246828
60404880
70304260
00088424
6!60002300
2!208000A0
A0B08640
2!20008A00
64642240
62840828
70266440
00844662
2!20008A00
4!406000B0
A0301070
B0A03010
64204620
84260824!4
6!6000B000
;
#SINGLE:BASIC:2:
00000000
00000000
00000000
00000000
00000000
00000000
00000000
80004000
60406000
8!80000000
80000000
60004000
80004020
4!40000000
B!60000000
30006000
40002080
2!20000000
20000000
80006000
40006020
6!60000000
3!20000000
A0004000
60004020
4!40000000
40000000
80000020
20006040
60000000
80002000
40000080
80000000
40000080
80000000
B0000020
20808000
40000000
60000000
80800060
60000000
20000080
80800000
B0002020
00008040
20004000
60000000
B0008080
60002000
00808000
40006000
B0004040
00002040
80000000
40000000
60008060
20000000
80800040
20200000
B!B000B000
;
