#TITLE:Want To Want Me;
#SUBTITLE:;
#ARTIST:Jason Derulo;
#TITLETRANSLIT:;
#SUBTITLETRANSLIT:;
#ARTISTTRANSLIT:;
#GENRE:JASOOOON DERUUUUULO;
#CREDIT:;
#BANNER:Want To Want Me.png;
#BACKGROUND:Want To Want Me-bg.png;
#LYRICSPATH:;
#CDTITLE:;
#MUSIC:Want To Want Me.ogg;
#OFFSET:-0.020000;
#SAMPLESTART:94.764008;
#SAMPLELENGTH:19.313992;
#SELECTABLE:YES;
#DISPLAYBPM:114.000000;
#BPMS:0.000000=114.000000
,132.000000=110.000000
,133.000000=114.000000
,180.000000=113.000000
,181.000000=114.000000
;
#STOPS:
;
#BGCHANGES:1.000=Want To Want Me.avi=1.000=0=0=1=====,
99999=-nosongbg-=1.000=0=0=0 // don't automatically add -songbackground-
;
#KEYSOUNDS:;
#ATTACKS:;

//---------------dance-single - ----------------
#NOTES:
     dance-single:
     :
     Hard:
     7:
     0.390514,0.400287,0.162622,0.224573,0.038719,303.000000,21.000000,29.000000,0.000000,0.000000,0.000000,0.390514,0.400287,0.162622,0.224573,0.038719,303.000000,21.000000,29.000000,0.000000,0.000000,0.000000:
0000
0000
0000
0000
,
1000
0000
0100
0000
0001
0000
0010
0001
,
0100
0010
1000
0001
0010
0000
0001
1000
,
0001
0000
0010
0000
1000
0000
0100
1000
,
0010
0100
0001
1000
0100
0000
1000
0001
,
0200
0000
1000
0000
0010
0000
0301
0010
,
0100
1000
0001
1000
0010
0000
1000
0001
,
0020
0000
0031
0000
1000
0000
0001
0100
,
0020
0000
1030
0000
0001
1000
0100
0000
,
1100
0000
0011
0000
1000
0000
0001
0010
,
0100
1000
0010
0100
0001
0000
0010
0100
,
0110
0000
1001
0000
0100
0000
0001
0010
,
0001
1000
0010
0100
0001
0000
1000
0001
,
0011
0000
1100
0000
0001
0000
1000
0100
,
0010
0001
0100
0000
0001
1000
0020
0000
,
0130
0000
0110
0000
1000
0001
0020
0000
,
0130
0000
0000
0000
,
1000
0000
0101
0000
0000
0000
0001
0010
,
0001
0000
1000
0000
0001
0100
0010
1000
,
0001
0000
1010
0000
0000
0000
1000
0100
,
1000
0000
0001
0000
1000
0010
0100
0001
,
0020
0000
0130
0000
0000
0000
0010
0100
,
1000
0000
0000
0000
0001
0000
0000
0000
1000
0000
0000
0100
0000
0000
0010
0000
,
0002
0000
0000
0000
1003
0000
0000
0000
0001
0000
0000
0100
0000
0000
0010
0000
,
2000
0000
3001
0000
0010
0100
0010
0001
,
1000
0000
2020
0000
3030
0000
1000
0100
,
1000
0000
0001
0000
1000
0010
0100
0001
,
1000
0000
0202
0000
0303
0000
0001
0010
,
0001
0000
1000
0000
0001
0100
0010
1000
,
0200
0000
0310
0000
0000
0000
0100
0010
,
0001
0000
0000
0000
1000
0000
0000
0000
0001
0000
0000
0010
0000
0000
0100
0000
,
2000
0000
0000
0000
3001
0000
0000
0000
1000
0000
0000
0010
0000
0000
0100
0000
,
0002
0000
1003
0000
0100
0010
0100
1000
,
0001
0100
1000
0010
,
0001
0000
1001
0000
1000
0100
0010
0001
,
1000
0100
0001
0010
,
1000
0000
1001
0000
0001
0100
0010
1000
,
0200
0010
0000
0310
,
0020
0000
0031
0000
0001
0010
0200
0000
,
2300
0001
0000
3002
,
0203
0000
0010
0000
0000
0000
0310
0100
,
0001
1000
0200
0000
0310
0000
0001
0000
,
1000
0000
0010
0000
0100
0001
2000
0000
,
3100
0001
0010
1000
,
0001
0000
0000
0010
0000
0000
0001
0000
1000
0000
0000
0010
0000
0000
1000
0000
,
0001
0000
0220
0000
0330
0000
0010
0001
,
1000
0000
0010
1000
0100
0010
0001
0000
,
1000
0000
0220
0000
0330
0000
0100
1000
,
0001
0000
0100
0001
0010
0100
1000
0000
,
0011
0000
1100
0000
0001
0000
1000
0001
,
0100
0000
0000
0000
0010
0000
0000
0000
1000
0000
0000
0100
0000
0000
0010
0000
,
0002
0000
0000
0000
1003
0000
0000
0000
0001
0000
0000
0100
0000
0000
0010
0000
,
2000
0000
3001
0000
0010
0100
0010
0001
,
1000
0100
0001
0010
,
1000
0000
1001
0000
0001
0100
0010
1000
,
0001
0100
1000
0010
,
0001
0000
1001
0000
1000
0100
0010
0001
,
1000
0010
0001
0100
,
1000
0000
1001
0000
1000
0010
0100
0001
,
1000
0100
0001
0010
,
1000
0000
0000
0000
1001
0000
0000
0000
0010
0100
0000
0000
0010
0100
0000
0000
;

//---------------dance-single - ----------------
#NOTES:
     dance-single:
     :
     Challenge:
     9:
     0.637212,0.706388,0.255549,0.131646,0.503353,526.000000,33.000000,17.000000,0.000000,0.000000,0.000000,0.637212,0.706388,0.255549,0.131646,0.503353,526.000000,33.000000,17.000000,0.000000,0.000000,0.000000:
0000
0000
0000
0000
,
1000
0000
0100
1000
0001
0000
0100
0001
1000
0000
0010
0000
0100
0000
0001
0000
,
1000
0100
1000
0001
0010
0000
0001
1000
,
0001
0000
0010
0001
1000
0000
0010
1000
0001
0000
0100
0000
0010
0000
1000
0000
,
0001
0000
0010
0000
0001
0000
1000
0000
0100
0000
0000
0000
1000
0001
1000
0001
,
0100
0000
0010
1000
0100
0000
0010
0001
0100
0000
0001
0000
1000
0000
0010
0000
,
1000
0001
0010
0100
1000
0000
0001
1000
,
0010
0000
0100
0001
0010
0000
0100
1000
0010
0000
1000
0000
0001
0010
0100
1000
,
0001
0000
0100
0010
1000
0000
0100
0010
0001
0000
1000
0000
0001
0010
0100
1000
,
0001
0000
0100
0010
0100
0000
0001
0100
0001
0000
1000
0000
0100
0000
0010
0000
,
0001
0000
0100
0000
0010
0000
1000
0000
0001
0000
0000
0000
1000
0100
0010
0001
,
1000
0000
0010
0100
0010
0000
1000
0010
1000
0000
0001
0000
0010
0000
0100
0000
,
1000
0000
0010
0000
0100
0000
0001
0000
1000
0000
0000
0000
0001
0010
0001
0010
,
0001
0000
1000
0100
1000
0000
0001
0100
0001
0000
1000
0000
0010
0000
0100
0000
,
0001
1000
0100
0000
0010
0001
0011
0000
,
2100
0000
3010
0000
0010
1000
1010
0000
,
0102
1000
0000
1003
,
0100
0000
0010
0000
2001
0000
0000
0000
3100
0000
0000
0000
1000
0001
0010
0000
,
0001
0000
0100
0000
1000
0000
0100
0000
0010
0000
0000
0010
1000
0000
0001
0000
,
0010
0000
0100
0000
1002
0000
0000
0000
0013
0000
0000
0000
0001
1000
0100
0000
,
1000
0000
0010
0000
0001
0000
0010
0000
0100
0000
0000
0100
0001
0010
0001
0010
,
0100
0000
1000
0000
0102
0000
0000
0000
1003
0000
0000
0000
0100
0010
0001
0000
,
1000
0000
0010
0000
0100
0000
0000
0000
0001
0000
0100
0010
0000
0010
1000
0000
,
0001
0000
0000
0000
1001
0000
0000
0000
1000
0000
0010
0100
0000
0100
0001
0000
,
1000
0000
0000
0000
1001
0000
0100
0010
1000
0001
0000
1000
0100
0010
0100
0010
,
0001
0000
0100
0000
1002
0000
0000
0000
0013
0000
0000
0000
0001
1000
0100
0000
,
1000
0000
0010
0000
0001
0000
0010
0000
0100
0000
0000
0100
0001
0000
1000
0000
,
0100
0000
0010
0000
2001
0000
0000
0000
3100
0000
0000
0000
1000
0001
0010
0000
,
0001
0000
0100
0000
1000
0000
0100
0000
0010
0000
0000
0010
1000
0100
1000
0100
,
0010
0000
0001
0000
2010
0000
0000
0000
3001
0000
0000
0000
0010
0100
1000
0000
,
0001
0000
0100
0000
0010
0000
0000
0000
1000
0000
0010
0100
0000
0100
0001
0000
,
1000
0000
0000
0000
1001
0000
0000
0000
0001
0000
0100
0010
0000
0010
1000
0000
,
0001
0000
0000
0000
1001
0000
0010
0100
0001
1000
0000
0001
0010
0100
0010
0100
,
1000
0010
1010
0100
0001
0010
0011
0100
,
0001
0000
1000
0000
1001
0000
0100
0001
0010
0100
0010
0100
1000
0010
0100
0000
,
0001
0100
0101
0010
1000
0100
1100
0010
,
1000
0000
0001
0000
1001
0000
0010
1000
0100
0010
0100
0010
0001
0100
0010
1000
,
0001
0010
0100
0000
1000
0010
0100
0000
,
0001
1000
0010
0000
1000
0100
0010
0000
,
1002
0000
0103
0000
0001
0010
0100
0000
,
2001
0000
3100
0000
1000
0010
0100
0000
,
0101
1000
1100
0001
,
0011
1000
1010
0001
,
1001
0100
1010
0100
1001
0100
0011
0100
,
1000
0010
0010
0001
0010
0010
1000
0001
1000
0100
0100
0001
0100
0100
1000
0001
,
0010
0000
0100
0000
1002
0000
0000
0000
0103
0000
0010
1000
0010
1000
0001
0000
,
1000
0000
0100
0010
0100
0000
0010
0001
2000
0000
0000
0000
3010
0000
0000
0000
,
0100
0000
0010
0000
2001
0000
0000
0000
3010
0000
0100
0001
0100
0001
1000
0000
,
0001
0000
0010
0100
0010
0000
0100
1000
0002
0000
0000
0000
0103
0010
1000
0001
,
0010
0000
0100
0000
2001
0000
0000
0000
3010
0000
0100
0001
0100
0001
0100
0000
,
0010
0000
1000
0000
0001
0000
0000
0000
1000
0000
0100
0010
0000
0010
0001
0000
,
2000
0000
0000
0000
3001
0000
0000
0000
0001
0000
0100
0010
0000
0010
1000
0000
,
0002
0000
0000
0000
1003
0000
0100
0010
0100
1000
0000
0001
0100
0010
1000
0000
,
0001
0000
0100
0001
1000
0000
0100
1000
0001
0000
0100
0001
1000
0000
0100
1000
,
0001
0000
0100
0001
1000
0000
0100
1000
0010
0100
0000
0001
0000
0010
0100
0000
,
1000
0000
0010
1000
0001
0000
0010
0001
1000
0000
0010
1000
0001
0000
0010
0001
,
1000
0000
0010
1000
0001
0000
0010
0001
0100
0010
0000
1000
0000
0100
0010
0000
,
0001
0000
0010
0100
1000
0000
0010
0100
0001
0000
0010
0100
1000
0000
0010
0100
,
0001
0000
0010
0100
1000
0000
0010
0100
0001
1000
0000
0010
0000
1000
0100
0000
,
1000
0000
0100
0010
0001
0000
0100
0010
1000
0000
0100
0010
0001
0000
0100
0010
,
1000
0000
0100
0010
0001
0000
0100
0010
1000
0001
0000
0000
0001
1000
0000
0000
;

//---------------dance-single - ----------------
#NOTES:
     dance-single:
     :
     Medium:
     5:
     0.324137,0.399875,0.247805,0.302012,0.000000,222.000000,32.000000,39.000000,0.000000,0.000000,0.000000,0.324137,0.399875,0.247805,0.302012,0.000000,222.000000,32.000000,39.000000,0.000000,0.000000,0.000000:
0000
0000
0000
0000
,
2000
0100
0001
0100
,
0001
0100
3001
1001
,
0002
0100
1000
0100
,
1000
0100
1003
1001
,
2000
0010
0001
0010
,
0001
0010
3001
1001
,
0002
0010
1000
0010
,
1000
0010
1003
1001
,
0020
0000
0130
0001
1000
0000
0100
0000
,
2000
3200
0310
0001
,
2000
0000
3010
1000
0002
0000
0203
0000
,
0320
2030
3002
0103
,
0020
0000
0030
1000
0001
0000
1001
0000
,
0100
0100
0100
0000
1000
0100
0020
0000
,
0031
0000
0000
0002
,
1003
0000
0000
0000
,
0010
1002
0103
0010
,
1000
0000
0001
0000
1000
0100
0010
0000
,
0100
0000
2001
0000
3100
0000
0010
1000
,
0001
0100
0010
1000
,
0102
0000
1003
0000
0001
0000
1000
0100
,
1000
0001
0010
0010
,
0200
0300
1000
1000
,
0020
0000
0030
0000
0100
0001
1000
0000
,
0010
1001
0110
1001
,
0100
0000
0010
0000
1000
0100
0010
0000
,
0001
0000
1000
0000
0000
0000
0010
0010
,
0000
0000
1000
0000
0001
0010
0100
0000
,
1000
1000
0000
0000
0010
0000
1000
0000
,
0001
0000
0110
0101
,
2000
3000
0110
1100
,
0002
0003
0100
0010
,
0000
1001
0000
0010
,
0000
0000
1000
0000
0001
0010
0100
1000
,
0000
0010
0000
1000
,
0000
0001
0000
1000
,
0200
0010
0000
0010
,
0000
0000
0010
0000
0000
0000
0310
0001
,
0200
0010
0000
0010
,
0000
0000
0010
0000
0000
0000
0310
1000
,
0200
0310
0020
0031
,
0002
1003
2000
3010
,
1010
1001
0101
1001
,
0010
0000
1000
0000
0001
0010
0100
1000
,
0001
0000
0110
0000
0000
0000
0100
0010
,
0000
0000
0100
0000
0001
0010
0100
0000
,
1000
1000
0000
0000
0000
0000
0010
1000
,
0001
1000
0010
0100
,
0001
0001
0000
0000
0000
0000
0010
0001
,
0000
0000
1000
0000
0010
0000
1000
0100
,
0020
0000
0030
0000
0001
0000
0100
0010
,
2000
0000
3000
0000
0001
1000
0001
0000
,
0000
0220
0330
2002
,
3003
0000
0010
0000
1000
0100
0010
0000
,
0000
2002
3003
0220
,
0330
0000
0100
0001
1000
0000
0000
0000
,
0001
0011
0000
1001
,
0000
0101
0000
1001
,
1000
1100
0000
1010
,
0000
1001
0010
0010
;

//---------------dance-single - ----------------
#NOTES:
     dance-single:
     :
     Easy:
     3:
     0.186960,0.376353,0.108415,0.061951,0.000000,147.000000,14.000000,8.000000,0.000000,0.000000,0.000000,0.186960,0.376353,0.108415,0.061951,0.000000,147.000000,14.000000,8.000000,0.000000,0.000000,0.000000:
0000
0000
0000
0000
,
2000
3000
0010
0000
,
1000
0100
0010
0000
,
0002
0003
1000
0000
,
0010
0100
0001
0000
,
0020
0030
0100
0000
,
0010
0001
1000
0000
,
0200
0300
1000
0001
,
0200
0300
0001
0000
,
1001
0000
0010
0000
,
1000
0010
0100
0000
,
0110
0000
0001
0000
,
0010
0001
1000
0000
,
1001
0000
0100
0000
,
1000
0010
0100
0001
,
0001
0000
0000
1000
,
1000
0000
0000
0000
,
0000
1001
0000
0010
,
0000
1000
0100
0010
,
0001
0000
0000
0100
,
0000
0010
0010
1000
,
0001
0000
0000
1000
,
0000
0100
0100
0010
,
0001
0000
0100
0010
,
1000
0000
0001
1000
,
0000
1001
0000
0010
,
0000
1000
0010
0100
,
0010
0000
0000
1000
,
0000
0001
0010
0001
,
0100
0000
0000
0001
,
0000
0000
1000
1000
,
0100
0000
0001
0001
,
0100
0000
1000
0001
,
0000
0100
0000
0100
,
0000
0100
0001
1000
,
0000
0100
0000
0100
,
0000
0010
0000
0000
,
0001
0002
0000
0000
,
0003
0000
0100
0010
,
2000
3000
0000
0001
,
0002
0003
0000
0010
,
0100
0100
0100
0000
,
0010
0010
0010
0000
,
0110
0110
0110
0110
,
1001
1001
1001
1001
,
0000
0110
0000
0000
,
0000
1000
0100
0001
,
1000
0000
0000
0000
,
0000
0001
0100
1000
,
0001
0000
0000
0000
,
0000
0000
1000
0010
,
0100
0000
0001
0010
,
0100
0000
1000
0001
,
0000
0100
0000
0010
,
0000
1000
0100
0100
,
0000
1000
0000
0001
,
0000
0100
0010
0010
,
0000
0100
0000
0001
,
0000
0010
0100
0100
,
0000
1000
0000
0001
,
0000
0100
0010
0010
;

//---------------dance-single - ----------------
#NOTES:
     dance-single:
     :
     Beginner:
     1:
     0.110627,0.141132,0.015488,0.000000,0.000000,98.000000,2.000000,0.000000,0.000000,0.000000,0.000000,0.110627,0.141132,0.015488,0.000000,0.000000,98.000000,2.000000,0.000000,0.000000,0.000000,0.000000:
0000
0000
0000
0000
,
1000
0000
0000
0000
,
0001
0000
0001
0000
,
0010
0000
0000
0000
,
0100
0000
0100
0000
,
1000
0000
0000
0000
,
0010
0000
0010
0000
,
0100
0000
0000
0000
,
0001
0000
0000
0000
,
1000
0000
0000
0000
,
0010
0000
0010
0000
,
0100
0000
0000
0000
,
0001
0000
0001
0000
,
1000
0000
0000
0000
,
0100
0000
0100
0000
,
0010
0000
0000
0001
,
0001
0000
0000
0000
,
1001
0000
0000
0000
,
0010
0000
1000
1000
,
1000
0000
0000
0000
,
0100
0000
0010
0010
,
0010
0000
0000
0000
,
0001
0000
1000
0000
,
0010
0000
0010
0000
,
0010
0000
0000
0000
,
1001
0000
0000
0000
,
0100
0000
0001
0001
,
0001
0000
0000
0000
,
1000
0000
0010
0010
,
0010
0000
0000
0000
,
1000
0000
0001
0000
,
0100
0000
0100
0000
,
0100
0000
0000
0000
,
0000
0010
0000
0000
,
0000
0000
1000
1000
,
0000
0100
0000
0000
,
0000
0000
0000
0000
,
0010
0010
0000
0000
,
0001
0000
0000
0000
,
1000
0000
0000
0000
,
0010
0000
0000
0000
,
0100
0100
0000
0000
,
0001
0001
0000
0000
,
1000
0000
1000
0000
,
0001
0000
0001
0000
,
0100
0100
0000
0000
,
0010
0000
0010
0000
,
1000
0000
0000
0000
,
0001
0000
0001
0000
,
0010
0000
0000
0000
,
0100
0000
0100
0000
,
1000
0000
1000
0000
,
0001
0000
0000
0000
,
0100
0100
0000
0100
,
0000
0010
0000
0010
,
0000
1000
0000
1000
,
0000
0001
0000
0001
,
0000
0010
0000
0010
,
0000
0100
0000
0100
,
0000
1000
0000
1000
,
0000
0000
0001
1000
;

//---------------dance-double - ----------------
#NOTES:
     dance-double:
     :
     Challenge:
     9:
     0.580792,0.612203,0.108415,0.147134,0.394939,492.000000,14.000000,19.000000,0.000000,0.000000,0.000000,0.580792,0.612203,0.108415,0.147134,0.394939,492.000000,14.000000,19.000000,0.000000,0.000000,0.000000:
// measure 0
00000000
00000000
00000000
00000000
,  // measure 1
00010000
00000000
01000000
00010000
01000000
00000000
00010000
01000000
00010000
00000000
01000000
00000000
00100000
00000000
10000000
00000000
,  // measure 2
01000000
00000000
10000000
00000000
00100000
00000000
01000000
00000000
00010000
00000000
00000000
00000000
10000000
01000000
00100000
00010000
,  // measure 3
10000000
00000000
01000000
10000000
01000000
00000000
10000000
01000000
10000000
00000000
01000000
00000000
10000000
00000000
00100000
00000000
,  // measure 4
01000000
00000000
00010000
00000000
00100000
00000000
00001000
00000000
00010000
00000000
00000000
00000000
00001000
00010000
00001000
00010000
,  // measure 5
00000100
00000000
00001000
00000100
00001000
00000000
00000001
00000100
00000001
00000000
00001000
00000000
00000010
00000000
00000100
00000000
,  // measure 6
00000001
00000000
00000010
00000000
00000001
00000000
00001000
00000000
00000010
00000000
00000000
00000000
00001000
00000100
00000010
00000001
,  // measure 7
00000100
00000000
00000001
00000100
00000001
00000000
00001000
00000100
00001000
00000000
00000001
00000010
00000100
00001000
00000001
00001000
,  // measure 8
00000001
00000000
00001000
00000100
00001000
00000000
00000001
00000100
00000001
00000000
00001000
00000000
00000010
00000100
00000010
00001000
,  // measure 9
00000001
00000000
00001000
00000100
00000010
00000000
00000100
00000010
00000001
00000000
00000100
00000000
00000001
00000000
00000010
00000000
,  // measure 10
00000100
00000000
00000100
00000000
00001000
00000000
00000100
00000000
00010000
00000000
00001000
00000000
00100000
00010000
10000000
00000000
,  // measure 11
00100000
00000000
10000000
01000000
00100000
00000000
01000000
00100000
00010000
00000000
01000000
00000000
00010000
00000000
00100000
00000000
,  // measure 12
01000000
00000000
01000000
00000000
10000000
00000000
00100000
00000000
01000000
00000000
00010000
00000000
00100000
00001000
00100000
00001000
,  // measure 13
00010000
00000000
00000100
00001000
00000010
00000000
00000100
00000001
00000010
00000000
00000100
00000000
00001000
00000000
00000010
00000000
,  // measure 14
00000100
00001000
00010000
00001000
00000100
00000010
00002000
00000000
,  // measure 15
00003100
00010000
00001000
00100000
00010000
01000000
00200000
00000000
,  // measure 16
00300000
10010000
00000000
10010000
,  // measure 17
11000000
00000000
00000000
00000000
00010000
00000000
01000000
00000000
00010000
00000000
00000000
00000000
10000000
01000000
00100000
00000000
,  // measure 18
00010000
00000000
10000000
00000000
00100000
00000000
00000000
00100000
01000000
00000000
00010000
00100000
00010000
00000000
00100000
00001000
,  // measure 19
00010000
00000000
00010000
00000000
00000100
00000000
00001000
00000000
00000010
00000000
00000000
00000000
00001000
00000100
00000010
00000000
,  // measure 20
00000001
00000000
00001000
00000000
00000010
00000000
00000000
00000000
00000010
00000000
00000000
00000100
00000001
00000000
00000010
00000100
,  // measure 21
00000010
00000000
00000000
00000000
00000001
00000000
00000010
00000000
00000100
00000000
00001000
00000000
00000001
00000100
00000001
00000000
,  // measure 22
00001000
00000000
00000010
00000000
00000100
00000000
00000000
00000000
00000010
00000000
00001000
00000100
00000000
00000000
00010000
00000000
,  // measure 23
00002000
00000000
00000000
00000000
00103000
00000000
00000000
00000000
00010000
00000000
00100000
00010000
00000000
00000000
10000000
00000000
,  // measure 24
00200000
00000000
00000000
00000000
01300000
00000000
00000000
00000000
00010000
10000000
00000000
00010000
01000000
00100000
01000000
00100000
,  // measure 25
10000000
00000000
01000000
00000000
21000000
00000000
00000000
00000000
30010000
00000000
10000000
00000000
01000000
00100000
00010000
00000000
,  // measure 26
01000000
00000000
00100000
01000000
00100000
00000000
01000000
00000000
00010000
00000000
00000000
00010000
00100000
00000000
00001000
00010000
,  // measure 27
00001000
00000000
00010000
00000000
00000100
00000000
00001000
00000000
00000010
00000000
00001000
00000000
00000100
00000010
00000001
00000000
,  // measure 28
00001000
00000000
00000010
00000000
00000100
00000000
00000001
00000000
00001000
00000000
00000000
00001000
00000010
00000100
00000010
00000100
,  // measure 29
00000001
00000000
00000010
00000001
00000010
00000000
00000001
00000000
00000100
00000000
00000010
00001000
00000010
00000000
00001000
00000000
,  // measure 30
00000100
00000000
00010000
00000000
00001000
00000000
00000000
00000000
00100000
00000000
00100000
00010000
00000000
00100000
00001000
00000000
,  // measure 31
00020000
00000000
00000000
00000000
00030100
00000000
00000000
00000000
00001000
00000000
00000100
00010000
00000000
00010000
00001000
00000000
,  // measure 32
00200000
00000000
00000000
00000000
00310000
00000000
00000000
00000000
10000000
00100000
00000000
00100000
01000000
00010000
10000000
00010000
,  // measure 33
10000000
00100000
11000000
10000000
00100000
00000000
10010000
10000000
,  // measure 34
00100000
00000000
01000000
00000000
01010000
00000000
00010000
00000000
10000000
01000000
00100000
00000000
01000000
00100000
00010000
00000000
,  // measure 35
01000000
00000000
01010000
00010000
00100000
00000000
00101000
00001000
,  // measure 36
00010000
00000000
00000100
00000000
00001000
00000000
00000010
00000000
00000100
00000010
00000100
00000000
00000001
00000010
00000100
00001000
,  // measure 37
00000020
00000100
00000000
00000100
,  // measure 38
00000000
00000000
00000130
00000000
00000100
00000001
00002000
00000000
,  // measure 39
00003100
00001100
00010000
00002000
,  // measure 40
00103000
00000000
00110000
00000000
00010000
10000000
00100000
00000000
,  // measure 41
10000000
01000000
00010000
01000000
10000000
00100000
00010000
00100000
,  // measure 42
10000000
01000000
00010000
00001000
00000100
00000001
00002000
00000000
,  // measure 43
00003010
00000010
00010000
00010000
00001000
00001000
00100000
00100000
,  // measure 44
00010000
00000000
00000000
01000000
00000000
00000000
00001000
00000000
00010100
00000000
00000000
00001100
00000000
00000000
00000101
00000000
,  // measure 45
00002000
00000000
00000000
00000000
00003010
00000000
00001000
00000000
00000100
00000000
00000010
00000000
00000001
00001000
00000010
00000000
,  // measure 46
00000100
00000000
00000001
00001000
00000001
00000000
00001000
00000001
00001000
00000000
00000000
00001000
00000010
00000000
00000100
00000010
,  // measure 47
00000100
00000000
00000001
00000000
00000010
00000000
00000100
00000000
00001000
00000000
00000010
00000000
00001000
00000100
00010000
00000000
,  // measure 48
00001000
00000000
00100000
00000000
00010000
00000000
01000000
00000000
00100000
00000000
00000000
00100000
10000000
00010000
10000000
00010000
,  // measure 49
00100000
00000000
00010000
00000000
10000000
00000000
01000000
00000000
00100000
00000000
00010000
00000000
01000000
00100000
10000000
00000000
,  // measure 50
00010000
00000000
00100000
00000000
00001000
00000000
00000000
00000000
00100000
00000000
00010000
00100000
00000000
00100000
00001000
00010000
,  // measure 51
00002000
00000000
00000000
00000000
00013000
00000000
00000000
00000000
00000100
00000000
00010000
00000100
00000000
00000100
00001000
00000010
,  // measure 52
00001000
00000010
00000000
00000000
00000100
00000000
00000001
00001000
00000001
00001000
00000000
00000010
00000000
00000100
00000001
00000000
,  // measure 53
00002000
00000000
00003100
00001000
00000010
00000000
00000100
00000001
,  // measure 54
00000010
00000000
00000000
00000000
00000001
00000000
00000010
00000000
00000001
00000100
00000000
00000100
00000010
00000000
00001000
00000000
,  // measure 55
00000200
00000000
00000000
00000000
00010300
00000000
00001000
00000000
00100000
00000000
00000000
00010000
00000000
00000000
10000000
00000000
,  // measure 56
00000000
00100000
00000000
00000000
02000000
00000000
00000000
00000000
03100000
10000000
00000000
10000000
01000000
00100000
01000000
00100000
,  // measure 57
00020000
00000000
00130000
00001000
00020000
00000000
00030100
00001000
,  // measure 58
00000010
00000000
00000100
00000000
00000001
00000000
00001000
00000000
00000010
00000100
00000000
00000100
00001000
00000000
00000100
00000000
,  // measure 59
00000010
00001000
00000100
00010000
00002000
00000000
00103000
00010000
,  // measure 60
01000000
00000000
00100000
00000000
10000000
00000000
00000000
00000000
00010000
01000000
00000000
00000000
10000000
01000000
00000000
00000000
;
