#VERSION:0.82;
#TITLE:New Day, New Way;
#SUBTITLE:Theme of The New Day;
#ARTIST:Jim Johnston;
#TITLETRANSLIT:;
#SUBTITLETRANSLIT:;
#ARTISTTRANSLIT:;
#GENRE:Don't You Dare Be Sour!;
#ORIGIN:;
#CREDIT:;
#BANNER:New Day, New Way.png;
#BACKGROUND:New Day, New Way-bg.png;
#PREVIEWVID:;
#JACKET:jacket.png;
#CDIMAGE:;
#DISCIMAGE:;
#LYRICSPATH:;
#CDTITLE:;
#MUSIC:New Day, New Way.ogg;
#OFFSET:0.990000;
#SAMPLESTART:100.363800;
#SAMPLELENGTH:13.714000;
#SELECTABLE:YES;
#BPMS:0.000=103.000;
#STOPS:;
#DELAYS:;
#WARPS:;
#TIMESIGNATURES:0.000=4=4;
#TICKCOUNTS:0.000=4;
#COMBOS:0.000=1;
#SPEEDS:0.000=1.000=0.000=0;
#SCROLLS:0.000=1.000;
#FAKES:;
#LABELS:0.000=Song Start;
#BGCHANGES:0.000=New Day New Way.avi=1.000=0=0=1=====,
99999=-nosongbg-=1.000=0=0=0 // don't automatically add -songbackground-
;
#KEYSOUNDS:;
#ATTACKS:
;

//---------------dance-single - ----------------
#NOTEDATA:;
#CHARTNAME:;
#STEPSTYPE:dance-single;
#DESCRIPTION:;
#CHARTSTYLE:;
#DIFFICULTY:Hard;
#METER:8;
#RADARVALUES:0.461440,0.551630,0.030617,0.168393,0.233453,396.000000,4.000000,22.000000,0.000000,0.000000,0.000000,0.000000,0.000000,0.461440,0.551630,0.030617,0.168393,0.233453,396.000000,4.000000,22.000000,0.000000,0.000000,0.000000,0.000000,0.000000;
#CREDIT:Ben Speirs;
#NOTES:
0000
0000
0000
0000
,
0000
0000
0000
0000
,
0000
0000
0000
0000
,
0000
0000
0000
0000
1000
1000
0001
0100
,
0100
0010
1000
0000
0001
0010
0010
0001
,
1000
1000
0010
0000
0100
0001
0001
1000
,
0100
0000
0100
0000
0010
0000
0000
0000
0001
1000
0001
0000
0100
0000
0010
0000
,
1000
0001
1000
0000
0001
0000
0000
0000
0100
0000
0010
1000
0010
0000
0000
0000
,
0100
0001
1000
0000
0100
0010
0010
0001
,
1000
1000
0010
0000
0100
0001
1000
1000
,
0100
0000
1000
0000
0001
0000
0000
0000
1000
0100
1000
0100
1000
0000
0001
0000
,
0100
0001
0100
0001
0100
0000
0000
0000
0010
0000
1000
0000
0001
0000
0000
0000
,
0010
0000
0001
0000
1000
0100
1000
0000
0010
0000
1000
0000
0001
0000
0000
0000
,
0100
0010
0000
0000
1000
0000
0100
0010
0100
0000
0000
0000
0010
0000
0001
0000
,
1000
0000
0010
0000
0100
0000
0001
0000
1000
0100
0000
0000
0000
0000
0000
0000
,
0000
0000
0000
0000
0001
1000
0001
0000
0100
0000
0010
0000
1000
0000
1000
0000
,
0001
0000
0010
0000
0001
0100
0001
0000
1000
0000
0000
0000
0010
0000
1000
0000
,
0001
1000
0000
0000
0001
0000
0100
0010
0100
0000
0001
0000
1000
0000
0000
0000
,
0100
0010
0001
0000
1000
0100
0000
1000
,
0001
0000
0100
0000
0010
1000
0010
0000
0100
0000
0001
1000
0001
0000
0100
0000
,
0010
0000
0110
0000
1001
0000
0000
0000
0100
0000
1000
0001
1000
0000
0100
0000
,
0010
0000
0110
0000
1001
0000
0000
0000
0001
0000
0100
0000
0100
0000
0010
1000
,
0010
0000
1000
0100
1000
0000
0001
0000
0100
0000
0100
0000
0010
0000
1000
0000
,
0001
0010
0001
0010
0001
0000
0000
0000
2000
0000
0100
0000
3200
0000
0010
0000
,
0320
0001
0032
0100
0203
0010
0320
1000
,
2030
0000
3200
0000
0310
0000
0001
1000
0001
0000
0100
0000
0010
0000
1000
0000
,
0100
0000
0000
0000
1000
0000
0001
0000
0100
0010
0100
0000
0001
0000
0000
0000
,
0100
0000
0010
0000
1000
0001
1000
0000
0002
0000
0010
0000
0023
0000
0100
0000
,
0230
1000
2300
0010
3020
0100
0230
0001
,
0302
0000
0023
0000
0130
0000
1000
0001
1000
0000
0010
0000
0100
0000
0001
0000
,
0010
0000
0000
0000
0001
0000
1000
0000
0010
0100
0010
0000
1000
0000
0001
0000
,
0010
0000
0100
0000
1000
0001
1000
0000
0010
0000
0100
0010
0100
0000
0001
0100
,
0001
1000
0100
0000
1000
0001
0100
0010
,
1000
0000
0100
0000
1000
0001
0000
0000
1000
0000
0010
0000
0100
0000
0001
0000
,
1000
1000
0100
0010
0001
1000
0001
0000
,
0100
0000
0100
0000
0010
1000
0010
0000
0100
0000
0000
0000
0001
0000
1000
0000
,
0100
0000
1000
0000
0001
0100
0001
0000
1000
0000
0100
0000
0010
0000
0001
0000
,
1000
0010
1000
0000
0001
0000
0100
0010
1000
0000
0100
0000
0010
0000
0001
0000
,
1000
0100
1000
0001
0100
0000
0000
0000
,
0000
0000
0010
0010
1000
0100
1000
0001
,
0010
0000
0001
0000
1000
0100
1000
0000
0001
0000
0100
0000
0010
0000
1000
0000
,
0001
1000
0100
0000
0010
0000
0001
1000
0001
0000
0100
0000
0010
0000
1000
0000
,
0100
0000
0010
0000
0001
0000
0001
0000
1000
0100
1000
0000
0001
0100
0001
0000
,
1000
0000
0100
0000
0010
0001
1000
0000
0010
0000
0100
0000
0001
0000
0000
0000
,
1000
0000
0000
0000
0100
0000
0000
0000
0010
0000
0000
0000
0001
0000
0000
1000
0000
0000
0010
0000
0000
0000
0000
0000
,
0100
0000
0000
0000
0010
0000
0000
0000
1000
0000
0000
0000
0100
0000
0000
1000
0000
0000
0001
0000
0000
0000
0000
0000
,
0100
0000
0001
0000
1000
0000
0200
0000
0000
0010
0000
0000
,
0310
0000
0000
0000
0001
1000
0001
0000
0100
0000
0010
0000
1000
0000
0000
0000
,
0001
0000
0000
0000
0010
0000
0000
0000
0100
0000
0000
0000
1000
0000
0000
0001
0000
0000
0100
0000
0000
0000
0000
0000
,
0010
0000
0000
0000
0100
0000
0000
0000
0001
0000
0000
0000
0010
0000
0000
0001
0000
0000
1000
0000
0000
0000
0000
0000
,
0010
0000
1000
0000
0001
0000
0020
0000
0000
0100
0000
0000
,
0130
0000
0000
0000
1000
0001
1000
0000
0020
0000
0000
0030
0100
0000
0000
0000
,
0001
0000
0000
0000
1000
0200
0000
0000
0310
0000
0000
0000
0001
0000
0000
0000
,
1000
0020
0000
0000
0130
0000
0001
1000
0001
0000
0000
0000
0100
0000
0000
0000
,
0010
0000
0000
0000
1000
0200
0000
0000
0310
0000
0000
0000
0001
0000
0000
0000
,
1000
0010
1000
0000
0001
0000
0100
0010
0000
0000
0000
0000
0000
0000
0000
0000
;

//---------------dance-single - ----------------
#NOTEDATA:;
#CHARTNAME:;
#STEPSTYPE:dance-single;
#DESCRIPTION:;
#CHARTSTYLE:;
#DIFFICULTY:Challenge;
#METER:10;
#RADARVALUES:0.675758,0.700145,0.107159,0.145430,0.811347,585.000000,14.000000,19.000000,0.000000,0.000000,0.000000,0.000000,0.000000,0.675758,0.700145,0.107159,0.145430,0.811347,585.000000,14.000000,19.000000,0.000000,0.000000,0.000000,0.000000,0.000000;
#CREDIT:Ben Speirs;
#NOTES:
0000
0000
0000
0000
,
0000
0000
0000
0000
,
0000
0000
0000
0000
,
0000
0000
0000
0000
0000
0000
0000
0000
1000
0000
1000
0000
0001
0100
0001
0100
,
0000
0010
1000
0000
0001
0000
0000
0000
0010
0000
0001
1000
0001
0000
0100
0010
,
0000
0010
0000
1000
0100
0000
0000
0000
1000
0000
0001
0100
0001
0000
1000
0100
,
0000
1000
0000
0001
0100
0000
0000
0000
0010
1000
0010
1000
0001
0010
0001
0010
,
0000
0001
1000
0000
1001
0000
0000
0000
1000
0000
0001
0100
0001
0000
0000
1000
,
0000
0100
0010
0000
0001
1000
0000
0000
0010
0100
0010
0000
1000
0000
0100
0010
,
0000
0001
1000
0000
0001
0000
0100
0010
0100
0000
0001
1000
0001
0000
1000
0100
,
0000
1000
0001
0000
0010
0000
0000
0000
0001
0000
1000
0010
1000
0000
0001
0100
,
0001
0100
0010
0000
1000
0001
1000
0000
0010
0100
0001
0000
1000
0100
0000
1000
,
0010
1000
0010
1000
0000
0001
0100
0001
0100
0001
0000
1000
0100
1000
0100
1000
,
0000
0001
1000
0000
0100
0010
0001
0000
0100
0010
1000
0010
1000
0010
1000
0001
,
0100
0001
0100
0001
0100
0010
1000
0100
0010
0001
1000
0000
0010
0100
0010
0100
,
0000
0001
1000
0000
0100
0010
0100
0000
1100
0000
0001
0100
0001
0100
0010
0000
,
1000
0100
0010
0001
0000
1000
0010
1000
0001
0100
0001
0000
1000
0100
0010
0001
,
1000
0001
1000
0001
0000
0000
1000
0100
1000
0001
0100
0010
1000
0100
0010
0001
,
1000
0010
0100
0001
0000
0000
1000
0100
1000
0100
0010
0000
0000
0000
0001
0010
,
0001
0010
0001
0100
0010
0000
0000
0000
1010
0000
1000
0100
0010
0001
0010
0100
,
1000
0001
0100
0000
1001
0000
0000
0000
0101
0000
0001
0010
0100
1000
0100
0010
,
0001
1000
0010
0000
1001
0000
0000
0000
0010
0000
0110
0000
1001
0000
1000
0100
,
0010
0001
1000
0001
0000
0100
0010
1000
0100
0010
0001
0000
1000
0010
0100
0001
,
0010
0100
1000
0001
0100
0010
0100
0000
0002
0000
1003
0100
0020
0000
0031
1000
,
0020
0000
0130
0001
2000
0000
3100
1000
0002
0000
0013
0001
0200
0000
0310
0100
,
0002
0000
0023
0000
0130
0000
1000
0001
1000
0000
0200
0000
0000
0000
0310
0000
,
0001
1000
0001
0000
0100
0000
0010
1000
0010
0000
0200
0000
0000
0000
0310
0000
,
1000
0100
0010
0000
0001
1000
0001
0000
2000
0000
3001
0010
0200
0000
1300
0001
,
0200
0000
0310
1000
0002
0000
0013
0001
2000
0000
3100
1000
0020
0000
0130
0010
,
2000
0000
3200
0000
0310
0000
0001
1000
0001
0000
0020
0000
0000
0000
0130
0000
,
1000
0001
1000
0000
0010
0000
0100
0001
0100
0000
0010
0000
1000
0000
0001
0010
,
0000
0100
1000
0000
0001
1000
0001
0000
0101
0000
0100
0010
1000
0000
1000
0100
,
0010
0000
0010
0001
1000
0001
1000
0010
1000
0100
0010
0001
1000
0010
0100
0001
,
1000
0000
0001
0010
0100
1000
0001
0000
0100
0000
0100
0000
0010
1000
0100
0000
,
0010
0000
0010
0000
0001
1000
0010
0000
0100
0001
0100
0001
1000
0100
1000
0100
,
0010
0000
0001
0000
1000
0000
0000
0000
1001
0000
0001
0100
0000
0100
0000
0010
,
0000
0010
0000
1000
0100
0010
0001
0000
1000
0000
0100
0000
1000
0001
0100
0000
,
0010
1000
0100
0000
0010
0001
1000
0000
0001
0000
0100
0000
0110
0000
0010
0000
,
1000
0100
0110
0010
0001
0000
0000
0000
,
0000
0000
0000
0000
1001
0000
1001
0000
0010
0100
0010
0000
1000
0000
0100
1000
,
0010
0100
0001
0010
0100
1000
0001
0000
0100
0000
0010
1000
0010
0000
0100
0001
,
1000
0100
0010
0001
1000
0001
0100
0000
0001
1000
0001
0000
1000
0100
1000
0000
,
0001
0010
0100
1000
0001
1000
0001
0000
0100
0010
1000
0000
0100
0010
0001
0000
,
0100
0010
1000
0100
1000
0001
0010
0000
0001
0000
0100
0010
0100
0010
1000
0010
,
1000
0100
1000
0001
1000
0000
0010
0000
1000
0000
0100
0010
0001
0000
0100
0010
,
1000
0000
0001
1000
0001
0000
0100
0000
0010
0000
1000
0100
1000
0100
0010
0100
,
0010
0001
0010
0001
1000
0000
0001
0000
0100
0001
1000
0010
0100
0001
1000
0100
,
0010
0001
1000
0010
0100
0001
1000
0000
0010
0000
1000
0100
1000
0000
0001
0100
,
0001
1000
0010
0000
0100
0001
1000
0000
0010
1000
0100
0000
0100
0000
0010
0001
,
0100
0000
0010
0000
0100
0001
1000
0000
0010
0000
1000
0001
1000
0000
0001
0100
,
0001
0100
0010
1000
0001
0000
0010
0000
0001
0010
0100
1000
0001
0100
0010
1000
,
0100
0010
0001
1000
0010
1000
0001
0000
0100
0000
0010
0000
1000
0000
0100
0000
,
0010
0000
0001
0000
1000
0100
1000
0000
0001
0000
0100
0000
0010
0000
1000
0000
,
0001
0010
0001
0000
1000
0000
0001
0100
0001
0000
1000
0000
0100
0000
0010
0000
,
0001
0000
1000
0000
0010
0100
0010
0000
1000
0000
0100
0000
0010
0000
0001
0000
,
1000
0100
1000
0000
0001
0000
1000
0010
0000
0000
0000
0000
0000
0000
0000
0000
;

//---------------dance-single - ----------------
#NOTEDATA:;
#CHARTNAME:;
#STEPSTYPE:dance-single;
#DESCRIPTION:;
#CHARTSTYLE:;
#DIFFICULTY:Medium;
#METER:5;
#RADARVALUES:0.276645,0.318607,0.068888,0.084196,0.000000,233.000000,9.000000,11.000000,0.000000,0.000000,0.000000,0.000000,0.000000,0.276645,0.318607,0.068888,0.084196,0.000000,233.000000,9.000000,11.000000,0.000000,0.000000,0.000000,0.000000,0.000000;
#CREDIT:Ben Speirs;
#NOTES:
0000
0000
0000
0000
,
0000
0000
0000
0000
,
0000
0000
0000
0000
,
0000
0000
0000
0000
0100
0100
0010
0000
,
1000
0000
0100
0000
0010
0010
0001
0000
,
1000
0000
0010
0000
1000
0100
1000
0000
,
0001
0100
0001
0000
2000
0000
3200
0000
,
0320
0000
0031
0000
1000
0001
1000
0000
,
0010
0010
0010
0000
0100
0000
0001
0000
,
1000
1000
1000
0000
0100
0010
0001
0000
,
0100
0100
0100
0000
0020
0000
2030
0000
,
3002
0103
0001
1000
,
0100
0100
1000
0001
,
1000
0010
0100
0001
1000
0000
0100
0000
,
0010
0000
0010
0001
1000
0000
0000
0000
,
0010
0010
1001
0100
,
0010
0010
0010
0000
1000
0000
0001
0000
,
1000
0100
1000
0000
0001
0000
0000
0000
,
0010
0100
0010
0000
0001
0000
0000
0000
,
1000
0000
0010
0010
0100
0000
0001
0000
,
1000
0100
1000
0000
0010
0000
1000
0000
,
0001
0100
0001
0000
1000
0000
0001
0000
,
0010
0100
1000
0000
0010
0100
0001
0000
,
1000
0001
1000
0000
0110
0000
0000
0000
,
0010
1000
0001
0000
0010
0000
0001
0000
,
0100
0001
1000
0000
0200
0000
0310
0000
,
0002
1003
0020
0130
,
0001
1000
0001
0000
2000
0000
0100
0000
,
0010
3001
0002
0010
,
0100
1003
0010
0100
,
0010
0010
0010
0000
0000
0000
1000
0000
,
0001
1000
0001
0000
1000
0000
0100
0000
,
0010
0010
0001
0000
,
0100
0010
0100
0010
1000
0000
0000
0000
,
0001
1000
0001
0000
1000
0000
0000
0000
,
0000
0000
0100
0100
0010
0000
0001
0000
,
1000
1000
0010
0000
0100
0000
0001
0000
,
0010
0010
0010
0000
0000
0000
1001
0000
,
0010
1010
0000
0000
,
0000
1001
0100
0001
,
1000
1000
0100
0000
0000
0000
1000
0001
,
1000
0010
0010
0000
0100
0000
0000
0000
,
0010
0000
1000
0000
0100
0100
0100
0000
,
0010
0010
0010
0000
0001
0000
0000
0000
,
1000
0100
1000
0000
0010
0000
0000
0000
,
0100
0001
0100
0000
0001
0000
0000
0000
,
1000
0100
1000
0000
0001
0000
0010
0000
,
0100
1000
1001
0000
,
0010
0100
0010
0000
1010
0000
0000
0000
,
0001
0100
0001
0000
0101
0000
0000
0000
,
1000
0100
1000
0000
1100
0000
0001
0000
,
1000
0000
0010
0000
0100
0100
0001
0000
,
0000
0000
1000
0100
0000
0000
1000
0000
,
0010
0000
0100
0001
1000
0000
0100
0000
,
0000
0000
0010
0001
0000
0000
0100
0000
,
0010
1000
0010
0100
0001
0000
0000
0000
;

//---------------dance-single - ----------------
#NOTEDATA:;
#CHARTNAME:;
#STEPSTYPE:dance-single;
#DESCRIPTION:;
#CHARTSTYLE:;
#DIFFICULTY:Easy;
#METER:2;
#RADARVALUES:0.157458,0.212404,0.038271,0.076542,0.000000,129.000000,5.000000,10.000000,0.000000,0.000000,0.000000,0.000000,0.000000,0.157458,0.212404,0.038271,0.076542,0.000000,129.000000,5.000000,10.000000,0.000000,0.000000,0.000000,0.000000,0.000000;
#CREDIT:Ben Speirs;
#NOTES:
0000
0000
0000
0000
,
0000
0000
0000
0000
,
0000
0000
0000
0000
,
0000
0000
0100
0100
,
0010
0000
1000
1000
,
0100
0000
0010
0010
,
0001
0000
0100
0000
,
0010
0000
1000
1000
,
0100
0000
0010
0010
,
0001
0000
0100
0100
,
0010
0000
1000
0001
,
1000
0000
1001
0000
,
0100
0000
0010
0000
,
1000
0100
0010
0000
,
0001
0000
1000
0000
,
0000
0000
1001
0000
,
0100
0000
0001
0010
,
0100
0000
1000
0000
,
0010
0000
1000
0000
,
0000
0010
0010
0000
,
1000
0100
0010
0000
,
0001
1000
0010
0000
,
0100
0001
1000
0000
,
0100
0100
2000
3000
,
0002
0003
0200
0300
,
0020
0030
1000
1000
,
0000
0001
0000
0100
,
0000
0010
0020
0030
,
0200
0300
0002
0003
,
2000
3000
0100
0100
,
0000
0010
0000
0001
,
0000
1000
1000
0000
,
0010
0000
1000
0001
,
1000
0000
0100
0000
,
0010
0000
0001
0000
,
0000
0000
1001
0000
,
0100
0100
0010
0000
,
0001
0001
1000
0000
,
0010
0000
1000
0000
,
0000
0000
0110
0000
,
0100
0100
0001
1000
,
0100
0000
1000
0000
,
0010
0000
1000
0001
,
1000
0001
0100
0000
,
0010
0010
1000
0000
,
0100
0100
0010
0000
,
0001
0001
0200
0000
,
0000
0300
0010
0000
,
0100
0100
0001
0000
,
0010
0010
0100
0000
,
1000
1000
0002
0000
,
0000
0003
1001
0000
,
0000
0100
0100
0000
,
0010
0000
1000
0000
,
0000
0100
0100
0000
,
0010
0001
1000
0000
;

//---------------dance-single - ----------------
#NOTEDATA:;
#CHARTNAME:;
#STEPSTYPE:dance-single;
#DESCRIPTION:;
#CHARTSTYLE:;
#DIFFICULTY:Beginner;
#METER:1;
#RADARVALUES:0.091851,0.126869,0.015308,0.000000,0.000000,82.000000,2.000000,0.000000,0.000000,0.000000,0.000000,0.000000,0.000000,0.091851,0.126869,0.015308,0.000000,0.000000,82.000000,2.000000,0.000000,0.000000,0.000000,0.000000,0.000000,0.000000;
#CREDIT:Ben Speirs;
#NOTES:
0000
0000
0000
0000
,
0000
0000
0000
0000
,
0000
0000
0000
0000
,
0000
0000
1000
0000
,
0000
0000
0001
0000
,
0000
0000
0010
0000
,
0000
0000
0100
0000
,
0100
0000
1000
0000
,
0000
0000
0001
0000
,
0000
0000
0100
0000
,
0000
0000
0010
0000
,
0010
0000
1000
0000
,
0000
0000
0001
0000
,
0010
0000
0100
0000
,
0000
0000
1000
0000
,
0000
0000
1001
0000
,
0000
0000
0010
0000
,
0010
0000
0100
0000
,
0000
0000
0001
0001
,
0000
1000
1000
0000
,
0000
0100
0100
0000
,
0000
0010
0010
0000
,
0000
0001
0001
0000
,
1000
0000
0010
0000
,
1000
0000
0100
0000
,
0010
0000
0001
0000
,
0000
0000
1000
0000
,
0000
0000
0001
0000
,
0100
0000
0010
0000
,
1000
0000
0100
0000
,
0000
0000
1000
0000
,
0000
0000
0010
0000
,
0000
0000
0100
0000
,
0100
0000
0001
0000
,
0000
0000
1000
0000
,
0000
0000
1001
0000
,
0000
0100
0100
0000
,
0100
0000
1000
0000
,
0000
0000
0010
0000
,
0000
0000
0100
0000
,
0000
0000
0001
0000
,
0001
0000
1000
0000
,
0000
0000
0100
0000
,
0100
0000
0010
0000
,
0001
0000
1000
0000
,
0010
0000
0100
0000
,
0001
0000
1000
0000
,
0000
0100
0100
0000
,
1000
0000
0010
0000
,
0100
0000
0001
0000
,
0010
0000
0100
0000
,
0000
1000
1000
0000
,
0000
0010
0000
0000
,
0000
0100
0100
0000
,
0000
0001
0000
0000
,
1000
1000
0000
0000
;

//---------------dance-double - ----------------
#NOTEDATA:;
#CHARTNAME:;
#STEPSTYPE:dance-double;
#DESCRIPTION:;
#CHARTSTYLE:;
#DIFFICULTY:Challenge;
#METER:9;
#RADARVALUES:0.615617,0.678929,0.061234,0.137776,0.708015,537.000000,8.000000,18.000000,0.000000,0.000000,0.000000,0.000000,0.000000,0.615617,0.678929,0.061234,0.137776,0.708015,537.000000,8.000000,18.000000,0.000000,0.000000,0.000000,0.000000,0.000000;
#CREDIT:Ben Speirs;
#NOTES:
// measure 0
00000000
00000000
00000000
00000000
,  // measure 1
00000000
00000000
00000000
00000000
,  // measure 2
00000000
00000000
00000000
00000000
,  // measure 3
00000000
00000000
00000000
00000000
00000000
00000000
00000000
00000000
10000000
00000000
00100000
00000000
10000000
00010000
10000000
00010000
,  // measure 4
00000000
10000000
01000000
00100000
00010000
00000000
00000000
00000000
10000000
00000000
00010000
01000000
00010000
00000000
01000000
00001000
,  // measure 5
00000000
00010000
00000000
00000100
00001000
00000000
00000000
00000000
00000010
00000000
00000100
00000010
00000100
00000000
00000010
00001000
,  // measure 6
00000000
00000001
00000000
00000010
00000001
00000000
00000000
00000000
00001000
00000100
00001000
00000100
00000010
00000001
00000010
00000001
,  // measure 7
00000000
00000100
00000010
00000100
00000010
00000000
00001000
00000000
00000001
00000000
00001000
00000100
00001000
00000000
00000010
00000100
,  // measure 8
00000000
00000100
00000001
00000000
00001000
00000010
00000000
00000000
00001000
00000001
00001000
00000000
00000001
00000000
00000100
00000010
,  // measure 9
00000000
00000010
00001000
00000000
00000100
00000000
00010000
00001000
00010000
00000000
00001000
00100000
00001000
00000000
00100000
00010000
,  // measure 10
00000000
00010000
01000000
00000000
00100000
00000000
10000000
00000000
00010000
10000000
00010000
10000000
00100000
00000000
10000000
01000000
,  // measure 11
10000000
00010000
01000000
00000000
00010000
10000000
00100000
00000000
01000000
00010000
10000000
00000000
00010000
10000000
00000000
00100000
,  // measure 12
01000000
00100000
01000000
00100000
00000000
01000000
00010000
01000000
00010000
01000000
00000000
00001000
00010000
00001000
00010000
00001000
,  // measure 13
00000000
00010000
00000100
00000000
00001000
00000010
00001000
00000000
00000001
00000000
00000010
00000000
00000100
00000010
00000100
00000010
,  // measure 14
00000001
00000010
00000001
00000010
00000001
00000100
00000001
00000100
00000001
00000100
00000010
00000000
00000100
00000010
00000100
00000010
,  // measure 15
00000000
00001000
00000010
00000000
00001000
00000000
00000001
00000000
00001001
00000000
00001000
00000100
00010000
00000100
00010000
00000000
,  // measure 16
00001000
00010000
00001000
00010000
00000000
00001000
00100000
00001000
00100000
00010000
01000000
00000000
00010000
00000000
10000000
01000000
,  // measure 17
10000000
00000000
00010000
01000000
00010000
00000000
10000000
00000000
00100000
00000000
01000000
00100000
01000000
00000000
00100000
10000000
,  // measure 18
00010000
00000000
00100000
00010000
10000000
00000000
01000000
10000000
01000000
10000000
00010000
00000000
00000000
00000000
01000000
00010000
,  // measure 19
01000000
00010000
10000000
00000000
00100000
00000000
00000000
00000000
01000000
00000000
00010000
00100000
00010000
00100000
00010000
00100000
,  // measure 20
00000000
00001000
00010000
00000000
00000100
00000000
00001000
00000000
00000010
00000000
00001000
00000100
00001000
00000100
00001000
00000100
,  // measure 21
00000000
00010000
00001000
00000000
00100000
00000000
00010000
00000000
01000000
00000000
00100000
10000000
00100000
00000000
10000000
01000000
,  // measure 22
10000000
00000000
00010000
01000000
00010000
00000000
00100000
00000000
00010000
00100000
00010000
00000000
00100000
00001000
00100000
00000000
,  // measure 23
00001000
00010000
00001000
00010000
00000100
00000000
00001000
00000000
00000020
00000000
00000130
00000001
00002000
00000000
00003010
00001000
,  // measure 24
00000200
00000000
00001300
00000100
00020000
00000000
00031000
00010000
00002000
00000000
00100000
00013000
00200000
00000000
00310000
01000000
,  // measure 25
00020000
00000000
10030000
00000000
00100000
00000000
01000000
00010000
10000000
00000000
00200000
00000000
00000000
00000000
10300000
00000000
,  // measure 26
01000000
10000000
01000000
00000000
10000000
00000000
00010000
01000000
00010000
00000000
10000000
00100000
10000000
00000000
00010000
00000000
,  // measure 27
00100000
01000000
00100000
00000000
00010000
00100000
00010000
00000000
20000000
00000000
31000000
10000000
00200000
00000000
01300000
00010000
,  // measure 28
00200000
00000000
00310000
00100000
00002000
00000000
00013000
00001000
00020000
00000000
00031000
00010000
00000200
00000000
00001300
00000010
,  // measure 29
00000200
00000000
00000301
00000000
00001000
00000000
00000010
00001000
00000001
00000000
00000010
00000001
00000010
00000000
00000100
00000000
,  // measure 30
00001000
00000000
00000001
00000000
00000100
00000000
00000110
00000000
00000010
00000000
00001000
00000100
00001000
00000000
00000001
00000100
,  // measure 31
00000001
00000000
00001000
00000000
00000010
00000100
00000001
00000000
00001000
00000000
00000100
00001000
00000100
00000000
00010000
00000100
,  // measure 32
00010000
00000000
00001000
00010000
00001000
00010000
00001000
00000000
00100000
00010000
00100000
00010000
01000000
00000000
00010000
10000000
,  // measure 33
00010000
00000000
10000000
01000000
10000000
00000000
00100000
00000000
01000000
00010000
01000000
00010000
01000000
00000000
00100000
10000000
,  // measure 34
00100000
00000000
10000000
01000000
10000000
00000000
00010000
00000000
00100000
00000000
00010000
00000000
00100000
00000000
00001000
00000000
,  // measure 35
00010000
00000000
00000100
00000000
00001100
00000000
00000000
00000000
00000001
00000000
00000100
00000010
00000100
00000000
00000001
00000000
,  // measure 36
00001000
00000000
00000100
00000000
00001000
00000001
00001000
00000000
00000010
00000000
00001000
00000100
00010000
00000000
00001000
00000000
,  // measure 37
00010000
00000000
00001000
00000000
00100000
00010000
01000000
00000000
00100000
00000000
10000000
01000000
10000000
00000000
00100000
01000000
,  // measure 38
00100000
10000000
00010000
00100000
00002000
00000000
00000000
00000000
,  // measure 39
00000000
00000000
00000000
00000000
00010000
00000000
00010000
00003000
00011000
00000000
00010000
00000000
00000100
00000000
00001000
00000000
,  // measure 40
00000010
00000100
00000010
00000100
00000000
00000001
00000100
00000000
00000010
00000000
00001000
00000000
00000100
00000000
00000010
00000000
,  // measure 41
00000001
00001000
00000001
00001000
00000000
00000010
00001000
00000000
00000001
00000000
00001000
00000100
00001000
00000000
00000100
00010000
,  // measure 42
00001000
00000000
00010000
00001000
00100000
00000000
00010000
00000000
01000000
00010000
01000000
00000000
00100000
10000000
00100000
00000000
,  // measure 43
10000000
01000000
10000000
00000000
00010000
01000000
00100000
10000000
00010000
00000000
00100000
01000000
00100000
00010000
10000000
00100000
,  // measure 44
00000000
00100000
01000000
00010000
10000000
00000000
00000000
00000000
00100000
00000000
01000000
00010000
00100000
00000000
00010000
00100000
,  // measure 45
00000000
00001000
00000000
00010000
00000100
00000000
00000000
00000000
00001000
00000000
00000010
00001000
00000001
00000000
00000010
00000001
,  // measure 46
00000000
00000100
00000000
00000010
00001000
00000000
00000001
00000000
00001000
00000100
00010000
00001000
00100000
00010000
01000000
00100000
,  // measure 47
10000000
01000000
00100000
00010000
01000000
00100000
01000000
00000000
01010000
00000000
00000000
00000000
10010000
00000000
10000000
00100000
,  // measure 48
00000000
00100000
01000000
00000000
00010000
00100000
00000000
00000000
00001000
00100000
00001000
00000000
00010000
00000000
00000100
00001000
,  // measure 49
00000000
00001000
00000010
00000000
00000100
00000000
00000001
00001000
00000001
00000000
00000100
00000010
00000100
00000000
00000010
00001000
,  // measure 50
00000000
00001000
00000100
00000000
00010000
00000000
00001000
00000000
00100000
00010000
00100000
00010000
01000000
00100000
01000000
00100000
,  // measure 51
10000000
01000000
10000000
00000000
00010000
01000000
00010000
00000000
20020000
00000000
00000000
00000000
30030000
00000000
00000000
00000000
,  // measure 52
00000000
00000000
00000000
00000000
00100000
01000000
00000000
00000000
00000000
00000000
00000000
00000000
00010000
00000000
00000000
00000000
,  // measure 53
10000000
01000000
00000000
00000000
00100000
00000000
00010000
01000000
00000000
00000000
00000000
00000000
01001000
00000000
00000000
00000000
,  // measure 54
00000000
00000000
00000000
00000000
00000100
00001000
00000000
00000000
00000000
00000000
00000000
00000000
00000010
00000000
00000000
00000000
,  // measure 55
00000100
00000001
00000000
00000000
00001000
00000000
00000010
00000010
00000000
00000000
00000000
00000000
00000000
00000000
00000000
00000000
;
