#VERSION:0.83;
#TITLE:Gold;
#SUBTITLE:;
#ARTIST:Kiiara;
#TITLETRANSLIT:;
#SUBTITLETRANSLIT:;
#ARTISTTRANSLIT:;
#GENRE:;
#ORIGIN:;
#CREDIT:;
#BANNER:Gold.png;
#BACKGROUND:Gold-bg.png;
#PREVIEWVID:;
#JACKET:jacket.png;
#CDIMAGE:;
#DISCIMAGE:;
#LYRICSPATH:;
#CDTITLE:;
#MUSIC:Gold.ogg;
#OFFSET:-0.016000;
#SAMPLESTART:56.476860;
#SAMPLELENGTH:14.694003;
#SELECTABLE:YES;
#BPMS:0.000=85.000;
#STOPS:;
#DELAYS:;
#WARPS:;
#TIMESIGNATURES:0.000=4=4;
#TICKCOUNTS:0.000=4;
#COMBOS:0.000=1;
#SPEEDS:0.000=1.000=0.000=0;
#SCROLLS:0.000=1.000;
#FAKES:;
#LABELS:0.000=Song Start;
#BGCHANGES:3.667=Gold.avi=1.000=0=0=1=====,
99999=-nosongbg-=1.000=0=0=0 // don't automatically add -songbackground-
;
#KEYSOUNDS:;
#ATTACKS:
;

//---------------dance-single - ----------------
#NOTEDATA:;
#CHARTNAME:;
#STEPSTYPE:dance-single;
#DESCRIPTION:;
#CHARTSTYLE:Ben Speirs;
#DIFFICULTY:Hard;
#METER:7;
#RADARVALUES:0.311223,0.382505,0.026813,0.067033,0.204450,325.000000,321.000000,4.000000,10.000000,0.000000,0.000000,0.000000,0.000000,0.000000,0.311223,0.382505,0.026813,0.067033,0.204450,325.000000,321.000000,4.000000,10.000000,0.000000,0.000000,0.000000,0.000000,0.000000;
#CREDIT:Ben Speirs;
#NOTES:
0000
0000
0000
0000
,
0000
0000
0000
0000
,
0000
0000
0000
0000
,
0000
0000
0000
0000
,
0001
0000
0000
1000
0000
0000
0010
0000
0000
0000
0100
0000
0000
0000
0000
0000
,
0010
0000
0000
1000
0000
0000
0001
0000
0000
0000
0010
0000
0000
0000
0000
0000
,
0001
0000
0000
1000
0000
0000
0100
0000
0000
0000
1000
0000
0000
0000
0000
0000
,
1000
0000
0000
0001
0000
0000
0100
0000
0000
0000
0001
0000
0000
0000
0000
0000
,
0100
0010
1000
0001
0000
0010
0010
0000
,
0001
1000
0100
0010
0000
0100
0100
0000
,
1000
0001
0100
0001
0000
0100
0100
0000
,
0010
0000
0000
1000
0000
0000
0001
0000
0000
0000
0100
0000
0000
0000
0000
0000
,
0001
0000
1000
0000
0001
0000
0100
0000
0010
1000
0010
0000
0100
0000
0000
0000
,
0010
1000
0100
0000
0010
0001
0100
0000
,
0001
1000
0001
0000
0100
0000
0010
0000
1000
0100
1000
0000
0001
0000
0000
0000
,
1000
0100
0010
0000
0001
1000
0010
0000
,
0100
0000
0001
0000
1000
0000
0001
0000
0100
0010
0100
0010
1000
0000
0000
0000
,
0010
1000
0100
0000
0010
0001
0100
0000
,
0001
0000
1000
0000
0010
0000
0010
0000
1000
0001
1000
0000
0001
0000
0100
0000
,
0020
0000
0000
0030
,
0100
0001
0100
0000
0010
0000
1000
0000
0001
0000
1000
0100
1000
0000
0000
0000
,
0001
0010
0001
0000
1000
0000
0001
0000
0100
0000
0100
0000
0010
0100
0010
0000
,
1000
0010
1000
0000
0001
0000
1000
0000
0010
0000
0100
0001
0100
0000
0000
0000
,
0001
0010
0001
0000
0100
0000
0001
0000
1000
0000
0100
0000
1000
0001
1000
0000
,
0001
0100
0010
0000
0100
0000
0001
0000
1000
0000
0100
1000
0010
0000
0000
0000
,
1000
0010
0100
0000
0001
0000
1000
0000
0001
0010
0100
0010
0100
0010
0100
0000
,
0010
0001
0100
0000
0001
0000
1000
0000
0001
0000
1000
0010
0100
0000
0000
0000
,
0010
0000
0000
1000
0000
0000
0001
0000
0000
0000
0000
0000
0000
0000
0000
0000
,
1000
0000
0000
0100
0000
0000
0100
0000
0000
0000
1000
0000
0000
0000
0000
0001
,
0100
0000
0000
0100
0000
0000
0001
0000
0000
0000
1000
0000
0001
0000
0000
0000
,
0010
0000
0000
0001
0000
0000
1000
0000
0000
0000
0010
0000
0000
0000
0000
0000
,
0100
0000
0000
0100
0000
0000
0001
0000
0000
0000
1000
0000
0100
0000
0000
0000
,
1000
0001
0100
1001
0000
0010
0010
0000
,
0001
0100
1000
0010
1000
0100
0001
0000
,
1000
0001
0010
0100
0000
0010
1001
0000
,
0001
0000
0000
1000
0000
0000
0010
0000
0000
0000
0100
0000
0000
0000
0000
0000
,
0010
0000
1000
0000
0010
0000
1000
0000
0001
0100
0001
0100
0001
0000
0000
0000
,
0000
0000
0000
0000
,
0001
0000
0010
0000
0001
0000
0010
0000
0100
1000
0100
1000
0100
0000
0000
0000
,
0000
0000
0000
0000
0000
1001
1001
0000
,
1000
0000
0100
0000
0010
0000
0001
0000
1000
0010
1000
0010
1000
0000
0000
0000
,
0010
0000
0000
1000
0000
0000
0001
0000
0000
0000
0010
0000
0001
0000
0000
0000
,
0001
0100
0001
0000
1000
0000
0001
0000
1000
0100
1000
0000
0001
0000
0100
0000
,
0020
0000
0000
0030
,
0100
0001
1000
0000
0001
0000
1000
0000
0010
0000
0100
0010
1000
0000
0000
0000
,
0010
1000
0100
0000
1000
0000
0001
0000
1000
0100
1000
0100
1000
0000
0000
0000
,
0001
1000
0010
0000
0100
0000
0001
0000
1000
0000
0100
0010
0001
0000
0000
0000
,
0010
0001
0100
0000
0010
0000
1000
0000
0001
0100
0001
0100
0001
0000
0000
0000
,
0100
0010
2000
0000
3100
0000
1000
0000
0002
0000
0013
0001
0200
0000
0300
0000
,
0010
0100
0002
0000
0013
0000
0001
0000
1000
0100
1000
0100
1000
0000
0001
0000
,
1000
0010
0200
0000
0301
0000
1000
0000
0020
0000
1030
0001
0200
0000
0300
0000
,
0001
0000
0000
1000
0000
0000
0010
0000
2000
0000
0000
0000
0000
0000
3000
0000
;

//---------------dance-single - ----------------
#NOTEDATA:;
#CHARTNAME:;
#STEPSTYPE:dance-single;
#DESCRIPTION:;
#CHARTSTYLE:;
#DIFFICULTY:Challenge;
#METER:9;
#RADARVALUES:0.431882,0.643304,0.073736,0.000000,0.583184,451.000000,440.000000,11.000000,0.000000,0.000000,0.000000,0.000000,0.000000,0.000000,0.431882,0.643304,0.073736,0.000000,0.583184,451.000000,440.000000,11.000000,0.000000,0.000000,0.000000,0.000000,0.000000,0.000000;
#CREDIT:Ben Speirs;
#NOTES:
0000
0000
0000
0000
,
0000
0000
0000
0000
,
0000
0000
0000
0000
,
0000
0000
0000
0000
,
1000
0000
0000
1000
0100
0000
1000
0000
0000
0000
0001
0000
0100
0000
0000
0000
,
0001
0000
0000
0001
0100
0000
0001
0000
0000
0000
1000
0000
0100
0000
0000
0000
,
1000
0000
0000
1000
0010
0000
1000
0000
0000
0000
0001
0000
0010
0000
0000
0000
,
0001
0000
0000
0001
0010
0000
0001
0000
0000
0000
1000
0000
0010
0000
0000
0000
,
1000
0100
1000
0000
0001
0000
0001
0000
0000
0000
0100
0000
1001
0000
0000
0000
,
0001
0000
0000
1000
0000
0000
0010
0000
0000
0000
0100
0000
1001
0000
0000
0000
,
0001
0100
0001
0000
1000
0000
0010
0100
0010
0000
0100
0000
0001
0000
0000
0000
,
1000
0000
0000
0100
0000
0000
1001
0000
0000
0000
0000
0000
0000
0000
0000
0000
,
0001
0000
0100
0001
0000
1000
0100
0000
0010
0000
0001
1000
0001
0000
0000
0000
,
0100
0000
0000
0100
0000
0000
0010
0000
0000
0000
0010
0000
1001
0000
0000
0000
,
1000
0000
0100
1000
0100
0000
1000
0000
0001
0100
0001
0100
0001
0000
0000
0000
,
0100
0000
0000
0100
0000
0000
0010
0000
0000
0000
0010
0000
1001
0000
0000
0000
,
1000
0000
0100
1000
0000
0001
1000
0000
0100
0000
1000
0100
1000
0000
0000
0000
,
0010
0000
0000
0010
0000
0000
0100
0000
0000
0000
0100
0000
1001
0000
0000
0000
,
0001
0100
0001
0100
0001
0000
0100
0000
0010
1000
0010
1000
0010
1000
0001
0000
,
0000
0000
0000
0000
0000
0000
0000
0000
1000
0100
1000
0100
1000
0100
0010
0000
,
0001
0000
0100
0010
0000
0000
1000
0000
0100
0010
0000
0001
1000
0000
0000
0010
0000
0100
0001
0000
0000
0000
0000
0000
,
0100
0000
0000
0000
0010
0000
1000
0000
0000
0000
0000
0000
0100
0000
0000
0000
1000
0000
0010
0000
0000
0000
0100
0000
0001
0000
0000
0010
0000
0000
0001
0000
0000
1000
0000
0000
0001
0000
0000
0010
0000
0000
0100
0000
0000
0000
0000
0000
,
1000
0000
0010
0100
0000
0000
0001
0000
0010
0100
0000
1000
0001
0000
0000
1000
0000
0010
0100
0000
0000
0000
0000
0000
,
0001
0000
0000
0000
0100
0000
0010
0000
0000
0000
0000
0000
1000
0000
0000
0000
0100
0000
0010
0000
0000
0000
0100
0000
1000
0000
0000
0010
0000
0000
1000
0000
0000
0001
0000
0000
1000
0000
0000
0100
0000
0000
0010
0000
0000
0000
0000
0000
,
0001
0000
0010
0000
0100
0000
0010
0000
0001
0000
1000
0000
0010
0100
0010
0100
0010
0000
0100
0000
0001
0000
0010
0000
0100
0000
1000
0000
0010
0000
0100
0000
,
0001
0000
0010
0000
0100
0000
1000
0000
0010
0000
0100
0000
0001
1000
0001
1000
0001
0000
0100
0000
0010
0000
1000
0000
0100
0000
0010
0000
0001
0000
1000
0000
,
0010
0000
0100
0000
0001
0000
0010
0000
0100
0000
1000
0000
0010
0100
0010
0100
0010
0000
0100
0000
0001
0000
0010
0000
0100
0000
0010
0000
0001
0000
1000
0000
,
0010
0000
0000
0000
0000
0000
0100
0000
0000
0000
0000
0000
0001
1000
0001
1000
0001
0000
0000
0000
0000
0000
0000
0000
0000
0000
0000
0000
0000
0000
0000
0000
,
1000
0000
0000
0001
0000
0000
0100
0000
0000
0000
0001
0000
0000
0000
0000
0100
,
0010
0000
0000
0010
0000
0000
0100
0000
0000
0000
0001
0000
1000
0100
0000
0010
,
0001
0000
0000
1000
0000
0000
0001
0000
0000
0000
0100
0000
0000
0000
0000
0001
,
0010
0000
0000
0010
0000
0000
0100
0000
0000
0000
0010
0000
0001
0100
0000
0000
,
0010
0000
1000
0010
0000
0100
0001
0000
0000
0000
1000
0000
0001
0000
0000
0000
,
1000
0000
0100
0010
0000
0001
1000
0000
0000
0000
0001
0000
0100
0010
0100
0000
,
0001
0000
0000
1000
0000
0000
0010
0000
0000
0000
0100
0000
0000
0000
0000
0001
,
1000
0000
0000
0100
0000
0000
0010
0000
0000
0000
0110
0000
0000
0000
0000
0000
,
0001
0000
0100
0001
0000
0100
0001
0000
1000
0100
1000
0100
1000
0000
0000
0000
,
0000
0000
0000
0000
,
1000
0100
1000
0000
0001
0000
0100
0000
0001
1000
0001
1000
0001
0000
0000
0000
,
0000
0000
0000
0000
0000
1001
1001
0000
,
0001
0000
0100
0001
0000
1000
0100
0000
1000
0001
1000
0001
0100
0000
0000
0000
,
0001
0000
0000
1000
0000
0000
0010
0000
0000
0000
0100
0000
1001
0000
0000
0000
,
1000
0100
1000
0000
1100
0000
0000
0000
1000
0010
1000
0010
1000
0010
1000
0000
,
0000
0000
0000
0000
0000
0000
0000
0000
0001
0100
0001
0100
0001
0100
0001
0000
,
1000
0000
0010
0100
0000
0000
0001
0000
0010
0100
0000
1000
0001
0000
0000
0100
0000
0010
1000
0000
0000
0000
0000
0000
,
0010
0000
0000
0000
0100
0000
0001
0000
0000
0000
0000
0000
0010
0000
0000
0000
0001
0000
0100
0000
0000
0000
0010
0000
1000
0000
0000
0100
0000
0000
1000
0000
0000
0001
0000
0000
1000
0000
0000
0100
0000
0000
0010
0000
0000
0000
0000
0000
,
0001
0000
0100
0010
0000
0000
1000
0000
0100
0010
0000
0001
1000
0000
0000
0001
0000
0100
0010
0000
0000
0000
0000
0000
,
1000
0000
0000
0000
0010
0000
0100
0000
0000
0000
0000
0000
0001
0000
0000
0000
0010
0000
0100
0000
0000
0000
0010
0000
0001
0000
0000
0100
0000
0000
0001
0000
0000
1000
0000
0000
0001
0000
0000
0010
0000
0000
0100
0000
0000
0000
0000
0000
,
1000
0000
0100
0000
0010
0000
0100
0000
1000
0000
0001
0000
0100
0010
0100
0010
0100
0000
0010
0000
1000
0000
0100
0000
0010
0000
0001
0000
0100
0000
0010
0000
,
1000
0000
0100
0000
0010
0000
0001
0000
0100
0000
0010
0000
1000
0001
1000
0001
1000
0000
0010
0000
0100
0000
0001
0000
0010
0000
0100
0000
1000
0000
0001
0000
,
0100
0000
0010
0000
1000
0000
0100
0000
0010
0000
0001
0000
0100
0010
0100
0010
0100
0000
0010
0000
1000
0000
0100
0000
0010
0000
0100
0000
1000
0000
0001
0000
,
0100
0000
0000
0010
0000
0000
1000
0100
0010
0001
0010
0001
1000
0010
0100
0000
;

//---------------dance-double - ----------------
#NOTEDATA:;
#CHARTNAME:;
#STEPSTYPE:dance-double;
#DESCRIPTION:;
#CHARTSTYLE:;
#DIFFICULTY:Challenge;
#METER:9;
#RADARVALUES:0.431882,0.643304,0.053626,0.000000,0.579833,451.000000,443.000000,8.000000,0.000000,0.000000,0.000000,0.000000,0.000000,0.000000,0.431882,0.643304,0.053626,0.000000,0.579833,451.000000,443.000000,8.000000,0.000000,0.000000,0.000000,0.000000,0.000000,0.000000;
#CREDIT:Ben Speirs;
#NOTES:
00000000
00000000
00000000
00000000
,
00000000
00000000
00000000
00000000
,
00000000
00000000
00000000
00000000
,
00000000
00000000
00000000
00000000
,
00001000
00000000
00000000
00010000
00000000
00000000
00100000
00000000
00000000
00000000
00010000
00000000
00001000
00000000
00000000
00000000
,
00010000
00000000
00000000
00001000
00000000
00000000
00000010
00000000
00000000
00000000
00001000
00000000
00010000
00000000
00000000
00000000
,
00001000
00010000
00001000
00000000
00100000
00000000
00010000
01000000
00010000
00000000
10000000
00000000
00100000
00000000
00000000
00000000
,
10000000
00000000
00000000
01000000
00000000
00000000
00010000
00000000
00000000
00000000
00001000
00000000
00010000
00000000
00000000
00000000
,
00001000
00000100
00001000
00000000
00000100
00000000
00000001
00000000
00000000
00000000
00001000
00000000
00000100
00000000
00000000
00000000
,
00000010
00000000
00000000
00000010
00000000
00000000
00000001
00000000
00000000
00000000
00001000
00000000
00000010
00000000
00000000
00000000
,
00000100
00000001
00000100
00000000
00000010
00000000
00001000
00000100
00001000
00000000
00000100
00000000
00010000
00000000
00000000
00000000
,
00001000
00000000
00000000
00001000
00000000
00000000
00010000
00000000
00000000
00000000
00010000
00000000
00001000
00000000
00000000
00000000
,
00100000
00000000
00010000
00100000
00000000
00010000
10000000
00000000
00010000
00000000
10000000
01000000
00100000
00000000
00000000
00000000
,
00010000
00000000
00000000
10000000
00000000
00000000
00100000
00000000
00000000
00000000
01000000
00000000
10010000
00000000
00000000
00000000
,
10000000
01000000
00100000
00000000
00010000
00000000
01000000
00000000
00001000
00010000
00001000
00010000
00000100
00000000
00000000
00000000
,
00001000
00000000
00000000
00001000
00000000
00000000
00000001
00000000
00000000
00000000
00000100
00000000
00001001
00000000
00000000
00000000
,
00000001
00000000
00000100
00000001
00000000
00001000
00000100
00000000
00000010
00000000
00000001
00001000
00000010
00000000
00000000
00000000
,
00000100
00000000
00000000
00000100
00000000
00000000
00000010
00000000
00000000
00000000
00000100
00000000
00001001
00000000
00000000
00000000
,
00000001
00000100
00001000
00000000
00000100
00000000
00001000
00000000
00010000
00001000
00010000
00001000
00010000
00001000
00010000
00000000
,
00000000
00000000
00000000
00000000
00000000
00000000
00000000
00000000
00001000
00100000
00001000
00100000
00001000
00100000
00001000
00000000
,
10000000
00000000
00100000
01000000
00000000
00000000
00010000
00000000
00100000
01000000
00000000
10000000
00010000
00000000
00000000
01000000
00000000
00001000
00010000
00000000
00000000
00000000
00000000
00000000
,
00000100
00000000
00000000
00000000
00001000
00000000
00000010
00000000
00000000
00000000
00000000
00000000
00000100
00000000
00000000
00000000
00000001
00000000
00001000
00000000
00000000
00000000
00000010
00000000
00000100
00000000
00000000
00000001
00000000
00000000
00000100
00000000
00000000
00000010
00000000
00000000
00000100
00000000
00000000
00001000
00000000
00000000
00000100
00000000
00000000
00000000
00000000
00000000
,
00000001
00000000
00000100
00000010
00000000
00000000
00001000
00000000
00000100
00000010
00000000
00000001
00001000
00000000
00000000
00000010
00000000
00000100
00000001
00000000
00000000
00000000
00000000
00000000
,
00001000
00000000
00000000
00000000
00000100
00000000
00010000
00000000
00000000
00000000
00000000
00000000
00001000
00000000
00000000
00000000
00100000
00000000
00010000
00000000
00000000
00000000
01000000
00000000
00100000
00000000
00000000
10000000
00000000
00000000
00100000
00000000
00000000
01000000
00000000
00000000
00100000
00000000
00000000
00010000
00000000
00000000
00100000
00000000
00000000
00000000
00000000
00000000
,
01000000
00000000
00010000
00000000
01000000
00000000
00100000
00000000
10000000
00000000
01000000
00000000
00100000
00010000
00100000
00010000
00100000
00000000
00010000
00000000
10000000
00000000
00100000
00000000
01000000
00000000
00010000
00000000
00100000
00000000
00010000
00000000
,
01000000
00000000
00001000
00000000
00010000
00000000
00000100
00000000
00001000
00000000
00000010
00000000
00000100
00000001
00000100
00000001
00000100
00000000
00000010
00000000
00001000
00000000
00000100
00000000
00000010
00000000
00000001
00000000
00000100
00000000
00000010
00000000
,
00001000
00000000
00000100
00000000
00010000
00000000
00001000
00000000
00100000
00000000
00001000
00000000
00010000
00001000
00010000
00001000
00010000
00000000
00000100
00000000
00001000
00000000
00000010
00000000
00000100
00000000
00000001
00000000
00000010
00000000
00000100
00000000
,
00001000
00000000
00000000
00000000
00000000
00000000
00000001
00000000
00000000
00000000
00000000
00000000
00000100
00000001
00001000
00000001
00001000
00000000
00000000
00000000
00000000
00000000
00000000
00000000
00000000
00000000
00000000
00000000
00000000
00000000
00000000
00000000
,
00000001
00000000
00000000
00000100
00000000
00000000
00000010
00000000
00000000
00000000
00000100
00000000
00000000
00000000
00000000
00000010
,
00001000
00000000
00000000
00001000
00000000
00000000
00000100
00000000
00000000
00000000
00010000
00000000
00001000
00010000
00000000
00001000
,
00100000
00000000
00000000
00100000
00000000
00000000
01000000
00000000
00000000
00000000
01000000
00000000
00000000
00000000
00000000
10000000
,
00100000
00000000
00000000
00100000
00000000
00000000
01000000
00000000
00000000
00000000
00010000
00000000
10000000
01000000
00000000
10000000
,
00010000
00000000
01000000
00010000
00000000
00000000
10000000
00000000
00000000
00000000
00100000
00000000
00100000
00000000
00000000
00000000
,
01000000
00000000
00010000
00100000
00000000
01000000
10000000
00000000
00000000
00000000
00010000
00000000
00100000
00001000
00100000
00000000
,
00000100
00000000
00001000
00000010
00000000
00000100
00000001
00000000
00000000
00000000
00000100
00000000
00000100
00000000
00000000
00000000
,
00000001
00000000
00000000
00001000
00000000
00000000
00000010
00000000
00000000
00000000
00000110
00000000
00000000
00000000
00000000
00000000
,
00000001
00000000
00000100
00000010
00000000
00001000
00000100
00000000
00000010
00000100
00001000
00000100
00001000
00000000
00000000
00000000
,
00000000
00000000
00000000
00000000
,
00010000
00100000
01000000
00000000
00100000
00000000
00100000
00000000
01000000
10000000
00100000
00000000
01000000
00000000
00000000
00000000
,
00000000
00000000
00000000
00000000
00000000
10010000
10010000
00000000
,
10000000
00000000
01000000
00100000
00000000
00010000
10000000
00000000
00100000
01000000
00100000
01000000
00010000
00000000
00000000
00000000
,
01000000
00000000
00000000
00010000
00000000
00000000
00100000
00000000
00000000
00000000
00001000
00000000
00011000
00000000
00000000
00000000
,
00000100
00001000
00000100
00001000
00000010
00000000
00000010
00000000
00000100
00000001
00000100
00000001
00000100
00000001
00001000
00000000
,
00000000
00000000
00000000
00000000
00000000
00000000
00000000
00000000
00000010
00001000
00000010
00001000
00000010
00001000
00000001
00000000
,
00001001
00000000
00000100
00000010
00000000
00000000
00001000
00000000
00000100
00000010
00000000
00000001
00001000
00000000
00000000
00000010
00000000
00010000
00001000
00000000
00000000
00000000
00000000
00000000
,
00100000
00000000
00000000
00000000
00010000
00000000
01000000
00000000
00000000
00000000
00000000
00000000
00100000
00000000
00000000
00000000
10000000
00000000
00010000
00000000
00000000
00000000
01000000
00000000
00100000
00000000
00000000
10000000
00000000
00000000
00100000
00000000
00000000
01000000
00000000
00000000
00100000
00000000
00000000
00010000
00000000
00000000
00100000
00000000
00000000
00000000
00000000
00000000
,
10000000
00000000
00100000
01000000
00000000
00000000
00010000
00000000
00100000
01000000
00000000
10000000
00010000
00000000
00000000
01000000
00000000
00100000
10000000
00000000
00000000
00000000
00000000
00000000
,
00010000
00000000
00000000
00000000
00100000
00000000
00001000
00000000
00000000
00000000
00000000
00000000
00010000
00000000
00000000
00000000
00000100
00000000
00001000
00000000
00000000
00000000
00000010
00000000
00000100
00000000
00000000
00000001
00000000
00000000
00000100
00000000
00000000
00000010
00000000
00000000
00000100
00000000
00000000
00001000
00000000
00000000
00000100
00000000
00000000
00000000
00000000
00000000
,
00000010
00000000
00001000
00000000
00000010
00000000
00000100
00000000
00000001
00000000
00000010
00000000
00000100
00001000
00000100
00001000
00000100
00000000
00001000
00000000
00000001
00000000
00000100
00000000
00000010
00000000
00001000
00000000
00000100
00000000
00001000
00000000
,
00000010
00000000
00010000
00000000
00001000
00000000
00100000
00000000
00010000
00000000
01000000
00000000
00100000
10000000
00100000
10000000
00100000
00000000
01000000
00000000
00010000
00000000
00100000
00000000
01000000
00000000
10000000
00000000
00100000
00000000
01000000
00000000
,
00010000
00000000
00100000
00000000
00001000
00000000
00010000
00000000
00000100
00000000
00010000
00000000
00001000
00010000
00001000
00010000
00001000
00000000
00100000
00000000
00010000
00000000
01000000
00000000
00100000
00000000
10000000
00000000
01000000
00000000
00100000
00000000
,
00010000
00000000
00000000
10000000
00000000
00000000
00010000
00000000
10000000
01000000
00100000
00010000
00001000
00000100
00000010
00000000
;

//---------------dance-single - ----------------
#NOTEDATA:;
#CHARTNAME:;
#STEPSTYPE:dance-single;
#DESCRIPTION:;
#CHARTSTYLE:;
#DIFFICULTY:Medium;
#METER:4;
#RADARVALUES:0.186734,0.260171,0.013407,0.087142,0.000000,195.000000,193.000000,2.000000,13.000000,0.000000,0.000000,0.000000,0.000000,0.000000,0.186734,0.260171,0.013407,0.087142,0.000000,195.000000,193.000000,2.000000,13.000000,0.000000,0.000000,0.000000,0.000000,0.000000;
#CREDIT:Ben Speirs;
#NOTES:
// measure 0
0000
0000
0000
0000
,  // measure 1
0000
0000
0000
0000
,  // measure 2
0000
0000
0000
0000
,  // measure 3
0000
0000
0000
0000
,  // measure 4
1000
0001
0100
0000
,  // measure 5
0001
1000
0100
0000
,  // measure 6
0010
0010
0001
0000
,  // measure 7
0100
0100
0010
0000
,  // measure 8
1000
0000
0100
0100
0000
0000
1000
0000
,  // measure 9
0001
0100
0100
0001
,  // measure 10
1000
0000
0010
0010
0000
0000
1000
0000
,  // measure 11
0200
0000
0300
0100
,  // measure 12
1000
0000
0001
0000
0100
0001
1000
0000
,  // measure 13
0020
0030
1000
0000
,  // measure 14
0001
0010
0100
0000
1000
0010
0100
0000
,  // measure 15
0002
0003
2000
3000
,  // measure 16
0100
1000
0001
0000
0100
0100
0100
0000
,  // measure 17
0002
0003
2000
3000
,  // measure 18
0010
0100
0010
0000
0100
0010
0100
0000
,  // measure 19
2002
0000
0000
0000
0000
3003
0000
0000
,  // measure 20
0001
0100
0000
0010
0000
1000
0100
0000
,  // measure 21
1000
0010
0000
0100
0001
0000
0000
0000
,  // measure 22
1000
0100
0000
0010
0000
0001
1000
0000
,  // measure 23
0001
0100
0000
0010
0000
0000
0000
0000
,  // measure 24
1000
0100
0010
0001
0100
0010
0100
0000
,  // measure 25
0001
0010
0100
1000
0010
0100
0010
0000
,  // measure 26
1000
0010
0100
0001
0010
0100
1000
0000
,  // measure 27
0001
1000
0010
0000
,  // measure 28
2000
0100
3100
0000
,  // measure 29
0002
0100
0103
0000
,  // measure 30
2000
0010
3010
0000
,  // measure 31
0002
0010
0013
0000
,  // measure 32
0001
0000
0100
0100
0000
0000
0000
0000
,  // measure 33
0010
1000
0001
0000
,  // measure 34
1000
0100
1000
0000
0001
0000
0000
0000
,  // measure 35
0001
1000
0010
0000
,  // measure 36
1000
0000
0100
0000
0010
0010
0010
0000
,  // measure 37
0000
0000
0000
0000
,  // measure 38
0001
0000
0100
0000
0010
0010
0010
0000
,  // measure 39
0000
0000
0000
0000
0000
0100
0100
0000
,  // measure 40
1001
0000
0100
0000
0010
1000
0100
0000
,  // measure 41
1000
0000
0001
0000
,  // measure 42
1000
0100
1000
0000
0001
0100
0001
0000
,  // measure 43
2000
0000
0000
0000
0000
3000
0000
0000
,  // measure 44
0010
1000
0000
0001
0000
0010
0001
0000
,  // measure 45
1000
0100
0000
0010
0000
0001
1000
0000
,  // measure 46
0001
0100
0000
0010
0000
1000
0100
0000
,  // measure 47
1000
0010
0000
0100
0000
0001
1000
0000
,  // measure 48
0001
0010
0100
1000
0010
0100
0001
0000
,  // measure 49
1000
0010
0100
0001
0010
0010
0010
0000
,  // measure 50
0001
1000
0100
1000
0010
0100
0001
0000
,  // measure 51
0100
0100
0100
0100
;

//---------------dance-single - ----------------
#NOTEDATA:;
#CHARTNAME:;
#STEPSTYPE:dance-single;
#DESCRIPTION:;
#CHARTSTYLE:;
#DIFFICULTY:Easy;
#METER:2;
#RADARVALUES:0.102464,0.138087,0.006703,0.000000,0.000000,107.000000,106.000000,1.000000,0.000000,0.000000,0.000000,0.000000,0.000000,0.000000,0.102464,0.138087,0.006703,0.000000,0.000000,107.000000,106.000000,1.000000,0.000000,0.000000,0.000000,0.000000,0.000000,0.000000;
#CREDIT:Ben Speirs;
#NOTES:
0000
0000
0000
0000
,
0000
0000
0000
0000
,
0000
0000
0000
0000
,
0000
0000
0000
0000
,
0010
0000
0010
0000
,
1000
0000
1000
0000
,
0001
0000
0001
0000
,
0100
0000
0100
0000
,
0010
1000
0010
0000
,
1000
0100
1000
0000
,
0001
0100
0001
0000
,
0100
0100
0000
0000
,
0010
0000
0010
0000
,
1000
1000
1000
0000
,
0001
0000
0001
0000
,
0100
0100
0100
0000
,
0001
0000
1000
0000
,
0010
0010
0010
0000
,
0100
0100
0000
0100
,
0000
0000
0000
0000
,
1001
0000
1000
0000
,
0010
0010
0100
0001
,
1000
0000
0100
0000
,
0010
0010
0001
1000
,
0010
0000
0010
0000
,
0100
0100
0001
0000
,
1000
0000
1000
0000
,
0010
0010
0100
0000
,
0001
0001
0000
0000
,
1000
1000
0000
0000
,
0010
0010
0000
0000
,
0100
0100
0000
0000
,
0001
0000
1000
0000
,
0010
0000
0010
0000
,
1000
1000
0000
0000
,
0001
0001
0000
0000
,
0100
0000
0100
0000
,
0000
0000
0000
0000
,
0010
0000
0010
0000
,
0000
0000
0000
0000
,
1000
0000
1000
0000
,
1000
0000
0000
0000
,
0001
0000
0001
0001
,
0000
0000
0000
0000
,
0100
0000
0100
0000
,
0100
0000
0000
0000
,
0010
0010
0010
0000
,
1000
0100
0010
0000
,
0001
0100
0001
0000
,
1000
0100
1000
0000
,
0010
0010
0000
0010
,
0100
0001
1000
0000
;

//---------------dance-single - ----------------
#NOTEDATA:;
#CHARTNAME:;
#STEPSTYPE:dance-single;
#DESCRIPTION:;
#CHARTSTYLE:;
#DIFFICULTY:Beginner;
#METER:1;
#RADARVALUES:0.061287,0.086305,0.000000,0.000000,0.000000,64.000000,64.000000,0.000000,0.000000,0.000000,0.000000,0.000000,0.000000,0.000000,0.061287,0.086305,0.000000,0.000000,0.000000,64.000000,64.000000,0.000000,0.000000,0.000000,0.000000,0.000000,0.000000,0.000000;
#CREDIT:;
#NOTES:
0000
0000
0000
0000
,
0000
0000
0000
0000
,
0000
0000
0000
0000
,
0000
0000
0000
0000
,
1000
0000
0000
0000
,
0001
0000
0000
0000
,
0100
0000
0000
0000
,
0100
0000
0000
0000
,
0001
0000
0000
0000
,
1000
0000
0000
0000
,
0010
0000
0000
0000
,
0010
0000
0000
0000
,
1000
0000
1000
0000
,
1000
0000
0000
0000
,
0001
0000
0001
0000
,
0001
0000
0000
0000
,
0100
0000
0100
0000
,
0100
0000
0000
0000
,
0001
0000
0000
0000
,
1000
0000
0000
0000
,
0010
0010
0000
0000
,
0010
0000
0000
0000
,
0100
0100
0000
0000
,
0100
0000
0000
0000
,
0001
0000
0001
0000
,
0001
0000
0000
0000
,
1000
0000
1000
0000
,
1000
0000
0000
0000
,
0010
0000
0000
0000
,
0010
0000
0000
0000
,
1000
0000
0000
0000
,
1000
0000
0000
0000
,
0001
0000
0001
0000
,
0001
0000
0000
0000
,
0100
0000
0100
0000
,
0100
0000
0000
0000
,
0001
0000
0000
0000
,
1000
0000
0000
0000
,
0010
0000
0000
0000
,
0010
0000
0000
0000
,
0100
0000
0000
0000
,
0001
0000
0000
0000
,
1000
0000
0000
0000
,
0010
0000
0000
0000
,
0100
0100
0000
0000
,
0001
0001
0000
0000
,
1000
1000
0000
0000
,
1000
1000
0000
0000
,
0010
0000
0010
0000
,
0010
0000
0000
0000
,
0100
0100
0000
0000
,
0001
0000
0001
0000
;
