#TITLE:Touch Off;
#SUBTITLE:~The Promised Neverland OP~;
#ARTIST:Uverworld;
#TITLETRANSLIT:;
#SUBTITLETRANSLIT:;
#ARTISTTRANSLIT:;
#GENRE:Anime;
#CREDIT:;
#BANNER:Touch Off.png;
#BACKGROUND:Touch Off-bg.png;
#LYRICSPATH:;
#CDTITLE:;
#MUSIC:Touch Off.ogg;
#OFFSET:-0.020000;
#SAMPLESTART:64.832886;
#SAMPLELENGTH:13.714000;
#SELECTABLE:YES;
#BPMS:0.000000=200.000000
;
#STOPS:
;
#BGCHANGES:0.000=Touch Off.avi=1.000=0=0=0=StretchNoLoop====,
99999=-nosongbg-=1.000=0=0=0 // don't automatically add -songbackground-
;
#KEYSOUNDS:;
#ATTACKS:;

//---------------dance-single - ----------------
#NOTES:
     dance-single:
     :
     Hard:
     9:
     0.699747,0.729770,0.430250,0.375090,0.022064,444.000000,405.000000,39.000000,34.000000,0.000000,0.000000,0.699747,0.729770,0.430250,0.375090,0.022064,444.000000,405.000000,39.000000,34.000000,0.000000,0.000000:
0000
0000
0000
0000
,
0000
0000
0000
0000
0000
0000
0000
0000
0000
0000
0000
0000
0000
0000
1000
0100
,
1000
0000
0000
0000
0001
0000
1000
0010
,
0000
0000
0000
1000
1001
0000
0000
0001
,
0001
0000
0000
0000
1000
0000
0001
0100
,
0000
0000
0001
0000
1000
0100
0010
0001
,
0011
0000
0100
1000
0000
0010
0000
1010
,
0000
0101
0000
0000
2000
0000
3001
0010
,
0100
1000
0010
0200
0000
0310
1000
0002
,
0000
0003
2002
3003
,
0001
0010
0000
0010
0100
0000
0100
1000
,
0000
0000
1000
0000
0010
0000
0100
0000
0001
1000
0001
0000
1000
0000
0020
0000
,
0000
0000
0000
0000
0130
0000
0000
0000
0000
0000
0000
0000
0001
0100
0001
0000
,
0100
0000
0020
0000
0130
0001
0010
0200
,
0000
0000
0000
0300
1000
0000
0100
0000
2000
0000
0000
0000
3001
0000
0000
0000
,
1000
0010
1000
0000
0100
0000
0000
0000
1000
0000
0010
0000
0100
0000
0001
0000
,
2000
0000
3010
0010
0000
1000
0100
0010
,
0000
0001
1000
0000
0010
0100
0001
1000
,
2001
0000
0000
0000
0010
0000
0000
0000
0010
3000
0000
0000
1002
0000
0000
0000
,
0100
0000
0000
0003
0200
0000
0000
0000
0000
0000
0310
0000
0000
0000
0000
0000
,
2001
0010
3010
1002
,
0100
0000
0103
0000
0001
0010
0100
1000
,
1010
0000
0101
0000
1000
0100
0010
0001
,
0011
0000
1100
0000
0001
1000
0010
0100
,
0110
0000
1001
0000
1000
0100
0010
0001
,
1000
0001
1000
0000
0001
0100
0010
1000
,
0100
1000
0010
0100
0001
0100
0010
1000
,
0100
0010
0002
0000
0013
0100
0010
0001
,
1000
1010
1002
0100
,
1003
0010
1000
0001
0010
0100
1000
0010
,
1010
0000
1001
0000
1000
0100
0010
0001
,
1000
0000
0000
0001
0100
0001
1000
0000
,
0101
0000
1010
0000
0001
0010
0100
1000
,
0001
0000
0000
1000
0100
1000
0010
0000
,
0100
0010
0100
0001
0010
0100
0010
0001
,
1000
0100
0010
0001
1000
0010
0100
0000
,
0001
0010
0100
0000
2100
0000
3002
0000
,
0103
0010
0100
0001
0000
0100
0010
1000
,
0100
0010
0000
0010
0001
1000
0000
1000
,
0010
0100
0000
0100
0001
1000
0000
1000
,
0100
0010
0000
0010
0001
0100
0000
0100
,
0001
1000
0000
1000
0100
0010
0001
1000
,
0001
0100
0000
0100
0010
1000
0000
1000
,
0100
0010
0000
0010
0001
0100
0000
0100
,
0001
1000
0000
1000
0100
0010
0000
0010
,
0001
1000
0010
0100
0001
1000
0010
0100
,
0001
0001
0010
0100
0010
0001
0100
0000
,
0010
0010
0100
0001
0010
0100
1000
0000
,
0100
0100
1000
0010
1000
0001
0100
0000
,
0001
0001
0100
0010
0100
0001
1000
0010
,
0000
0100
0000
0101
0000
1100
0000
0010
,
0000
1010
0000
0011
0000
1000
0100
0010
,
0001
0000
1000
0000
,
2002
0000
0000
3003
0000
0010
0000
0100
,
0101
0000
1001
0000
0001
0010
0100
2000
,
0000
0100
3100
0000
1001
0000
1000
0100
,
0010
0001
1000
0001
1000
0010
0100
0002
,
0000
0100
0103
0000
0101
0000
1001
0000
,
1000
0000
0010
0100
0001
1000
0100
0010
,
0001
1000
0010
0000
1002
0000
1003
0100
,
0010
0001
0100
0020
0000
0130
0010
2000
,
0000
0000
3100
0000
1100
0000
0100
1000
,
0002
0000
0103
0010
0100
0001
1000
0200
,
0000
0310
0010
0000
0100
0010
0001
1000
,
0020
0000
0130
0001
0100
0001
1000
0200
,
0000
0010
0310
0000
0001
0010
0100
1000
,
0010
0010
0000
0100
0100
0000
0001
1000
,
0000
0001
1000
0000
1100
0000
0001
0010
,
0100
1000
0010
0200
0000
0310
1000
0200
,
0000
0010
0310
0000
0110
0000
1100
0000
,
0101
0000
1000
0100
0010
0001
1000
0020
,
0000
0100
0130
0000
1001
0000
0001
0010
,
0100
0000
0000
1000
0000
0000
0000
0020
,
0000
0000
0030
0000
;

//---------------dance-double - ----------------
#NOTES:
     dance-double:
     :
     Challenge:
     9:
     0.724963,0.729770,0.474378,0.220641,0.022064,460.000000,417.000000,43.000000,20.000000,0.000000,0.000000,0.724963,0.729770,0.474378,0.220641,0.022064,460.000000,417.000000,43.000000,20.000000,0.000000,0.000000:
00000000
00000000
00000000
00000000
,
00000000
00000000
00000000
00000000
00000000
00000000
00000000
00000000
00000000
00000000
00000000
00000000
00000000
00000000
00001000
00010000
,
00001000
00000000
00000000
00000000
00100000
00000000
00001000
00010000
,
00000000
00000000
00000000
00001000
00100000
00000000
00000000
00001000
,
00001000
00000000
00000000
00010000
00000010
00000000
00010000
00001000
,
00000000
00010000
00000000
00000100
00001000
00000010
00000100
00000001
,
00001001
00000000
00001000
00000100
00000000
00000010
00000000
00000110
,
00000000
00001001
00000000
00000000
00000002
00000000
00000103
00000010
,
00001000
00000100
00010000
00002000
00000000
00103000
00010000
02000000
,
00000000
00000000
03200000
00000000
,
10300000
00100000
00000000
00100000
01000000
00000000
01000000
00010000
,
00000000
00000000
00010000
00000000
10000000
00000000
01000000
00000000
10000000
00100000
10000000
00000000
01000000
00000000
10000000
00000000
,
00100000
00000000
01000000
00000000
00020000
00000000
00000000
00000000
00100000
00030000
00000000
00000000
01000000
00100000
01000000
00000000
,
00100000
00010000
10000000
00100000
01000000
00010000
00100000
00001000
,
00010000
00000000
00000000
00000000
00000100
00000000
00010000
00000000
00000020
00000000
00000000
00000000
00000100
00000030
00000000
00000000
,
00000010
00001000
00000010
00000000
00000100
00000000
00000010
00000000
00001000
00000000
00000100
00000000
00000010
00000000
00000001
00000000
,
00001000
00000000
00000001
00000100
00000000
00000010
00001000
00000100
,
00001000
00000001
00000100
00001000
00010000
00001000
00100000
00010000
,
00201000
00010000
00310000
00102000
,
00010000
00000000
00013000
00000000
00000000
00011000
00000000
00000000
,
00010020
00001000
00001030
00020010
,
00001000
00000000
00031000
00000000
00010000
00001000
00010000
00001000
,
00011000
00000000
00110000
00000000
00100000
00010000
01000000
00100000
,
01100000
00000000
10100000
00000000
10000000
01000000
10000000
00100000
,
01100000
00000000
01010000
00000000
01000000
00100000
10000000
01000000
,
00100000
00010000
10000000
00000000
00010000
01000000
00100000
01000000
,
00010000
00100000
00001000
00010000
00000010
00001000
00000010
00001000
,
00000100
00000010
00000001
00000100
00000010
00000100
00000001
00001000
,
00000010
00000100
00000001
00000000
00000101
00000000
00001100
00000000
,
00001001
00000000
00001000
00000100
00000010
00000001
00000100
00000010
,
00001010
00000000
00001001
00000000
00001000
00000100
00000010
00000001
,
00000100
00000000
00000000
00000001
00001000
00000001
00000100
00000000
,
00000101
00000000
00001100
00000000
00001000
00000010
00001000
00000100
,
00010000
00000000
00000000
00001000
00001000
00010000
00001000
00000000
,
00110000
00000000
00101000
00000000
00100000
00010000
01000000
00000000
,
00100000
10000000
01000000
00000000
00100000
00010000
10000000
00000000
,
00100000
10000000
01000000
00100000
00010000
01000000
00100000
01000000
,
00010000
00010000
01000000
00100000
10000000
10000000
01000000
10000000
,
00100000
01000000
00000000
01000000
00010000
00100000
00000000
00100000
,
00001000
00010000
00000000
00010000
00000010
00000100
00000000
00000100
,
00000010
00001000
00000000
00001000
00000100
00000010
00000000
00000010
,
00000001
00000100
00000000
00000100
00000001
00001000
00000000
00001000
,
00000100
00010000
00000000
00010000
00001000
00100000
00000000
00100000
,
01000000
00100000
00000000
00100000
00010000
01000000
00000000
01000000
,
00100000
10000000
00000000
10000000
01000000
00100000
00000000
00100000
,
00010000
01000000
00100000
10000000
01000000
00100000
00010000
01000000
,
00100000
00100000
01000000
00010000
10000000
10000000
01000000
00000000
,
00100000
00100000
00010000
10000000
00100000
00100000
01000000
00000000
,
00010000
00010000
00100000
00010000
00100000
00001000
00010000
00000000
,
00001000
00001000
00010000
00000100
00001000
00000010
00000100
00000001
,
00000000
00000101
00000000
00001100
00000000
00011000
00000000
00110000
,
00000000
11000000
00000000
10010000
00000000
10000000
01000000
00010000
,
00001000
00000000
00010000
00000000
,
00011000
00000000
00000000
00000000
00000000
00000100
00010000
00000100
,
00001100
00000000
00000101
00000000
00000010
00000001
00000000
00000200
,
00000000
00000010
00000310
00000000
00000110
00000000
00000010
00001000
,
00000100
00001000
00000001
00000100
00000010
00001000
00000000
00000200
,
00000000
00001000
00001300
00000000
00001100
00000000
00011000
00000000
,
00100000
00001000
00100000
00001000
00010000
00001000
01000000
00010000
,
00000000
10000000
00100000
00000000
01100000
00000000
01000000
00100000
,
10000000
01000000
00100000
00020000
00000000
01030000
00100000
20000000
,
00000000
01000000
31000000
00000000
11000000
00000000
01010000
00000000
,
10000000
01000000
00100000
00010000
01000000
00100000
00010000
00002000
,
00000000
00010000
00013000
00000000
00011000
00000000
00001100
00000000
,
00000001
00000010
00000100
00001000
00000010
00000100
00001000
00020000
,
00000000
00001000
00031000
00000000
00011000
00000000
00110000
00000000
,
00100000
00010000
00000000
10000000
00100000
00000000
01000000
00100000
,
00000000
10000000
01000000
00100000
00020000
00000000
00130000
01000000
,
00100000
00010000
01000000
00002000
00000000
00013000
00010000
00000200
,
00000000
00001300
00000010
00000000
00000100
00000010
00000100
00000010
,
00001000
00000100
00000010
00000001
00000010
00000100
00001000
00000001
,
00000000
00000100
00000010
00000000
00001100
00000000
00001000
00000010
,
00000100
00000000
00000000
00000001
00000000
00000000
00000000
00020000
,
00000000
00000000
00030000
00000000
;

//---------------dance-single - ----------------
#NOTES:
     dance-single:
     :
     Medium:
     7:
     0.502746,0.527056,0.253737,0.187545,0.000000,319.000000,296.000000,23.000000,17.000000,0.000000,0.000000,0.502746,0.527056,0.253737,0.187545,0.000000,319.000000,296.000000,23.000000,17.000000,0.000000,0.000000:
0000
0000
0000
0000
,
0000
0000
0000
0000
,
1000
0000
0001
0000
,
0100
0000
1001
0000
,
0001
0000
1000
0000
,
0100
0000
0000
0000
1000
0001
1000
0001
,
0100
0000
0000
0010
0000
0100
0000
0110
,
0000
1001
0000
0000
1000
0000
0100
0010
,
0100
0000
1000
0001
0000
0100
0010
2000
,
0000
3000
2002
3003
,
0001
0100
0000
0001
0100
0000
0001
0100
,
0000
0001
0100
0000
0010
0100
0010
0000
,
1000
0100
0000
1000
0100
0000
1000
0100
,
0000
1000
0100
0000
0010
0100
0010
0000
,
0001
1000
0000
0001
1000
0000
0001
1000
,
0000
0001
1000
0000
0001
0010
0100
1000
,
0002
0000
0000
2003
0000
0000
3020
0000
,
0000
0230
0000
0000
0310
0000
1000
0000
,
1100
0001
0001
0101
,
1000
0000
1000
0000
0000
0010
0000
0000
,
1010
0001
0001
0011
,
1000
0000
1000
0000
0001
1000
0001
1000
,
0010
0000
0100
0000
0000
0010
1000
0010
,
1000
0000
0100
0000
0000
1000
0001
1000
,
0001
0000
1000
0000
0000
0001
0100
0001
,
0100
0001
0100
0000
0000
0001
1000
0001
,
1000
0000
0001
0000
0100
0001
0100
0000
,
0001
0000
1000
0000
0100
1000
0100
0000
,
1000
0010
0220
0000
,
0330
0000
0010
0100
0010
0100
0010
0100
,
0001
0000
1000
0000
0000
0000
0001
0010
,
0001
0000
1000
0000
0000
0000
1000
0100
,
1000
0000
0001
0000
1000
0010
1000
0000
,
0001
0010
0001
0000
0100
0000
0000
0000
,
0001
0000
0100
0000
0010
0100
0010
0000
,
1000
0000
0100
0000
0010
0100
0010
0000
,
0001
0010
2002
3003
,
0001
0000
0000
1000
0000
0000
0010
0000
,
0100
0010
0000
0010
1000
0000
0000
0000
,
0100
1000
0000
1000
0001
0000
0000
0000
,
0001
0010
0000
0010
0100
0000
0000
0000
,
1000
0010
0000
0010
0100
0000
0000
0000
,
0001
0100
0000
0100
0010
0000
1000
0000
,
0100
1000
0000
1000
0001
0000
1000
0000
,
0010
0100
0000
0100
0001
0000
1000
0000
,
0100
0010
0001
1000
,
0010
0100
0010
0000
1000
0000
0000
0000
,
0001
0100
0001
0000
1000
0000
0000
0000
,
1000
0100
1000
0000
0001
0000
0000
0000
,
0001
0010
0001
0000
1000
0000
0000
0001
,
0000
1000
0000
0010
0000
0100
0000
0001
,
0000
0010
0000
0100
0000
1000
0010
0000
,
1010
0000
0011
0000
,
2002
0000
3003
0000
,
0101
0000
1100
0000
0000
0010
0000
1001
,
0000
0000
1000
0000
0001
0000
0100
0001
,
1000
0000
0100
0000
0000
1100
0000
0101
,
0000
1000
0001
0010
,
0001
0000
0100
0000
0010
0010
0000
1000
,
0000
0001
0000
0000
1000
0000
0100
0010
,
0100
0000
1000
0100
0000
0010
0001
0200
,
0000
0000
0310
0000
,
1001
0000
0000
0000
0001
0100
0000
0010
,
0000
1000
0100
0000
1100
0000
0000
0000
,
0001
0000
0000
0000
1000
0100
0000
0010
,
0000
0001
0100
0000
0101
0000
0000
0000
,
0001
1000
0000
0001
1000
0000
0010
0100
,
0000
0010
0100
0000
0001
0000
1000
0100
,
1000
0000
0001
0010
0000
0001
0100
0002
,
0000
0000
0100
0103
,
1001
0000
1001
0000
1000
0100
0010
0002
,
0000
1003
0000
0000
0001
0000
0100
0010
,
0100
0000
0000
0010
0000
0000
0000
2000
,
0000
0000
3000
0000
;

//---------------dance-single - ----------------
#NOTES:
     dance-single:
     :
     Easy:
     4:
     0.274225,0.324342,0.055160,0.132385,0.000000,174.000000,169.000000,5.000000,12.000000,0.000000,0.000000,0.274225,0.324342,0.055160,0.132385,0.000000,174.000000,169.000000,5.000000,12.000000,0.000000,0.000000:
// measure 0
0000
0000
0000
0000
,  // measure 1
0000
0000
0000
0000
,  // measure 2
1000
0000
0001
0000
,  // measure 3
0100
0000
0100
0000
,  // measure 4
0001
0000
1000
0000
,  // measure 5
0010
0000
1000
0000
,  // measure 6
1001
0000
0000
0000
0000
0000
0000
0001
,  // measure 7
0000
0100
0000
0000
0000
0000
0000
0000
,  // measure 8
0010
0000
0000
0010
0000
0000
0000
0010
,  // measure 9
0000
0000
1001
0000
,  // measure 10
2000
0000
0000
0000
,  // measure 11
0000
3000
0100
1000
,  // measure 12
0001
0100
0000
0010
,  // measure 13
0010
0100
0000
0001
,  // measure 14
0000
1000
1000
0000
,  // measure 15
0001
0010
0100
1000
,  // measure 16
0002
0003
2000
3000
,  // measure 17
0020
0030
0200
0300
,  // measure 18
0001
0010
0010
0001
,  // measure 19
0010
0010
0000
0000
,  // measure 20
1000
0010
0010
1000
,  // measure 21
0010
0010
0000
0000
,  // measure 22
1000
0100
0000
0000
,  // measure 23
0001
0100
0000
0000
,  // measure 24
1000
0010
0000
0000
,  // measure 25
0001
0010
0000
0000
,  // measure 26
0001
0100
0001
0000
,  // measure 27
1000
0010
1000
0000
,  // measure 28
0001
0010
0100
0000
,  // measure 29
1000
0000
0001
0000
,  // measure 30
1000
0010
0000
1000
,  // measure 31
0001
0010
0000
0001
,  // measure 32
1000
0100
0000
1000
,  // measure 33
0001
0100
0000
0001
,  // measure 34
0100
0000
0100
0000
,  // measure 35
0010
1000
0001
0000
,  // measure 36
1000
0100
0010
0000
,  // measure 37
0001
0000
1000
0000
,  // measure 38
0020
0000
0030
0000
,  // measure 39
0010
1000
0100
0000
,  // measure 40
2000
0000
3000
0000
,  // measure 41
0100
1000
0001
0000
,  // measure 42
0001
0000
0100
0000
,  // measure 43
0010
0000
1000
0000
,  // measure 44
0100
0100
0010
0000
,  // measure 45
0010
0010
0001
0000
,  // measure 46
2000
0000
3000
0000
,  // measure 47
0001
1000
0010
0000
,  // measure 48
0200
0000
0300
0000
,  // measure 49
0010
1000
0100
0000
,  // measure 50
0010
0000
0010
0000
,  // measure 51
0001
0000
1000
0000
,  // measure 52
0010
0000
0010
0000
,  // measure 53
2002
0000
3003
0000
,  // measure 54
0001
0100
0000
0001
,  // measure 55
1000
0000
0001
0000
,  // measure 56
1000
0100
0000
1000
,  // measure 57
0001
0000
1000
0000
,  // measure 58
0010
0100
0010
0000
,  // measure 59
1000
0010
1000
0000
,  // measure 60
0001
0000
0000
0010
0000
0000
0000
1001
,  // measure 61
0000
0000
0001
1000
,  // measure 62
0010
0000
0100
0000
,  // measure 63
0100
0001
1000
0000
,  // measure 64
0100
0000
0100
0000
,  // measure 65
1000
0001
0010
0000
,  // measure 66
0001
1000
0010
0100
,  // measure 67
0001
0000
0100
0000
,  // measure 68
0010
0000
0000
1000
0000
0000
0000
0001
,  // measure 69
0000
0000
1001
0000
,  // measure 70
1000
0000
0000
0000
0100
0000
0000
0010
,  // measure 71
0000
0010
0000
0000
0001
0000
0000
0000
,  // measure 72
0100
0000
0000
0010
0000
0000
0000
2000
,  // measure 73
0000
0000
3000
0000
;

//---------------dance-single - ----------------
#NOTES:
     dance-single:
     :
     Beginner:
     2:
     0.165481,0.278008,0.066192,0.000000,0.000000,105.000000,99.000000,6.000000,0.000000,0.000000,0.000000,0.165481,0.278008,0.066192,0.000000,0.000000,105.000000,99.000000,6.000000,0.000000,0.000000,0.000000:
// measure 0
0000
0000
0000
0000
,  // measure 1
0000
0000
0000
0000
,  // measure 2
0010
0000
0000
0000
,  // measure 3
0010
0000
0000
0000
,  // measure 4
0100
0000
0000
0000
,  // measure 5
0100
0000
0000
0000
,  // measure 6
1001
0000
0000
0000
,  // measure 7
0000
0000
0001
0000
,  // measure 8
0001
0000
0001
0000
,  // measure 9
0001
0000
0000
0000
,  // measure 10
0100
0000
0000
0000
,  // measure 11
0000
0000
0010
0000
,  // measure 12
0010
0000
0000
0000
,  // measure 13
1000
0000
1000
0000
,  // measure 14
1000
0000
0000
0000
,  // measure 15
0001
0000
0001
0000
,  // measure 16
0001
0000
0000
0000
,  // measure 17
0100
0000
0000
0000
,  // measure 18
0010
0000
0000
0010
,  // measure 19
0000
0000
0000
0000
,  // measure 20
0010
0000
0000
0010
,  // measure 21
0000
0000
0000
0000
,  // measure 22
1000
1000
0000
0000
,  // measure 23
1000
0000
0000
0000
,  // measure 24
0001
0001
0000
0000
,  // measure 25
0001
0000
0000
0000
,  // measure 26
0100
0100
0000
0000
,  // measure 27
0100
0000
0000
0000
,  // measure 28
0000
0010
0010
0000
,  // measure 29
0000
0000
0000
0000
,  // measure 30
1000
1000
0000
0000
,  // measure 31
1000
0000
0000
0000
,  // measure 32
0100
0100
0000
0000
,  // measure 33
0100
0000
0000
0000
,  // measure 34
0010
0010
0000
0000
,  // measure 35
0010
0000
0000
0000
,  // measure 36
0000
0001
0001
0000
,  // measure 37
0001
0000
0000
0000
,  // measure 38
1000
0000
1000
0000
,  // measure 39
1000
0000
0000
0000
,  // measure 40
0001
0000
0001
0000
,  // measure 41
0001
0000
0000
0000
,  // measure 42
0100
0000
0100
0000
,  // measure 43
0100
0000
0000
0000
,  // measure 44
0100
0000
0100
0000
,  // measure 45
0100
0000
0000
0000
,  // measure 46
0010
0000
0010
0000
,  // measure 47
0010
0000
0000
0000
,  // measure 48
1000
0000
1000
0000
,  // measure 49
1000
0000
0000
0000
,  // measure 50
0100
0000
0100
0000
,  // measure 51
0100
0000
0000
0000
,  // measure 52
1001
0000
1001
0000
,  // measure 53
1001
0000
0000
0000
,  // measure 54
0001
0001
0000
0001
,  // measure 55
0001
0000
0000
0000
,  // measure 56
0100
0100
0000
0100
,  // measure 57
0100
0000
0000
0000
,  // measure 58
0010
0000
0010
0000
,  // measure 59
0010
0000
0000
0000
,  // measure 60
1001
0000
0000
0000
,  // measure 61
0000
0000
0001
0000
,  // measure 62
1000
0000
1000
0000
,  // measure 63
0000
0000
1000
0000
,  // measure 64
0100
0000
0100
0000
,  // measure 65
0000
0000
0100
0000
,  // measure 66
0010
0000
0010
0000
,  // measure 67
0010
0000
0000
0000
,  // measure 68
0001
0000
0000
0000
,  // measure 69
1000
0000
0000
0000
,  // measure 70
0010
0010
0010
0000
,  // measure 71
0010
0000
0000
0000
,  // measure 72
1001
0000
0000
0000
;
