#TITLE:The Wolf;
#SUBTITLE:;
#ARTIST:Mumford & Sons;
#TITLETRANSLIT:;
#SUBTITLETRANSLIT:;
#ARTISTTRANSLIT:;
#GENRE:No Fairytale;
#CREDIT:;
#BANNER:The Wolf.png;
#BACKGROUND:The Wolf-bg.png;
#LYRICSPATH:;
#CDTITLE:;
#MUSIC:The Wolf.ogg;
#OFFSET:-0.010000;
#SAMPLESTART:117.644058;
#SAMPLELENGTH:12.673996;
#SELECTABLE:YES;
#BPMS:0.000000=153.000000
,263.000000=76.500000
,271.000000=153.000000
;
#STOPS:166.000000=0.392000
;
#BGCHANGES:4.000=The Wolf.avi=1.000=0=0=1=====,
99999=-nosongbg-=1.000=0=0=0 // don't automatically add -songbackground-
;
#KEYSOUNDS:;
#ATTACKS:;

//---------------dance-single - ----------------
#NOTES:
     dance-single:
     :
     Medium:
     6:
     0.388169,0.551474,0.407923,0.241988,0.000000,299.000000,59.000000,35.000000,0.000000,0.000000,0.000000,0.388169,0.551474,0.407923,0.241988,0.000000,299.000000,59.000000,35.000000,0.000000,0.000000,0.000000:
0000
0000
0000
0000
,
0000
0000
0000
0000
,
0000
0000
0000
0000
,
0000
0000
0000
0000
,
1000
0100
1000
0100
,
0010
0001
0010
0001
,
1000
0001
1000
0001
,
0100
0010
0100
0000
,
0001
0100
0010
1000
,
0001
0010
0100
1000
,
0010
0100
0001
0000
,
1000
1000
0001
0001
,
1000
0100
0010
0001
,
0100
0010
1000
0000
,
0001
0100
0100
0001
,
1000
0100
0100
0000
,
1000
0001
1000
0001
,
0100
0010
0100
0000
,
0001
0001
0100
0001
,
0010
0010
0001
0100
,
0010
0010
0100
0000
,
0001
0010
0100
1000
,
0100
0100
1000
0010
,
0100
0100
0010
0000
,
1000
1000
0001
0001
,
0100
0010
1000
0001
,
0010
0000
0001
0000
,
1000
0001
1000
0000
,
0101
0101
0101
0101
,
1100
1100
1100
1100
,
1001
1001
0100
0001
,
1000
0100
0010
0001
,
0011
0011
0011
0011
,
1010
1010
1010
1010
,
1001
1001
0100
0001
,
1000
0100
0010
0000
,
2200
0000
3300
0000
0100
1000
0100
0000
,
0202
0000
0303
0000
0001
0100
0001
0000
,
2020
0000
3030
0000
1000
0010
1000
0000
,
0002
0003
2000
3000
,
0010
0100
0001
1000
,
0010
0100
0010
0100
0010
0000
0102
0000
,
1003
0001
0010
0001
,
1000
0100
0000
2100
,
3001
1000
0010
0100
,
0100
0001
0000
2010
,
3001
1000
0100
0010
,
0010
0001
0000
0012
,
1003
0001
1000
0010
,
0010
0100
0000
1001
,
0100
0010
1000
1100
,
0010
1000
0001
0202
,
0303
2000
3000
0020
,
0030
0100
0001
1100
,
1000
0001
0010
0100
,
1000
0010
0100
0220
,
0330
0002
0003
2000
,
3000
0200
0300
1000
,
2002
0000
3003
0010
,
1000
0001
0100
0100
,
0000
0001
0000
1000
,
0100
0010
0000
2002
,
0000
0000
3003
0010
,
0000
1000
0001
0100
,
0000
0001
0000
1000
,
0100
0010
0000
0002
,
0003
2000
3000
0020
,
0030
0200
0300
0001
,
0100
0001
0100
0001
,
1000
0001
1000
0010
,
1000
0010
1000
0200
,
0300
0000
0020
0000
0030
0000
0001
1000
,
0001
1000
0001
1000
0001
0000
0101
0000
,
1000
0010
0100
0001
,
1000
0000
0001
0000
0010
0100
0010
0000
,
0000
0001
0010
0100
,
1000
0001
0000
1010
,
1000
0001
0100
0010
,
1000
0000
0001
0000
0010
0100
0010
0000
,
0000
0001
0010
0100
,
1000
0010
0000
1001
,
1001
0100
0100
1010
,
1010
0100
0100
0011
,
0011
1000
1000
2002
,
3003
0202
0303
1100
,
0101
1100
0101
1010
,
0011
1010
0011
1001
,
0110
1001
0110
1010
,
0101
0000
0011
0000
1000
0100
0000
0000
;

//---------------dance-single - ----------------
#NOTES:
     dance-single:
     :
     Challenge:
     9:
     0.683494,0.796574,0.082967,0.165935,0.131365,656.000000,12.000000,24.000000,0.000000,0.000000,0.000000,0.683494,0.796574,0.082967,0.165935,0.131365,656.000000,12.000000,24.000000,0.000000,0.000000,0.000000:
0000
0000
0000
0000
,
0000
0000
0000
0000
,
0000
0000
0000
0000
,
0000
0000
0000
0000
,
1000
0100
1000
0100
1000
0100
1000
0100
,
0010
0100
0010
0100
0010
0100
0010
0100
,
0010
0001
0010
0001
0010
0001
0010
0001
,
1000
0001
1000
0001
1000
0010
0100
0001
,
1000
0100
1000
0000
0001
0100
0001
0000
,
1000
0010
1000
0000
0001
0010
0001
0000
,
1000
0000
0001
0000
1000
0100
0010
0002
,
0000
2003
0000
3001
0100
0010
1000
0000
,
0001
0100
0000
0100
0010
1000
0000
1000
,
0100
0010
0000
0010
0001
1000
0010
0100
,
0001
0100
0001
0100
0010
1000
0001
0010
,
0100
0010
0100
0010
0001
1000
0010
0000
,
1000
0001
0000
0100
0010
1000
0000
0100
,
0010
0001
0000
1000
0001
0100
0001
1000
,
0010
0100
0000
0001
1000
0100
0000
0010
,
0001
1000
0000
0010
1000
0001
0000
0100
,
0001
1000
0000
0100
1000
0010
0100
0002
,
0000
2003
0000
3001
0010
0100
1000
0000
,
0001
0010
0000
0010
0100
1000
0000
1000
,
0010
0100
0000
0100
0001
1000
0010
0100
,
0001
0100
0010
0100
1000
0100
0010
1000
,
0100
0010
1000
0010
0100
0010
0001
1000
,
0010
0100
0000
0001
1000
0100
0000
0010
,
0001
1000
0000
0010
1000
0001
0100
0000
,
1001
0000
1100
0000
0001
0010
0100
1000
,
0020
0000
0130
0001
2000
0000
3100
0010
,
0002
0000
1003
0000
0001
0100
0010
1000
,
0100
0010
0001
1000
0010
0100
0001
0000
,
0101
0000
1010
0000
1000
0010
0100
0001
,
1000
0100
0010
0001
1000
0010
0100
0001
,
2000
0000
3001
0000
1000
0100
0010
0002
,
0000
2003
0000
3010
1000
0001
0100
0000
,
0101
0000
0100
0000
0001
0000
0100
0000
0001
0000
0100
0000
0001
0000
0100
0010
,
1000
0000
0100
0000
1000
0000
0100
0000
1000
0000
0100
0000
1000
0000
0010
0100
,
0001
0000
1000
0000
0001
0000
1000
0000
0001
0000
1000
0000
0001
0000
1000
0010
,
0100
0000
0001
0000
0100
0000
0010
1000
0100
0000
1000
0000
0100
0000
0010
0001
,
1000
0001
1000
0001
1000
0001
1000
0001
,
0100
0010
1000
0001
0100
0000
0101
0001
,
1000
0100
0010
0001
1000
0010
0100
0100
,
0010
1000
0001
0010
0100
0010
0001
0001
,
1000
0010
0100
0001
1000
0001
1000
1000
,
0010
0000
0100
0000
0001
0000
1000
0000
0001
0010
0100
1000
0010
0000
0010
0000
,
0100
0001
1000
0100
0010
0001
0100
0100
,
0001
0010
0100
0010
0001
1000
0010
0010
,
1000
0001
0100
1000
0100
0001
1000
1000
,
0100
0000
0010
0000
0001
0000
1000
0000
0001
0010
0100
1000
0010
0000
0100
0000
,
0010
0001
0010
0100
0010
1000
0010
0100
,
0010
0100
1000
0100
0010
0100
0002
0000
,
0013
0001
2000
0000
3100
1000
0002
0000
,
0103
0010
1000
0001
0100
0000
0010
0001
,
0010
0100
0010
1000
0010
0001
0010
0100
,
0010
0100
1000
0100
0010
0100
0002
0000
,
0013
0001
2000
0000
3100
1000
0002
0000
,
1003
0100
0010
0001
2000
0000
3010
0100
,
0001
0010
0100
1000
0010
0100
0001
1000
,
0100
0010
0001
1000
0010
0100
0002
0000
,
0013
0001
1000
0100
1000
0010
0100
0001
,
1000
0100
0020
0000
0031
1000
0010
0100
,
0001
0010
0100
0010
0001
1000
0010
0100
,
0001
0010
0100
1000
0010
0100
0002
0000
,
1003
0100
0010
0001
1000
0010
0200
0000
,
0301
1000
0010
1000
0001
0000
1002
0100
,
0100
0103
2001
0100
0100
3100
1002
0010
,
0010
0010
0010
0010
0010
0013
0001
0100
,
1000
0100
0001
0100
1000
0100
0001
0010
,
1000
0010
0001
0010
1000
0010
0001
1000
,
0010
0100
0001
1000
0100
0010
0001
0001
,
0100
0000
0001
0000
1000
0000
1000
0000
0010
0000
1000
0000
0001
0100
0001
0100
,
0001
0100
0001
0100
0010
1000
0010
1000
0001
0000
0000
0000
1001
0000
1000
0000
,
0010
0100
0001
1000
0100
0010
0001
0001
,
0010
0001
1000
0010
0100
0001
1000
1000
,
0010
1000
0001
0010
0100
1000
0010
0010
,
0100
0000
0001
0000
1000
0000
0010
0000
0100
0001
0100
0001
1000
0000
1000
0000
,
0010
0100
0001
0010
0100
1000
0001
0001
,
0010
0001
0100
0010
1000
0001
0100
0100
,
0010
1000
0001
0010
0100
1000
0001
0001
,
0010
0000
0001
0000
1000
0000
0001
0000
1000
0010
1000
0010
0100
0000
0001
0000
,
1000
0000
0100
0000
0010
0000
0001
0000
1000
0000
0010
0100
0010
0000
1000
0000
,
0100
0000
0010
0000
0001
0000
1000
0000
0010
0000
0100
0001
0100
0000
0010
0000
,
1000
0000
0001
0000
0010
0000
0100
0000
1000
0000
0001
0100
0001
0000
1000
0000
,
0100
0000
0010
0001
0010
0000
0100
0000
1000
0000
0001
0100
0001
0000
1000
0100
,
1000
0000
0001
0100
0001
0000
1000
0100
1000
0000
0001
0010
0001
0000
1000
0010
,
1000
0000
0001
0010
0001
0000
1000
0010
1000
0000
0001
0100
0001
0000
1000
0001
,
1000
0000
0100
1000
0100
0000
1000
0001
1000
0000
0001
0010
0001
0000
1000
0010
,
1000
0000
0001
0010
0001
0000
1000
0000
1100
0000
0101
0000
0000
0000
0000
0000
;

//---------------dance-single - ----------------
#NOTES:
     dance-single:
     :
     Hard:
     7:
     0.513608,0.551474,0.463235,0.200505,0.000000,424.000000,67.000000,29.000000,0.000000,0.000000,0.000000,0.513608,0.551474,0.463235,0.200505,0.000000,424.000000,67.000000,29.000000,0.000000,0.000000,0.000000:
0000
0000
0000
0000
,
0000
0000
0000
0000
,
0000
0000
0000
0000
,
0000
0000
0000
0000
,
0001
0100
0001
0100
0001
0100
0001
0000
,
1000
0100
1000
0100
1000
0100
1000
0000
,
0001
1000
0001
1000
0001
1000
0001
0000
,
0100
0010
0100
0010
0100
0010
0100
0000
,
0101
0010
1000
0100
,
0010
0000
0001
0000
1000
0100
1000
0000
,
0010
1000
0001
0100
,
0020
0000
0230
0000
0301
1000
0001
0000
,
1001
0100
1000
0001
,
0010
0001
1000
0010
,
1000
0100
1000
0000
0001
0010
0001
0000
,
1000
0010
1000
0000
0001
0100
0001
0000
,
1001
1000
0100
0010
,
0001
0000
0001
0000
1000
0010
0100
0000
,
0101
0010
1000
0001
,
0010
0000
0010
0000
0001
1000
0001
0000
,
0100
0010
1000
1000
,
0010
0100
0001
0000
0010
0001
1000
0000
,
1100
0001
1000
0010
,
0100
0100
0001
1000
,
0001
0100
0001
0100
0001
0000
0010
0000
,
0100
1000
0100
1000
0100
0000
0010
0000
,
1001
0100
1000
0010
,
0100
0100
0001
0101
,
1001
1001
1001
1001
,
1100
1100
1100
1100
,
0011
0000
1000
0000
0001
1000
0001
0000
,
0100
0010
0100
0000
0001
0100
0001
0000
,
1010
1010
1010
1010
,
0011
0011
0011
0011
,
1001
0000
1001
0000
0100
1000
0001
0000
,
0100
0001
1000
0000
0010
1000
0001
0000
,
1000
0100
1000
0100
1000
0100
1000
0000
,
0001
0100
0001
0100
0001
0100
0001
0000
,
1000
0001
1000
0001
1000
0001
1000
0000
,
2010
3001
0102
1003
,
0001
1000
0001
1000
0001
1000
0001
1000
,
0010
0100
0010
0100
0010
0000
0101
0000
,
0010
1100
0010
0101
,
0010
0000
1100
0000
0010
0000
1000
0001
,
1000
0000
0010
0100
0001
0000
1000
0001
,
1000
0000
0100
0010
0001
0000
1100
0000
,
0010
0101
0010
1100
,
0010
0000
0101
0000
0010
0000
0001
0100
,
0001
0000
1000
0100
0010
0000
0001
1000
,
0001
0000
0100
0010
1000
0000
0001
0100
,
0002
0000
2003
0000
3200
0000
0310
0001
,
0020
0032
2003
3010
,
0100
0001
1000
0100
,
0010
0000
0001
1000
0010
0000
2000
0000
,
3200
0320
0032
2003
,
3020
0230
0301
1000
,
0001
1000
0100
0000
1000
0001
0100
0000
,
0001
1000
0100
0010
0001
0000
1000
0000
,
2200
0000
3300
0001
,
1000
0000
0010
0000
1000
0100
1000
0000
,
0010
0000
1000
0000
0001
0100
0001
0000
,
1000
0100
1000
0000
0001
0000
0202
0000
,
0000
0000
0303
0001
,
1000
0000
0010
0000
0100
0001
0100
0000
,
0010
0000
1000
0000
0001
0010
0100
0000
,
1000
0010
0100
0000
0001
0000
2200
0000
,
3300
0202
0303
2002
,
3003
0000
0010
1000
0001
0000
0100
0000
,
0100
0010
0010
1000
,
1000
0000
0001
0000
0001
0000
0100
0100
,
0100
0000
0010
0010
0010
0000
1000
1000
,
1000
0000
0001
0001
0001
0000
0100
0010
,
0100
0010
1000
0001
1000
0000
1100
0000
,
0101
0010
1100
0101
,
1100
0010
1100
0101
,
1100
0000
0001
1000
0001
0000
0100
0010
,
1000
0000
0001
1000
0001
0000
0011
0000
,
1010
0100
0011
1010
,
0011
0100
0011
1001
,
0010
0000
1000
0001
0100
0000
0001
1000
,
0010
0000
1000
0001
0010
0000
0001
1000
,
0001
1000
0020
0000
0130
0000
0001
1000
,
0001
1000
0200
0000
0310
0000
0001
0010
,
0100
0000
1000
0010
0100
0000
0101
0000
,
0010
1100
0010
1001
,
0101
1001
1100
1001
,
0011
0000
1001
0000
1010
0000
0001
1000
,
0001
0000
0100
0010
0100
0000
0001
0010
,
0100
0000
1000
0010
0100
0101
0000
0000
;

//---------------dance-single - ----------------
#NOTES:
     dance-single:
     :
     Easy:
     4:
     0.251866,0.306375,0.096795,0.124451,0.000000,223.000000,14.000000,18.000000,0.000000,0.000000,0.000000,0.251866,0.306375,0.096795,0.124451,0.000000,223.000000,14.000000,18.000000,0.000000,0.000000,0.000000:
0000
0000
0000
0000
,
0000
0000
0000
0000
,
0000
0000
0000
0000
,
0000
0000
0000
0000
,
2000
3000
1000
0000
,
0002
0003
0001
0000
,
0200
0300
0100
0000
,
0020
0030
0010
0000
,
2002
3003
0100
0000
,
1000
0000
0010
0000
,
0100
0000
0001
0000
,
1000
0100
0010
0001
,
0100
0000
0010
0000
,
1000
0000
0001
0000
,
0010
0010
0100
0000
,
1000
1000
0001
0000
,
0100
0000
0010
0000
,
1000
0000
0001
0000
,
0010
0010
0100
0000
,
1000
0000
0001
0000
,
0100
0000
0010
0000
,
1000
0100
0010
0001
,
1000
0000
0001
0000
,
0100
0000
0010
0000
,
1000
1000
0100
0000
,
0010
0010
0001
0000
,
0100
0000
0010
0000
,
1000
0000
0001
0000
,
1001
0000
0100
1000
,
0010
0000
0100
0001
,
0010
0000
0001
0000
,
1000
0000
0010
0000
,
1001
0000
1000
0100
,
0010
0000
0001
1000
,
0010
0000
0100
0000
,
0001
0000
1000
0000
,
1001
0000
0100
0000
,
0110
0000
0010
0000
,
1001
0000
1000
0000
,
0110
0000
1001
0000
,
1000
0100
0010
0001
,
0100
0010
1000
0000
,
0001
0100
0001
1000
,
0001
1000
0000
0100
,
1000
0100
1000
0001
,
1000
0001
0000
1000
,
0010
1000
0010
1000
,
0001
1000
0000
0001
,
0010
0001
0010
0001
,
1000
0001
0000
1001
,
0000
0100
0100
0010
,
0000
1000
1000
0100
,
0000
0010
0000
0001
,
1000
0010
0000
0110
,
0000
0100
0100
0001
,
0000
1000
1000
0100
,
0000
0010
0000
0001
,
1000
0010
0100
0001
,
0000
1000
0000
0100
,
0000
0010
0000
0001
,
0000
1000
0000
0010
,
0100
0010
0000
1001
,
0000
0100
0000
0001
,
0000
1000
0000
0100
,
0000
0010
0000
0001
,
1000
0001
0000
0200
,
0300
0020
0030
2000
,
3000
0002
0003
0200
,
0000
0000
0300
0020
,
0000
0000
0030
2000
,
0000
0000
3000
0200
,
0300
0020
0030
0002
,
0000
0003
1001
1001
,
0000
0100
0010
1000
,
0010
0100
0001
1000
,
0000
0100
0000
1000
,
0001
0010
0000
1001
,
0000
0001
1000
0010
,
1000
0001
0010
0100
,
0000
1000
0000
0010
,
1000
0001
0000
0100
,
0100
0100
0000
0010
,
0010
0010
0000
1000
,
1000
1000
0000
0002
,
0003
2000
3000
0010
,
0100
0010
0100
0001
,
1000
0001
1000
0100
,
0010
0100
0010
0001
,
1000
0000
0010
0000
0100
0100
0000
0000
;

//---------------dance-single - ----------------
#NOTES:
     dance-single:
     :
     Beginner:
     2:
     0.159021,0.214160,0.034570,0.000000,0.000000,156.000000,5.000000,0.000000,0.000000,0.000000,0.000000,0.159021,0.214160,0.034570,0.000000,0.000000,156.000000,5.000000,0.000000,0.000000,0.000000,0.000000:
0000
0000
0000
0000
,
0000
0000
0000
0000
,
0000
0000
0000
0000
,
0000
0000
0000
0000
,
0100
0000
0000
0000
,
0010
0000
0000
0000
,
1000
0000
0000
0000
,
0001
0000
0000
0000
,
1001
0000
0000
0000
,
1000
0000
0000
0000
,
0001
0000
0000
0000
,
0100
0000
0100
0000
,
0010
0000
0000
0000
,
1000
0000
0000
0000
,
0100
0000
0100
0000
,
0010
0000
0010
0000
,
0001
0000
0000
0000
,
1000
0000
0000
0000
,
0010
0010
0000
0000
,
0100
0000
0000
0000
,
0001
0000
1000
0000
,
0100
0100
0100
0000
,
0100
0000
0000
0000
,
1000
0000
0000
0000
,
0010
0000
0010
0000
,
0100
0000
0100
0000
,
0001
0000
0000
0000
,
1000
0000
0000
0000
,
1001
0000
0100
0000
,
1000
0000
0001
0000
,
0100
0000
0000
0000
,
0010
0010
0010
0000
,
0110
0000
0100
0000
,
0001
0000
1000
0000
,
0001
0000
0000
0000
,
1000
1000
1000
0000
,
1001
0000
0100
0000
,
1000
0000
0001
0000
,
0100
0000
0001
0000
,
1000
0000
0001
0000
,
0010
0000
0010
0000
,
0010
0000
0010
0000
,
0000
0000
0000
0001
,
0000
1000
0000
0010
,
0000
0100
0000
0001
,
0000
1000
1000
1000
,
0000
0100
0000
1000
,
0000
0001
0000
0100
,
0000
0010
0000
1000
,
0000
0001
0001
0001
,
0000
1000
0000
0001
,
0000
0100
0000
0010
,
0000
0010
0000
0010
,
0000
0010
0000
1000
,
0000
0100
0000
0010
,
0000
0001
0000
1000
,
0000
1000
0000
1000
,
0000
1000
0000
0010
,
0010
0000
0000
1000
,
0000
0001
0000
0100
,
0000
0001
0000
1000
,
1000
1000
0000
0001
,
0000
0000
0000
1000
,
0000
0000
0000
0100
,
0000
0100
0000
0010
,
0010
0010
0000
0001
,
0000
0000
0000
1000
,
0000
0000
0000
0010
,
0000
0000
0000
0100
,
0000
0000
0000
0001
,
0000
0000
0000
1000
,
0000
0100
0000
0010
,
0000
0000
0000
1001
,
0000
0100
0000
1000
,
0000
0001
0000
0010
,
0000
0001
0000
1000
,
1000
1000
0000
0010
,
0000
1000
0000
0001
,
0000
0010
0000
0100
,
0000
1000
0000
0001
,
0001
0001
0000
0100
,
0000
0100
0000
0010
,
0000
0010
0000
1000
,
0000
1000
0000
0001
,
0000
0001
0000
0100
,
0100
0100
0000
0010
,
0010
0010
0000
1000
,
1000
1000
0000
0001
,
0001
0001
0001
0000
;

//---------------dance-double - ----------------
#NOTES:
     dance-double:
     :
     Challenge:
     9:
     0.669666,0.704662,0.069140,0.179763,0.062226,642.000000,10.000000,26.000000,0.000000,0.000000,0.000000,0.669666,0.704662,0.069140,0.179763,0.062226,642.000000,10.000000,26.000000,0.000000,0.000000,0.000000:
// measure 0
00000000
00000000
00000000
00000000
,  // measure 1
00000000
00000000
00000000
00000000
,  // measure 2
00000000
00000000
00000000
00000000
,  // measure 3
00000000
00000000
00000000
00000000
,  // measure 4
01000000
00010000
01000000
00010000
01000000
00010000
01000000
00010000
,  // measure 5
00100000
00001000
00100000
00001000
00100000
00001000
00100000
00001000
,  // measure 6
00010000
00000010
00010000
00000010
00010000
00000010
00010000
00000010
,  // measure 7
00001000
00000001
00001000
00000001
00001000
00000001
00001000
00000001
,  // measure 8
00000100
00000010
00001000
00000000
00000100
00000010
00000001
00000000
,  // measure 9
00001000
00000010
00000100
00000000
00000001
00001000
00000100
00000000
,  // measure 10
00000010
00000001
00001000
00000000
00000010
00001000
00000001
00000200
,  // measure 11
00000000
00000320
00000000
00001030
00000100
00010000
00002000
00000000
,  // measure 12
00103000
00010000
00000000
00010000
01000000
00100000
00000000
00100000
,  // measure 13
10000000
01000000
00000000
01000000
00100000
00010000
10000000
00100000
,  // measure 14
01000000
00100000
00010000
00100000
10000000
00100000
01000000
00010000
,  // measure 15
01000000
10000000
01000000
00100000
10000000
00010000
10000000
00000000
,  // measure 16
00010000
01000000
00000000
01000000
00100000
10000000
00000000
10000000
,  // measure 17
01000000
00100000
00000000
00100000
00010000
10000000
00000000
10000000
,  // measure 18
00100000
01000000
00010000
00000000
00100000
01000000
10000000
00000000
,  // measure 19
00010000
01000000
00100000
00000000
10000000
00010000
00100000
00000000
,  // measure 20
01000000
10000000
00010000
00000000
01000000
00010000
10000000
00200000
,  // measure 21
00000000
02300000
00000000
03010000
00100000
00001000
00020000
00000000
,  // measure 22
00030100
00001000
00000000
00001000
00000010
00000100
00000000
00000100
,  // measure 23
00000001
00000010
00000000
00000010
00000100
00001000
00000001
00000100
,  // measure 24
00000010
00000100
00001000
00000100
00000001
00000100
00000010
00001000
,  // measure 25
00000010
00000001
00000010
00000100
00000001
00001000
00000001
00000000
,  // measure 26
00001000
00000010
00000000
00000010
00000100
00000001
00000000
00000001
,  // measure 27
00000010
00000100
00000000
00000100
00001000
00000001
00001001
00000000
,  // measure 28
00001000
00000010
00000100
00000001
00000010
00000100
00001000
00000001
,  // measure 29
00000200
00000000
00000310
00001000
00000200
00000000
00010300
00001000
,  // measure 30
00020000
00000000
00031000
00010000
00100000
10000000
01000000
00100000
,  // measure 31
00010000
01000000
00010000
10000000
00100000
00100000
10000000
00000000
,  // measure 32
00010000
01000000
00100000
10000000
01000000
00100000
00010000
10000000
,  // measure 33
00200000
00000000
01300000
00010000
00200000
00000000
00301000
00010000
,  // measure 34
00002000
00000000
00013000
00001000
00000100
00000001
00000010
00000100
,  // measure 35
00001000
00000010
00001000
00000001
00000100
00000100
00000001
00000000
,  // measure 36
00001000
00000000
00000100
00000000
00001000
00000000
00000100
00000000
00001000
00000000
00000100
00000000
00001000
00000000
00000100
00010000
,  // measure 37
00001000
00000000
00010000
00000000
00001000
00000000
00010000
00000000
00001000
00000000
00010000
00000000
00001000
00000000
00010000
00001000
,  // measure 38
00100000
00000000
00010000
00000000
00100000
00000000
00010000
00000000
00100000
00000000
00010000
00000000
00100000
00000000
00010000
10000000
,  // measure 39
00100000
00000000
10000000
00000000
00100000
00000000
10000000
00010000
01000000
00000000
00010000
00000000
01000000
00000000
00010000
10000000
,  // measure 40
00100000
01000000
00010000
10000000
01000000
00100000
00010000
01000000
,  // measure 41
00001000
00000100
00000001
00001000
00001001
00000000
00001100
00000100
,  // measure 42
00000010
00000001
00001000
00000010
00000100
00000001
00001000
00001000
,  // measure 43
00000010
00001000
00000100
00000010
00000001
00001000
00000010
00000010
,  // measure 44
00000100
00000001
00001000
00000100
00000010
00000100
00001000
00001000
,  // measure 45
00000100
00000000
00010000
00000000
00001000
00000000
01000000
00000000
00010000
10000000
00010000
10000000
00010000
00000000
00100000
00000000
,  // measure 46
01000000
10000000
00010000
01000000
00100000
10000000
00010000
00010000
,  // measure 47
01000000
00010000
00100000
01000000
10000000
00010000
01000000
01000000
,  // measure 48
00100000
10000000
00010000
00100000
01000000
00100000
00010000
00010000
,  // measure 49
00100000
00000000
00001000
00000000
00010000
00000000
00000010
00000000
00001000
00000001
00001000
00000001
00000100
00000000
00000010
00000000
,  // measure 50
00000100
00001000
00000100
00000010
00000100
00000001
00000100
00000010
,  // measure 51
00001000
00000010
00000100
00000010
00000001
00000010
00002000
00000000
,  // measure 52
00003100
00000010
00000002
00000000
00000103
00000010
00002000
00000000
,  // measure 53
00003100
00010000
00001000
01000000
02000000
00000000
03100000
01000000
,  // measure 54
00100000
00010000
00100000
01000000
00100000
10000000
00100000
01000000
,  // measure 55
00010000
01000000
00100000
01000000
10000000
01000000
00020000
00000000
,  // measure 56
00130000
01000000
20000000
00000000
30100000
01000000
00020000
00000000
,  // measure 57
00130000
00001000
00010000
00000010
00000020
00000000
00001030
00000100
,  // measure 58
00000010
00000001
00000100
00000010
00001000
00000001
00001000
00000010
,  // measure 59
00000100
00000001
00000010
00000100
00001000
00000001
00000200
00000000
,  // measure 60
00000310
00001000
00000100
00000010
00000001
00001000
00000010
00010000
,  // measure 61
00001000
00010000
00000100
00010000
00001000
00100000
00010000
01000000
,  // measure 62
00100000
10000000
01000000
00100000
00010000
10000000
00100000
01000000
,  // measure 63
00010000
00100000
01000000
00100000
00010000
10000000
00200000
00000000
,  // measure 64
01300000
00010000
10000000
01000000
00100000
00010000
01000000
01000000
,  // measure 65
00010000
10000000
02000000
00000000
03100000
00000000
20010000
00010000
,  // measure 66
00010000
30010000
00021000
00001000
00001000
00031000
00002001
00000001
,  // measure 67
00000001
00000001
00000001
00000001
00000001
00003001
00001000
00000100
,  // measure 68
00001000
00000000
00000100
00000000
00001000
00000000
00000100
00000000
00001000
00000000
00000100
00010000
00001000
00000000
00010000
00000000
,  // measure 69
00001000
00000000
00010000
00000000
00001000
00000000
00010000
00000000
00001000
00000000
00010000
00001000
00100000
00000000
00010000
00000000
,  // measure 70
00100000
00000000
00010000
00000000
00100000
00000000
00010000
00000000
00100000
00000000
00010000
10000000
00100000
00000000
10000000
00000000
,  // measure 71
00100000
00000000
10000000
00010000
01000000
00000000
00010000
00000000
01000000
00000000
00010000
10000000
00100000
00000000
01000000
00000000
,  // measure 72
00010000
10000000
01000000
10000000
10010000
00000000
00110000
00100000
,  // measure 73
01000000
10000000
00010000
01000000
00100000
10000000
00010000
00010000
,  // measure 74
01000000
00010000
00100000
01000000
10000000
00010000
01000000
01000000
,  // measure 75
00100000
10000000
00010000
00100000
01000000
00100000
00010000
00010000
,  // measure 76
00100000
00000000
00001000
00000000
00010000
00000000
00000010
00000000
00001000
00000001
00001000
00000001
00001000
00000000
00000100
00000000
,  // measure 77
00000010
00000001
00001000
00000010
00000100
00000001
00001000
00001000
,  // measure 78
00000010
00001000
00000100
00000010
00000001
00001000
00000010
00000010
,  // measure 79
00000100
00000001
00001000
00000100
00000010
00000100
00001000
00001000
,  // measure 80
00000100
00000000
00010000
00000000
00001000
00000000
01000000
00000000
00010000
10000000
00010000
10000000
00100000
00000000
01000000
00000000
,  // measure 81
00100000
00010000
00100000
01000000
00100000
10000000
00100000
01000000
,  // measure 82
00010000
01000000
10000000
01000000
00100000
01000000
00010000
10000000
,  // measure 83
01000000
00100000
00010000
01000000
00100000
00010000
00001000
00000010
,  // measure 84
00000001
00000100
00000010
00001000
00000100
00000010
00000001
00000001
,  // measure 85
00001000
00001000
00000010
00000010
00000100
00000100
00000001
00000010
,  // measure 86
00000100
00001000
00000010
00000100
00001000
00010000
00100000
00100000
,  // measure 87
10000000
10000000
01000000
01000000
00100000
00100000
00010000
10000000
,  // measure 88
00100000
00010000
00001000
00010000
00011000
00011000
00000000
00000000
;
