#VERSION:0.82;
#TITLE:Style;
#SUBTITLE:;
#ARTIST:Taylor Swift;
#TITLETRANSLIT:;
#SUBTITLETRANSLIT:;
#ARTISTTRANSLIT:;
#GENRE:;
#ORIGIN:;
#CREDIT:;
#BANNER:Style.png;
#BACKGROUND:Style-bg.png;
#PREVIEWVID:;
#JACKET:jacket.jpg;
#CDIMAGE:;
#DISCIMAGE:;
#LYRICSPATH:;
#CDTITLE:cdtitle.png;
#MUSIC:Style.ogg;
#OFFSET:0.000000;
#SAMPLESTART:49.272991;
#SAMPLELENGTH:17.959999;
#SELECTABLE:YES;
#BPMS:0.000=95.000;
#STOPS:;
#DELAYS:;
#WARPS:;
#TIMESIGNATURES:0.000=4=4;
#TICKCOUNTS:0.000=4;
#COMBOS:0.000=1;
#SPEEDS:0.000=1.000=0.000=0;
#SCROLLS:0.000=1.000;
#FAKES:;
#LABELS:0.000=Song Start;
#BGCHANGES:4.000=Style.avi=1.000=0=0=1=====,
99999=-nosongbg-=1.000=0=0=0 // don't automatically add -songbackground-
;
#KEYSOUNDS:;
#ATTACKS:
;

//---------------dance-single - ----------------
#NOTEDATA:;
#CHARTNAME:;
#STEPSTYPE:dance-single;
#DESCRIPTION:;
#CHARTSTYLE:;
#DIFFICULTY:Hard;
#METER:6;
#RADARVALUES:0.311087,0.324381,0.144692,0.209803,0.036173,252.000000,20.000000,29.000000,0.000000,0.000000,0.000000,0.000000,0.000000,0.311087,0.324381,0.144692,0.209803,0.036173,252.000000,20.000000,29.000000,0.000000,0.000000,0.000000,0.000000,0.000000;
#CREDIT:Ben Speirs;
#NOTES:
0000
0000
0000
0000
,
0000
0000
0000
0000
,
0001
0010
0010
0000
0001
0000
1000
0000
,
0010
0100
0100
0000
0010
0000
1001
0000
,
0200
0310
0001
1000
,
0010
0000
1000
0100
0010
0001
1000
0000
,
0020
0130
0001
1000
,
0001
0010
0100
0000
1000
0001
0100
0000
,
2000
0000
3001
0000
0010
0001
0100
0000
,
0010
0000
1000
0010
0100
0001
1000
0000
,
0002
0000
0103
0000
0010
0100
0001
0000
,
0010
0100
1000
0000
0001
0001
0001
0000
,
1000
0000
1000
0200
0000
0000
0000
0000
0000
0000
0310
0000
0000
0000
0000
0000
,
0010
0001
0100
0000
0010
1000
0100
0000
,
1000
0000
1000
0002
0000
0000
0000
0000
0103
0000
0000
0000
1001
0000
0000
0000
,
0001
0000
0001
2000
0000
0000
0000
0000
3100
0000
0000
0000
1001
0000
0000
0000
,
0020
0000
0000
0030
,
0002
0000
0000
0003
,
2000
0000
0000
3000
,
0000
0010
0010
1000
0001
0000
1001
0000
,
0002
0103
2000
3100
,
1000
0001
0000
0100
0010
0000
1001
0000
,
2000
3010
0002
0013
,
0001
1000
0000
0010
0100
0000
1001
0000
,
1000
0100
1100
0000
0001
0100
0101
0000
,
1000
0001
0000
0001
1000
0000
0010
0000
,
0100
0000
0000
0100
0000
0000
0100
0000
0001
0000
0000
0000
1000
0000
0000
0000
,
0010
0000
0000
0010
0000
0000
0010
0000
1000
0000
0000
0000
0001
0000
0000
0000
,
1000
0100
1000
0010
1000
0001
1000
0000
,
0001
0100
0000
1000
0100
0000
1001
0000
,
0001
0100
0001
0010
0001
1000
0001
0000
,
0100
0010
0000
1000
0001
0000
0110
0000
,
1000
0100
1100
0000
0001
0010
0011
0000
,
1000
0010
0000
0010
1000
0000
0001
0000
,
1000
0000
0000
1000
0000
0000
1000
0000
0100
0000
0000
0000
0010
0000
0000
0000
,
0001
0000
0000
0001
0000
0000
0001
0000
0100
0000
0000
0000
0010
0000
0000
0000
,
2000
0000
0000
3000
0001
0000
0200
0000
0000
0000
0310
0000
2000
0000
0000
0000
,
3200
0000
0310
0002
0000
1000
1003
0000
,
0020
0000
0000
0030
0100
0000
0002
0000
0000
0000
0013
0000
0200
0000
0000
0000
,
2300
0000
3010
0200
0000
0001
0301
0000
,
0100
0001
1000
0100
1000
0001
0200
0000
,
0320
0000
0000
0000
1000
0030
2000
0000
0000
0000
0000
0000
3100
0000
0000
0000
,
1000
0100
0010
0000
0001
1000
0010
0000
,
1001
0000
0000
0110
0000
0000
1001
0000
0000
0000
0010
0000
0010
0000
0000
0000
,
1000
0001
0100
0000
0001
1000
0100
0000
,
1000
0100
0010
0001
0000
1000
1000
0000
,
0001
1000
0010
0000
1000
0001
0010
0000
,
0001
1000
0010
0100
0000
0010
0010
0000
,
0100
0001
1001
0000
0100
1000
1001
0000
,
0010
0001
0100
0100
0000
0010
0100
0000
,
0001
0000
0000
0001
0000
0000
0001
0000
0100
0000
0000
0000
0010
0000
0000
0000
,
1010
0000
0000
1001
0000
0000
0102
0000
0000
0000
0000
0000
1003
0000
0000
0000
,
0200
0000
0000
0300
;

//---------------dance-single - ----------------
#NOTEDATA:;
#CHARTNAME:;
#STEPSTYPE:dance-single;
#DESCRIPTION:;
#CHARTSTYLE:;
#DIFFICULTY:Medium;
#METER:3;
#RADARVALUES:0.163295,0.188099,0.057877,0.122988,0.003617,133.000000,8.000000,17.000000,0.000000,0.000000,0.000000,0.000000,0.000000,0.163295,0.188099,0.057877,0.122988,0.003617,133.000000,8.000000,17.000000,0.000000,0.000000,0.000000,0.000000,0.000000;
#CREDIT:Ben Speirs;
#NOTES:
0000
0000
0000
0000
,
0000
0000
0000
0000
,
1000
0000
0001
0000
,
0100
0000
0100
0000
,
0010
0010
0000
1001
,
0000
0100
1000
0001
,
0100
0100
0000
1001
,
0000
0010
0000
1000
,
0001
0001
0000
0110
,
0000
0001
0010
0001
,
1000
1000
0000
0110
,
0000
1000
0000
0001
,
0020
0030
0000
0000
,
0001
1000
0010
0100
,
0200
0300
0000
0000
,
0002
0003
0000
0000
,
1010
0000
0000
0000
,
1001
0000
0000
0000
,
0101
0000
0000
0000
,
0000
0000
0000
0000
,
0001
1000
0001
1000
,
0010
0010
0010
0000
,
1000
0001
1000
0001
,
0010
0010
0010
0000
,
0001
0100
0001
0100
,
0010
0010
0010
0000
,
1000
0100
1000
0100
,
0010
0010
0010
0000
,
0001
0001
1000
1000
,
0000
0010
0000
0010
,
1000
1000
0001
0001
,
0000
0010
0000
0010
,
0100
0100
0100
0100
,
0000
0010
0000
0001
,
1000
0000
0001
0000
,
0100
0100
0100
0000
,
0020
0030
2000
3000
,
0002
0003
0002
0003
,
2000
3000
0020
0030
,
0200
0300
0200
0300
,
0002
0003
2000
3000
,
0020
0030
0020
0030
,
2000
3000
0002
0003
,
0100
0100
0100
0000
,
0001
1000
0001
1000
,
0010
0010
0010
0000
,
1000
0001
1000
0001
,
0010
0010
0010
0000
,
0001
0100
0001
0100
,
0010
0010
0010
0000
,
1000
0100
1000
0100
,
0010
0000
0000
0001
0000
0000
1000
0000
0000
0000
0000
0000
0000
0000
0000
0000
,
1001
0000
0000
0000
;

//---------------dance-single - ----------------
#NOTEDATA:;
#CHARTNAME:;
#STEPSTYPE:dance-single;
#DESCRIPTION:;
#CHARTSTYLE:;
#DIFFICULTY:Easy;
#METER:2;
#RADARVALUES:0.105418,0.150479,0.028938,0.065111,0.000000,89.000000,4.000000,9.000000,0.000000,0.000000,0.000000,0.000000,0.000000,0.105418,0.150479,0.028938,0.065111,0.000000,89.000000,4.000000,9.000000,0.000000,0.000000,0.000000,0.000000,0.000000;
#CREDIT:Ben Speirs;
#NOTES:
0000
0000
0000
0000
,
0000
0000
0000
0000
,
2000
0000
0000
3000
,
0001
0000
0000
0000
,
0100
0100
0000
0000
,
0010
0000
1000
0000
,
0001
0001
0000
0000
,
0020
0000
0000
0030
,
0001
0001
0000
0000
,
0100
0000
0001
0000
,
1000
1000
0000
0000
,
0200
0000
0000
0300
,
0010
0010
0000
0000
,
0001
0000
1000
0000
,
0010
0010
0000
0000
,
2000
0000
0000
3000
,
0200
0300
0000
0000
,
2002
3003
0000
0000
,
0020
0030
0000
0000
,
0000
0000
0000
0000
,
0001
0001
0001
0001
,
0000
0000
0000
0000
,
1000
1000
1000
1000
,
0000
0000
0000
0000
,
0010
0010
0010
0010
,
0000
0000
0000
0000
,
0100
0000
0100
0000
,
0100
0000
0000
0000
,
0001
0001
1000
1000
,
0000
0000
0000
0000
,
0010
0010
0100
0100
,
0000
0000
0000
0000
,
0001
0001
0010
0010
,
0000
0000
0000
0000
,
0100
0000
0100
0000
,
0110
0000
0000
0000
,
1001
0000
0010
0000
,
1000
0000
1000
0000
,
0010
0000
0100
0000
,
0001
0000
0001
0000
,
1000
0000
0100
0000
,
0010
0000
0010
0000
,
0001
0000
1000
0000
,
0020
0000
0000
0030
,
0100
0100
0100
0100
,
0000
0000
0000
0000
,
0001
0001
0001
0001
,
0000
0000
0000
0000
,
1000
1000
1000
1000
,
0000
0000
0000
0000
,
0010
0000
0010
0000
,
1000
1000
1000
0000
,
1001
0000
0000
0000
;

//---------------dance-single - ----------------
#NOTEDATA:;
#CHARTNAME:;
#STEPSTYPE:dance-single;
#DESCRIPTION:;
#CHARTSTYLE:;
#DIFFICULTY:Beginner;
#METER:1;
#RADARVALUES:0.078547,0.112859,0.028938,0.000000,0.000000,72.000000,4.000000,0.000000,0.000000,0.000000,0.000000,0.000000,0.000000,0.078547,0.112859,0.028938,0.000000,0.000000,72.000000,4.000000,0.000000,0.000000,0.000000,0.000000,0.000000,0.000000;
#CREDIT:Ben Speirs;
#NOTES:
0000
0000
0000
0000
,
0000
0000
0000
0000
,
1000
0000
0000
0000
,
0001
0000
0000
0000
,
0100
0100
0000
0000
,
0010
0000
0000
0000
,
1000
1000
0000
0000
,
0100
0000
0000
0000
,
0010
0010
0000
0000
,
0001
0000
0000
0000
,
0100
0100
0000
0000
,
0010
0000
0000
0000
,
1000
1000
0000
0000
,
0001
0000
0000
0000
,
0010
0010
0000
0000
,
0100
0000
0000
0000
,
1001
0000
0000
0000
,
0100
0000
0000
0000
,
0001
0000
0000
0000
,
0000
0000
0000
0000
,
1001
0000
0001
0000
,
1000
0000
0000
0000
,
0010
0000
0010
0000
,
0100
0000
0000
0000
,
0001
0000
0001
0000
,
0010
0000
0000
0000
,
0100
0000
0100
0000
,
1000
0000
0000
0000
,
0010
0000
0010
0010
,
0000
0000
0000
0000
,
1000
0000
1000
1000
,
0000
0000
0000
0000
,
0001
0000
0001
0001
,
0000
0000
0000
0000
,
0100
0000
0100
0000
,
0100
0000
0000
0000
,
1001
0000
0000
0000
,
0010
0000
0000
0000
,
1000
0000
0000
0000
,
0100
0000
0100
0000
,
0010
0000
0000
0000
,
0001
0000
0000
0000
,
1000
0000
0000
0000
,
0010
0000
0010
0000
,
0110
0000
0000
0000
,
0001
0001
0001
0000
,
1000
0000
0000
0000
,
0100
0100
0100
0000
,
0010
0000
0000
0000
,
0001
0001
0001
0000
,
1000
0000
0000
0000
,
0010
0000
0000
0000
,
0100
0000
0000
0000
;

//---------------dance-single - ----------------
#NOTEDATA:;
#CHARTNAME:;
#STEPSTYPE:dance-single;
#DESCRIPTION:;
#CHARTSTYLE:;
#DIFFICULTY:Challenge;
#METER:9;
#RADARVALUES:0.554996,0.583107,0.361729,0.072346,0.510038,477.000000,50.000000,10.000000,0.000000,0.000000,0.000000,0.000000,0.000000,0.554996,0.583107,0.361729,0.072346,0.510038,477.000000,50.000000,10.000000,0.000000,0.000000,0.000000,0.000000,0.000000;
#CREDIT:Ben Speirs;
#NOTES:
0000
0000
0000
0000
,
0000
0000
0000
0000
,
0001
0000
0010
0000
0001
0000
0100
0000
0001
0000
0010
0001
0000
0001
0100
0100
,
0000
0010
0010
0100
0001
0000
1001
0000
,
0100
0000
0100
2000
0000
0000
0010
0000
0100
0000
0010
0000
3100
0000
0000
0000
,
1000
0000
0010
0000
0100
0001
0000
1000
0000
0100
0000
0010
0000
0001
0000
0000
,
0010
0000
0010
0002
0000
0000
0100
0000
0010
0000
0100
0000
0013
0000
0000
0000
,
0001
0000
0100
0000
0010
0000
1000
0001
0000
0100
0000
0010
0000
0000
1001
0000
,
0010
0000
0010
0002
0000
0000
0100
0000
0010
0000
0100
0000
0013
0000
0000
0000
,
0001
0000
0100
0000
0010
1000
0000
0001
0000
0010
0000
0100
0000
1000
0000
0000
,
0100
0000
0100
2000
0000
0000
0010
0000
0100
0000
0010
0000
3100
0000
0000
0000
,
1000
0000
0010
0000
0100
0000
0001
1000
0000
0010
0000
1000
0000
0000
1001
0000
,
0010
0000
0100
0002
0000
0000
0100
0000
0000
0000
1003
0000
0000
0000
0000
0000
,
1000
0100
0000
0010
0000
0001
0000
1000
0000
0010
0000
0100
0000
0001
0000
0000
,
1000
0000
1000
0200
0000
0000
0000
0000
0010
0000
0010
0000
0310
0000
0000
0000
,
0001
0000
0001
0200
0000
0000
0000
0000
0010
0000
0010
0000
0310
0000
0000
0000
,
1001
0000
0000
0000
0000
1000
0100
0010
0001
0010
0100
1000
0001
0000
0100
0100
,
0010
0000
0000
0000
0000
0000
0100
0001
0100
0010
1000
0001
0010
0000
0100
0100
,
1000
0000
0000
0000
0010
1000
0100
0000
1000
0000
0001
0100
0000
0010
0000
1000
,
0000
0000
0100
0010
0001
0000
1000
0000
0010
0100
0001
0000
1001
0000
0000
0000
,
1010
1000
1001
0001
0101
0001
1001
1000
,
0010
0000
0100
0001
1000
0000
0001
0000
0010
0000
0100
0000
1000
0010
0100
0000
,
0101
0100
0110
0010
1010
1000
1001
1000
,
0100
0000
0010
0001
1000
0000
0010
0000
1000
0000
0001
0000
0100
0010
1000
0000
,
1010
1000
1001
0001
0011
0001
1001
0110
,
1001
0000
1000
0100
0010
0000
0001
0000
1000
0000
0010
0000
0100
0001
1000
0000
,
0010
0100
0010
1000
0100
0010
0001
0000
1000
0000
0010
0000
1010
0000
1000
0000
,
0001
0010
0001
1000
0010
0100
0001
0000
1000
0000
0010
0000
0110
0000
0100
0000
,
0101
0001
1001
1000
1010
1000
1001
0001
,
0100
0000
0010
1000
0001
0000
1000
0000
0100
0000
0010
0000
0001
0100
0010
0000
,
1010
0010
0110
0100
0101
0001
1001
0001
,
0010
0000
0100
1000
0001
0000
0100
0000
0001
0000
1000
0000
0010
0100
0001
0000
,
0101
0001
1001
1000
1100
1000
1001
0110
,
1001
0000
0001
0010
0100
0000
1000
0000
0001
0000
0100
0000
0010
1000
0001
0000
,
0100
0010
0100
0001
0010
0100
1000
0000
0001
0000
0100
0000
0101
0000
0001
0000
,
1000
0100
1000
0001
0100
0010
1000
0000
0001
0000
0100
0000
0110
0000
0000
0000
,
0010
1000
0010
1000
0010
1000
0001
1000
0001
1000
0001
1000
0100
1000
0100
1000
,
0010
0100
0010
0100
0010
0100
0001
1000
0001
1000
0100
0000
0010
0000
0001
0000
,
0100
0001
0100
0001
0100
0001
1000
0001
1000
0001
1000
0001
0010
0001
0010
0001
,
0100
0010
0100
0010
0100
0010
1000
0001
1000
0001
0010
0000
0100
0000
1000
0000
,
0010
0100
0001
0100
0010
1000
0100
1000
0010
0100
0001
0100
0010
1000
0100
1000
,
0010
0100
0001
0100
0010
1000
0100
1000
0010
0100
0001
0100
0010
0000
1000
0000
,
0001
0010
0001
1000
0100
1000
0001
0010
0001
1000
0100
1000
0001
0010
0001
1000
,
0010
0000
0000
0010
0000
0000
0010
0000
0000
0000
0100
0000
0110
0000
0000
0000
,
0101
0000
0100
0010
1000
0000
1000
0100
0010
0000
0010
0001
1000
0000
0000
0000
,
1001
0110
0011
2100
0000
0001
3001
0000
,
1100
0000
0010
1000
0100
0000
0010
0001
1000
0000
0010
0100
0001
0000
0000
0000
,
0101
1100
1001
0012
0000
1000
1003
0000
,
1010
0000
0010
0100
0001
0000
0001
0010
0100
0000
0100
1000
0010
0000
0100
0000
,
0001
0000
1000
0100
0010
0000
0001
0000
1000
0000
0010
0000
0100
0001
1000
0000
,
0010
1000
0100
0010
0001
1000
0010
0000
0100
0000
0001
0000
0101
0000
0100
0000
,
0010
1000
0100
0010
0001
1000
0010
0100
0001
0010
0100
1000
0020
0000
0001
0000
,
1030
0000
0000
0000
;

//---------------dance-double - ----------------
#NOTEDATA:;
#CHARTNAME:;
#STEPSTYPE:dance-double;
#DESCRIPTION:;
#CHARTSTYLE:;
#DIFFICULTY:Challenge;
#METER:6;
#RADARVALUES:0.368964,0.376198,0.296618,0.274914,0.057877,278.000000,41.000000,38.000000,0.000000,0.000000,0.000000,0.000000,0.000000,0.368964,0.376198,0.296618,0.274914,0.057877,278.000000,41.000000,38.000000,0.000000,0.000000,0.000000,0.000000,0.000000;
#CREDIT:Ben Speirs;
#NOTES:
// measure 0
00000000
00000000
00000000
00000000
,  // measure 1
00000000
00000000
00000000
00000000
,  // measure 2
00000001
00000100
00000001
00000100
00000010
00001000
00000010
00000000
,  // measure 3
00001000
00000100
00001000
00000000
00000001
00000100
00001001
00000000
,  // measure 4
00000002
00000000
00000000
00000203
00000000
00000000
00000000
00000000
00000010
00000000
00000010
00000000
00000310
00000000
00000000
00000000
,  // measure 5
00000100
00000001
00000010
00000100
00001000
00000100
00010000
00000000
,  // measure 6
00020100
00000000
00032000
00000000
00013000
00001000
00100000
00000000
,  // measure 7
00010000
10000000
00100000
00000000
01000000
01000000
10010000
00000000
,  // measure 8
20100000
00000000
00000000
30020000
00000000
00000000
00000000
00000000
00130000
00000000
00010000
00000000
01000000
00000000
00000000
00000000
,  // measure 9
00010000
00000000
10000000
01000000
00100000
00010000
01000000
00010000
,  // measure 10
00200000
00000000
00302000
00000000
00013000
00001000
00010000
00000000
,  // measure 11
00000100
00010000
00001000
00000000
00010000
00000000
00011000
00000000
,  // measure 12
00000100
00000000
00000100
00002000
00000000
00000000
00000000
00000000
00000000
00000000
00003010
00000000
00000000
00000000
00000000
00000000
,  // measure 13
00001000
00000010
00000100
00000001
00000010
00000100
00001000
00000000
,  // measure 14
00000100
00010000
00002000
00000000
00013000
00000000
00011000
00000000
,  // measure 15
00010000
00001000
00200000
00000000
00310000
00000000
00110000
00000000
,  // measure 16
20000000
00000000
30000000
00000000
00100000
01000000
00010000
00000000
,  // measure 17
20000000
00000000
30000000
00000000
01000000
00100000
00010000
00000000
,  // measure 18
00200000
00302000
00023000
00030200
,  // measure 19
00000300
00001000
00001000
00000001
00000100
00000000
00001001
00000000
,  // measure 20
00002010
00003001
00000012
00001003
,  // measure 21
00000001
00000100
00001000
00010000
00001000
00000100
00000001
00000000
,  // measure 22
00001010
00001100
00010100
00011000
,  // measure 23
00100000
00100000
00010000
01000000
01000000
00100000
10000000
00000000
,  // measure 24
20100000
00000000
30010000
00000000
01020000
00000000
10030000
10000000
,  // measure 25
00010000
01000000
01000000
00100000
10000000
00000000
00010000
00000000
,  // measure 26
10000000
00000000
00000000
00010000
00000000
00000000
01000000
00000000
01000000
00000000
00000000
00000000
10010000
00000000
00000000
00000000
,  // measure 27
00010000
00000000
00000000
10000000
00000000
00000000
00100000
00000000
00100000
00000000
00000000
00000000
10010000
00000000
00000000
00000000
,  // measure 28
10000000
02000000
00000000
00000000
03100000
00000000
00000000
00000000
00010000
02000000
00000000
00000000
03100000
00000000
00000000
00000000
,  // measure 29
10000000
00100000
01000000
00010000
00100000
00001000
00010000
00000000
,  // measure 30
00001000
00020000
00000000
00000000
00030100
00000000
00000000
00000000
00010000
00002000
00000000
00000000
00003100
00000000
00000010
00000000
,  // measure 31
00001000
00000100
00000010
00000001
00000100
00000000
00000010
00000000
,  // measure 32
00000001
00000100
00000000
00000000
00000110
00000000
00000000
00000000
00001000
00000100
00000000
00000000
00000110
00000000
00000010
00000000
,  // measure 33
00000001
00001000
00000010
00000100
00000010
00001000
00000100
00000000
,  // measure 34
00001100
00000000
00000000
00010000
00000000
00000000
00001000
00000000
00000000
00000000
00000000
00000000
00011000
00000000
00000000
00000000
,  // measure 35
00010000
00000000
00000000
00001000
00000000
00000000
00100000
00000000
00000000
00000000
00000000
00000000
00110000
00000000
00000000
00000000
,  // measure 36
20000000
00000000
00000000
00000000
31000000
00000000
00200000
00000000
00000000
00000000
00310000
00000000
02000000
00000000
00000000
03000000
,  // measure 37
00200000
00000000
00000000
00300000
10000000
00000000
00010000
00000000
00000000
00000000
00100000
00000000
00100000
00000000
00001000
00000000
,  // measure 38
00020000
00000000
00000000
00030000
00000100
00000000
00002000
00000000
00000000
00000000
00003010
00000000
00000200
00000000
00000000
00000000
,  // measure 39
00000302
00000000
00001003
00000200
00000000
00000310
00000010
00000001
,  // measure 40
00000100
00001000
00000100
00000010
00001000
00000100
00000110
00000000
,  // measure 41
00000020
00000000
00000031
00001000
00000200
00000000
00001300
00000010
,  // measure 42
00000200
00001000
00000010
00000301
,  // measure 43
00000100
00000000
00000000
00000001
00000000
00000000
00001000
00000000
00000000
00000000
00000000
00000000
00000010
00000000
00000000
00000000
,  // measure 44
00001001
00000010
00001001
00000010
00001001
00000010
00001001
00000000
,  // measure 45
00000001
00000100
00001000
00010000
00001000
00100000
00010000
00000000
,  // measure 46
10010000
01000000
10010000
01000000
10010000
01000000
10010000
00000000
,  // measure 47
10000000
00100000
00010000
00001000
00010000
00001000
00000010
00000000
,  // measure 48
00000110
00000000
00000011
00000000
00001100
00000000
00000001
00001000
,  // measure 49
00000010
00000010
00000100
00000001
00001000
00000100
00010000
00000000
,  // measure 50
00010100
00000000
00000000
00011000
00000000
00000000
00010100
00000000
00000000
00000000
00000000
00000000
00010000
00000000
00000000
00000000
,  // measure 51
00011000
00000000
00000000
00101000
00000000
00000000
00011000
00000000
00000000
00000000
00000000
00000000
00020000
00000000
00000000
00000000
,  // measure 52
00030000
00000000
00000000
00000000
;
