#VERSION:0.82;
#TITLE:Prayer;
#SUBTITLE:;
#ARTIST:Disturbed;
#TITLETRANSLIT:;
#SUBTITLETRANSLIT:;
#ARTISTTRANSLIT:;
#GENRE:Awk!;
#ORIGIN:;
#CREDIT:;
#BANNER:Prayer.png;
#BACKGROUND:Prayer-bg.png;
#PREVIEWVID:;
#JACKET:jacket.png;
#CDIMAGE:;
#DISCIMAGE:;
#LYRICSPATH:;
#CDTITLE:;
#MUSIC:Prayer.ogg;
#OFFSET:-0.180000;
#SAMPLESTART:46.153160;
#SAMPLELENGTH:17.959999;
#SELECTABLE:YES;
#DISPLAYBPM:99.000000;
#BPMS:0.000=99.110,
127.000=102.750,
128.000=99.090,
141.000=94.490,
142.000=99.090,
215.000=102.930,
216.000=99.730;
#STOPS:;
#DELAYS:;
#WARPS:;
#TIMESIGNATURES:0.000=4=4;
#TICKCOUNTS:0.000=4;
#COMBOS:0.000=1;
#SPEEDS:0.000=1.000=0.000=0;
#SCROLLS:0.000=1.000;
#FAKES:;
#LABELS:0.000=Song Start;
#BGCHANGES:1.750=Prayer.avi=1.000=0=0=1=====,
99999=-nosongbg-=1.000=0=0=0 // don't automatically add -songbackground-
;
#KEYSOUNDS:;
#ATTACKS:
;

//---------------dance-single - ----------------
#NOTEDATA:;
#CHARTNAME:;
#STEPSTYPE:dance-single;
#DESCRIPTION:;
#CHARTSTYLE:;
#DIFFICULTY:Hard;
#METER:9;
#RADARVALUES:0.584162,0.612957,0.117673,0.191219,0.871516,514.000000,16.000000,26.000000,0.000000,0.000000,0.000000,0.000000,0.000000,0.584162,0.612957,0.117673,0.191219,0.871516,514.000000,16.000000,26.000000,0.000000,0.000000,0.000000,0.000000,0.000000;
#CREDIT:Ben Speirs;
#DISPLAYBPM:99.000000;
#NOTES:
0000
0000
0000
0000
,
0000
0000
0000
0000
0000
0000
0000
0000
0000
0000
0000
0000
0000
0000
0000
1000
,
0000
1100
0000
1000
0100
0010
0001
0100
0000
0101
0000
0001
0100
0010
1000
0001
,
0000
1001
0000
1000
0100
0010
0001
1000
0000
1001
0000
0001
0010
0200
0000
1300
,
0000
1000
0000
0100
1000
0100
1000
0001
0000
0001
0000
0100
0001
0100
0001
1000
,
0000
1000
0000
0010
1000
0010
1000
0001
0000
0001
0000
0010
0001
0010
0001
1000
,
0000
1000
0000
0001
0010
0100
1000
0010
0000
0010
0000
0100
0001
1000
0010
0100
,
0000
0100
0000
0001
1000
0100
0010
0001
0000
0001
0000
1000
0010
0200
0000
0301
,
0000
1000
0100
1000
0001
0000
0100
0001
0100
0001
1000
0000
0010
0000
1000
0100
,
1000
0000
0001
0010
0000
0001
0000
1000
0000
0010
0000
0100
0001
0000
1000
0000
,
0001
1000
0100
1000
0001
0000
1000
0010
1000
0010
0100
0000
0001
0000
1000
0000
,
0010
0100
0010
1000
0001
0000
0010
0100
0010
0001
0000
1000
0000
0010
0100
0001
,
0000
0001
0000
0100
0010
0000
1000
0100
0000
0100
0000
1000
0010
0000
0100
0010
,
0000
0010
0000
1000
0100
0000
0010
0001
0000
0001
0000
1000
0100
1000
0001
0100
,
0000
0100
0000
0010
1000
0000
0001
0010
0000
0010
0000
0001
1000
0000
0010
0000
,
1000
0100
1000
0100
0010
0000
0001
0100
0001
0100
0000
0010
0000
1000
0001
0000
,
2002
0000
0000
0000
3003
0000
0010
0100
0000
0100
0000
0010
1000
0100
0010
0000
,
0001
0000
0001
0010
0000
0010
0100
0000
1000
0000
1000
0010
0000
0010
0100
0000
,
2002
0000
0000
0000
3003
0000
0100
0010
0000
0010
0000
0100
0001
0010
0100
0000
,
2000
0000
0000
3200
0000
0000
0320
0000
0031
0010
0100
1000
0010
0100
0001
1000
,
0020
0000
0000
0130
0001
0000
0100
0000
0000
0010
1000
0000
0100
0000
0000
0000
,
1000
0000
1000
0100
0000
0100
0010
0000
0001
0000
1000
0000
0010
0000
0100
0000
,
0002
0000
0000
0000
1003
0000
0010
0100
0010
0000
1000
0000
0001
0000
0010
0000
,
0100
0000
0100
0010
0000
0010
0001
0000
1000
0100
1000
0001
0010
0000
0001
0100
,
0020
0000
0000
1000
0000
0000
0230
0000
0000
0000
0301
0000
1000
0000
0001
0000
,
1000
0100
1000
0100
0010
0000
0001
0100
0001
0100
0010
0000
1000
0000
0001
0000
,
0200
0000
0000
0000
0310
0000
1000
0010
0100
0001
1000
0000
0001
0000
0010
0000
,
0001
0000
0001
1000
0000
1000
0010
0000
1000
0100
0000
0010
0001
1000
0001
0100
,
0000
0100
0000
0010
1000
0010
1000
0001
0000
0001
0000
0010
0001
0010
0001
1000
,
0000
1000
0000
0100
1000
0100
1000
0001
0000
0001
0000
1000
0100
0000
0010
0002
,
0000
0100
0000
0100
,
0000
0100
0000
0103
,
1001
0000
0000
0100
0000
0000
0100
0000
,
0000
0000
0100
0000
0100
0000
0000
0000
0100
0000
0000
0100
0000
0000
0100
0000
,
1001
0000
0000
0010
0000
0000
0010
0000
,
0000
0000
0010
0000
0000
0000
0000
0000
0010
0000
0000
0010
0000
0000
0010
0000
,
1000
0100
0000
0100
0010
0000
1000
0100
0000
0100
0010
0000
1000
0100
0000
0100
,
0010
0000
0000
1000
0000
0100
0010
0000
0001
0000
0001
0000
1000
0100
1000
0000
,
0001
0010
0000
0010
0100
0000
0001
0010
0000
0010
0100
0000
0001
0010
0000
0010
,
0100
0000
0000
0001
0000
0010
0100
0000
0110
0000
0000
0011
0000
0000
1001
0000
,
1000
0100
0010
0001
1000
0000
0001
0010
0100
1000
0001
0000
1000
0100
0010
0001
,
1000
0000
0000
0001
0010
0100
1000
0000
0001
0100
0001
0000
1000
0000
0010
0000
,
1000
0010
0100
0001
1000
0000
0001
0100
0010
1000
0001
0000
1000
0010
0100
0001
,
2000
0000
3002
0000
0203
0000
0320
0000
2030
0000
0000
3002
0000
0000
0103
0000
,
2001
0000
0000
3010
0100
0000
0001
0000
0000
0100
0001
0000
0010
0000
0000
0000
,
0001
0000
0001
0010
0000
0010
0100
0000
1000
0000
0001
0000
0100
0000
0010
0000
,
2000
0000
0000
0000
3001
0000
0100
0010
0100
0000
0001
0000
1000
0000
0100
0000
,
0010
0000
0010
0100
0000
0100
1000
0000
0001
0010
0001
1000
0100
0000
1000
0010
,
0200
0000
0000
0001
0000
0000
0320
0000
0000
0000
1030
0000
0001
0000
1000
0000
,
0001
0010
0001
0010
0100
0000
1000
0010
1000
0010
0100
0000
0001
0000
1000
0000
,
0020
0000
0000
0000
0130
0000
0001
0100
0010
1000
0001
0000
1000
0000
0100
0000
,
1000
0000
1000
0001
0000
0001
0100
0000
0001
0010
0000
0100
1000
0001
1000
0010
,
0000
0010
0000
0100
0001
0100
0001
1000
0000
1000
0000
0100
1000
0100
1000
0001
,
0000
0001
0000
0010
0001
0010
0001
1000
0000
1000
0000
0001
0010
0100
1000
0100
,
0000
1100
0000
1000
0100
1000
0100
0010
0000
0011
0000
0001
0010
0100
1000
0001
,
0000
1001
0000
1000
0010
0100
0001
1000
0000
1001
0000
0000
0000
0000
0000
0000
;

//---------------dance-double - ----------------
#NOTEDATA:;
#CHARTNAME:;
#STEPSTYPE:dance-double;
#DESCRIPTION:;
#CHARTSTYLE:;
#DIFFICULTY:Challenge;
#METER:9;
#RADARVALUES:0.593618,0.612957,0.301537,0.227991,0.816357,493.000000,41.000000,31.000000,0.000000,0.000000,0.000000,0.000000,0.000000,0.593618,0.612957,0.301537,0.227991,0.816357,493.000000,41.000000,31.000000,0.000000,0.000000,0.000000,0.000000,0.000000;
#CREDIT:Ben Speirs;
#DISPLAYBPM:99.000000;
#NOTES:
// measure 0
00000000
00000000
00000000
00000000
,  // measure 1
00000000
00000000
00000000
00000000
00000000
00000000
00000000
00000000
00000000
00000000
00000000
00000000
00000000
00000000
00000000
10000000
,  // measure 2
00000000
11000000
00000000
10000000
01000000
00000000
00100000
00010000
00000000
00110000
00000000
00100000
00001000
00000000
00100000
00001000
,  // measure 3
00000000
00011000
00000000
00010000
00000100
00000000
00010000
00000010
00000000
00001000
00000000
00000010
00001000
00000002
00000000
00000103
,  // measure 4
00000000
00000101
00000000
00000001
00000100
00000010
00000100
00000001
00000000
00001001
00000000
00001000
00000100
00000010
00000100
00001000
,  // measure 5
00000000
00001001
00000000
00000001
00000010
00000100
00001000
00000001
00000000
00000011
00000000
00001000
00000100
00001000
00000100
00010000
,  // measure 6
00000000
00010100
00000000
00000100
00010000
00001000
00100000
00001000
00000000
00101000
00000000
00100000
00010000
01000000
00100000
10000000
,  // measure 7
00000000
10100000
00000000
10000000
00100000
01000000
00010000
10000000
00000000
10010000
00000000
00010000
10000000
00200000
00000000
10300000
,  // measure 8
00000000
00010000
01000000
00010000
10000000
00000000
00100000
10000000
00100000
10000000
00010000
00000000
00100000
00000000
00010000
10000000
,  // measure 9
00010000
00000000
10000000
01000000
00000000
01000000
00000000
00100000
00000000
00010000
00000000
10000000
00100000
00000000
10000000
00010000
,  // measure 10
00000000
00100000
00000000
00010000
00100000
00000000
00001000
00100000
00001000
00100000
00001000
00000000
00020000
00000000
00000000
00000000
,  // measure 11
00030100
00000000
00001000
00000010
00000100
00000000
00000010
00001000
00000100
00000010
00000000
00000001
00000000
00001000
00000010
00002000
,  // measure 12
00000000
00003001
00000000
00000100
00000010
00000000
00001000
00000002
00000000
00000013
00000000
00000001
00001000
00000000
00000010
00000000
,  // measure 13
00000100
00000001
00000100
00000001
00000000
00001000
00000000
00000010
00000000
00000100
00000000
00000001
00001000
00000001
00001000
00000100
,  // measure 14
00000000
00000100
00000000
00010000
00001000
00000000
00010000
00000100
00001000
00000100
00000010
00000000
00000001
00000000
00001000
00000000
,  // measure 15
00000010
00000100
00000010
00001000
00000001
00000000
00000010
00000100
00000010
00000001
00001000
00000010
00000100
00000001
00001000
00000000
,  // measure 16
00002002
00000000
00000000
00000000
00003003
00000000
00000001
00000100
00000000
00000100
00000000
00000100
00001000
00000000
00010000
00000000
,  // measure 17
00001000
00010000
00001000
00100000
00010000
00000000
01000000
00000000
00010000
10000000
00010000
10000000
00100000
00000000
01000000
00000000
,  // measure 18
20020000
00000000
00000000
00000000
30030000
00000000
10000000
01000000
00000000
01000000
00000000
00010000
01000000
00000000
10000000
00000000
,  // measure 19
00020000
00000000
00000000
02030000
00000000
00000000
03200000
00000000
10300000
01000000
10000000
00100000
01000000
00010000
10000000
00000000
,  // measure 20
00200000
00000000
00000000
01300000
00010000
00000000
20000000
00000000
00000000
01000000
00000000
00000000
30010000
00000000
00000000
00000000
,  // measure 21
10000000
01000000
00100000
01000000
00100000
00000000
00010000
00000000
10000000
00000000
00100000
00000000
01000000
00000000
00010000
00000000
,  // measure 22
00200000
00000000
00000000
00000000
00310000
00000000
00100000
00001000
00100000
00000000
00001000
00000000
00020000
00000000
00000000
00000000
,  // measure 23
00030100
00001000
00000100
00000020
00000000
00000000
00000031
00000000
00001000
00000010
00001000
00000001
00000100
00000000
00000010
00001000
,  // measure 24
00000002
00000000
00000000
00000100
00000000
00000000
00002003
00000000
00000000
00000000
00000100
00000000
00003100
00000000
00000000
00000000
,  // measure 25
00000001
00000010
00000100
00002000
00000000
00000000
00003001
00000000
00000100
00000000
00000010
00000000
00001000
00000000
00000001
00000000
,  // measure 26
00000200
00000000
00000000
00000000
00000310
00001000
00000010
00000100
00000001
00000000
00001000
00000000
00000100
00000000
00000000
00000000
,  // measure 27
00001100
00000000
00000000
00010100
00000000
00000000
00011000
00000000
00100000
00001000
00100000
00001000
00010000
00100000
10000000
01000000
,  // measure 28
00000000
11000000
00000000
10000000
01000000
00000000
10000000
00010000
00000000
01010000
00000000
01000000
00010000
00000000
10000000
00100000
,  // measure 29
00000000
10100000
00000000
10000000
01000000
00000000
00100000
00010000
00000000
00110000
00000000
00010000
10000000
00100000
01000000
00020000
,  // measure 30
00000000
01000000
00000000
10000000
,  // measure 31
00000000
00100000
00000000
10030000
,  // measure 32
10010000
00000000
00000000
00010000
00000000
00000000
10000000
00000000
,  // measure 33
00000000
00000000
00010000
00000000
10000000
00010000
00000000
00000000
10010000
00000000
00000000
00011000
00000000
00000000
00000100
00000000
,  // measure 34
00001001
00000000
00000000
00000001
00000000
00000000
00001000
00000000
,  // measure 35
00000000
00000000
00000001
00000000
00001000
00000001
00000000
00000000
00001001
00000000
00000000
00011000
00000000
00000000
10010000
00000000
,  // measure 36
10000000
01000000
00000000
01000000
00010000
00000000
10000000
01000000
00000000
01000000
00010000
00000000
10000000
01000000
00000000
01000000
,  // measure 37
00010000
00000000
00000000
10000000
01000000
01000000
00010000
00000000
10000000
00000000
01000000
00000000
00100000
00010000
10000000
00000000
,  // measure 38
00010000
00100000
00000000
00100000
10000000
00000000
00010000
00100000
00000000
00100000
10000000
00000000
00010000
00100000
00000000
00100000
,  // measure 39
10000000
00000000
00010000
00100000
00100000
10000000
00010000
00000000
00110000
00000000
00000000
00011000
00000000
00000000
00001100
00000000
,  // measure 40
00000001
00000010
00000000
00000010
00001000
00000000
00000001
00000010
00000000
00000010
00001000
00000000
00000001
00000010
00000000
00000010
,  // measure 41
00001000
00000000
00000000
00000001
00000010
00000010
00001000
00000000
00000001
00000000
00000010
00000000
00000100
00001000
00000001
00000000
,  // measure 42
00001000
00000100
00000000
00000100
00000001
00000000
00001000
00000100
00000000
00000100
00000001
00000000
00001000
00000100
00000000
00000100
,  // measure 43
00000001
00000000
00001000
00000000
00000100
00000000
00010000
00000000
00000100
00000000
00000100
00001000
00000000
00001000
00000001
00000000
,  // measure 44
00000200
00000000
00000000
00000310
00001000
00000000
00000002
00000000
00000000
00000010
00000000
00000000
00001003
00000000
00000000
00000000
,  // measure 45
00000001
00000010
00000100
00000010
00000100
00000000
00001000
00000000
00000001
00000000
00000100
00000000
00000010
00000000
00001000
00000000
,  // measure 46
00000200
00000000
00000000
00000000
00001300
00000000
00000100
00010000
00000100
00000000
00010000
00000000
00002000
00000000
00000000
00000000
,  // measure 47
00103000
00010000
00100000
02000000
00000000
00000000
13000000
00000000
00010000
01000000
00010000
10000000
00100000
00000000
01000000
00010000
,  // measure 48
20000000
00000000
00000000
00100000
00000000
00000000
30020000
00000000
00000000
00000000
00100000
00000000
00130000
00000000
00000000
00000000
,  // measure 49
10000000
01000000
00100000
00020000
00000000
00000000
10030000
00000000
00100000
00000000
01000000
00000000
00010000
00000000
10000000
00000000
,  // measure 50
00200000
00000000
00000000
00000000
01300000
00010000
01000000
00100000
10000000
00000000
00010000
00000000
00100000
00000000
00000000
00000000
,  // measure 51
00110000
00000000
00000000
00101000
00000000
00000000
00011000
00000000
00000100
00010000
00000100
00010000
00001000
00000100
00000001
00000010
,  // measure 52
00000000
00000011
00000000
00000001
00000010
00000000
00000001
00001000
00000000
00001010
00000000
00000010
00001000
00000000
00000001
00000100
,  // measure 53
00000000
00000101
00000000
00000001
00000010
00000000
00000100
00001000
00000000
00001100
00000000
00001000
00000001
00000100
00000010
00001000
,  // measure 54
00000000
00001001
00000000
00000001
00000010
00000100
00001000
00000100
00000000
00001100
00000000
00000100
00001000
00000100
00010000
00001000
,  // measure 55
00000000
00011000
00000000
00001000
00010000
00001000
00100000
00010000
00000000
10010000
00000000
00000000
00000000
00000000
00000000
00000000
;

//---------------dance-single - ----------------
#NOTEDATA:;
#CHARTNAME:;
#STEPSTYPE:dance-single;
#DESCRIPTION:;
#CHARTSTYLE:;
#DIFFICULTY:Medium;
#METER:6;
#RADARVALUES:0.370880,0.388206,0.169155,0.147091,0.066191,310.000000,23.000000,20.000000,0.000000,0.000000,0.000000,0.000000,0.000000,0.370880,0.388206,0.169155,0.147091,0.066191,310.000000,23.000000,20.000000,0.000000,0.000000,0.000000,0.000000,0.000000;
#CREDIT:Ben Speirs;
#DISPLAYBPM:99.000000;
#NOTES:
0000
0000
0000
0000
,
0000
0000
0000
0000
,
1000
0100
1100
0000
0001
0100
0101
0000
,
1000
0000
0100
0000
0010
0000
0001
0000
1000
0000
0010
0000
0100
0001
0000
0000
,
1000
1000
1010
0000
0001
0001
0011
0000
,
1000
1000
1100
0000
0001
0001
0101
0000
,
1000
0100
1000
0001
0010
0001
1000
0010
,
0100
0000
0001
0000
0010
0000
0100
0000
1000
0000
0001
0000
0100
0020
0000
0000
,
1030
1000
0100
1000
0001
0001
0010
0001
,
1000
0010
0100
0001
1000
0100
0010
0000
,
0001
0001
0010
0001
1000
1000
0010
0100
,
0001
1000
0100
0010
0001
1000
0010
0000
,
1001
1000
0100
0000
1000
0001
0100
0000
,
0001
1000
0010
0000
1000
0100
0010
0000
,
0100
1000
0100
1000
0010
0100
0001
0000
,
1000
0001
1000
0010
0100
0001
1000
0000
,
2001
0000
0000
0000
0000
0000
0100
0000
0000
0100
0000
0000
3100
0000
0000
0000
,
1000
0100
0010
0001
1000
0010
0100
0000
,
1002
0000
0000
0000
0000
0000
0100
0000
0000
0100
0000
0000
0103
0000
0000
0000
,
0001
0100
0010
1000
0100
0010
0001
0000
,
2000
0000
3100
1000
0000
0001
0100
0000
,
0020
0000
1030
0010
0000
0100
0001
0000
,
2000
0000
3001
0010
0000
0100
1000
0000
,
0002
0000
2003
0000
3010
1000
0001
0000
,
2002
0000
3003
0000
0010
1000
0001
0000
,
1000
0100
1000
0001
1000
0010
1000
0000
,
0002
0000
1003
0200
0000
0000
0310
0000
,
0001
0010
0001
0000
1000
0010
1000
0000
,
0001
0001
0101
0000
1000
1000
1100
0000
,
0001
0010
0011
0000
1000
0010
1010
0000
,
0002
0100
0000
0100
,
0000
0100
0000
0103
,
1001
0000
0000
0000
,
0000
0000
0000
0000
,
1001
0000
0000
0000
,
0000
0000
0000
0000
0000
0000
0000
0000
0100
0000
0000
0100
0000
0000
0100
0000
,
1000
0100
1000
0001
1000
0100
1000
0001
,
1000
0000
0001
1000
0001
0100
0010
1000
,
0001
0100
0001
1000
0001
0100
0001
1000
,
0001
0000
0000
0000
0100
0000
0001
0000
1000
0000
0000
0001
0000
0000
1000
0000
,
0010
0000
0110
0100
0001
1000
0100
0000
,
0010
0000
0110
0100
1000
0010
0100
0000
,
0001
0100
0010
1000
0100
0010
0001
1000
,
0010
0000
0100
0000
0100
0000
0010
0000
0010
0000
0000
1000
0000
0000
0001
0000
,
2001
0000
0000
0000
3100
0010
0001
0000
,
1000
0100
1000
0001
0010
0001
1000
0010
,
0200
0000
0301
2000
0000
0000
3100
0000
,
1000
0001
1000
0000
0010
1000
0001
1000
,
0020
0000
0000
0000
0130
0001
1000
0000
,
0001
0000
0000
0001
0000
0000
0100
0000
0010
0000
0000
0000
1000
0000
0000
0000
,
0200
0000
0000
0000
0310
0000
0002
0000
0000
0003
1000
0000
0200
0000
0000
0000
,
1300
0010
1000
0000
0001
0010
0001
0000
,
1000
0100
1100
0000
0001
0100
0101
0000
,
1000
0010
1010
0000
0001
0010
0011
0000
,
0000
0000
0000
1000
0100
1000
0100
1000
0000
0000
0000
0001
0100
0001
0100
0001
,
0000
0000
0000
1000
0010
1000
0010
1000
0000
0001
0000
0000
0000
0000
0000
0000
;

//---------------dance-single - ----------------
#NOTEDATA:;
#CHARTNAME:;
#STEPSTYPE:dance-single;
#DESCRIPTION:;
#CHARTSTYLE:;
#DIFFICULTY:Easy;
#METER:3;
#RADARVALUES:0.164952,0.244355,0.058837,0.095609,0.000000,136.000000,8.000000,13.000000,0.000000,0.000000,0.000000,0.000000,0.000000,0.164952,0.244355,0.058837,0.095609,0.000000,136.000000,8.000000,13.000000,0.000000,0.000000,0.000000,0.000000,0.000000;
#CREDIT:Ben Speirs;
#DISPLAYBPM:99.000000;
#NOTES:
0000
0000
0000
0000
,
0000
0000
0000
0000
,
1000
0000
0001
0000
,
0100
0000
0100
0010
,
1000
0000
0100
0000
,
1000
0000
0001
0000
,
0100
0000
0010
0000
,
0100
0000
0001
0010
,
0001
0000
1000
0000
,
0010
0010
1000
0001
,
0100
0000
0001
0000
,
1000
1000
0100
0000
,
1001
0000
1000
0000
,
0010
0010
1000
1000
,
0001
0000
0100
0000
,
0010
0010
1000
0000
,
2002
3003
1000
0000
,
0010
0010
0100
0000
,
2002
3003
0001
0000
,
0010
0100
0100
0000
,
2000
3000
1000
0000
,
0100
1000
0010
0010
,
0100
0000
0001
0000
,
1000
0100
0010
0000
,
2002
3003
0001
0000
,
0100
0100
0010
1000
,
0100
0000
0010
0000
,
0001
0001
1000
1000
,
0010
0000
0100
0000
,
0001
0000
1000
0100
,
2002
0000
0000
0000
,
0000
0000
0000
3003
,
0010
0000
0000
0000
,
0000
0000
0000
0000
,
0010
0000
0000
0000
,
0000
0000
0010
0010
,
1000
0100
1000
0100
,
1000
0000
0100
1000
,
0001
0100
0001
0100
,
0001
0000
0100
0100
,
0001
0010
0001
0010
,
0001
0000
0010
0001
,
1000
0010
1000
0010
,
1000
0000
0001
0000
,
2002
3003
1000
0000
,
0010
0010
0100
0100
,
0001
0000
1000
0000
,
0100
1000
0010
0000
,
2002
3003
1000
0000
,
0010
0010
1000
1000
,
0100
0000
0010
0000
,
0001
0001
1000
0000
,
1001
0000
1000
0000
,
0010
0000
0100
0000
,
0000
1000
0000
0001
,
0000
0000
0100
0100
0000
0000
0000
0000
;

//---------------dance-single - ----------------
#NOTEDATA:;
#CHARTNAME:;
#STEPSTYPE:dance-single;
#DESCRIPTION:;
#CHARTSTYLE:;
#DIFFICULTY:Beginner;
#METER:1;
#RADARVALUES:0.099812,0.162536,0.051482,0.000000,0.000000,88.000000,7.000000,0.000000,0.000000,0.000000,0.000000,0.000000,0.000000,0.099812,0.162536,0.051482,0.000000,0.000000,88.000000,7.000000,0.000000,0.000000,0.000000,0.000000,0.000000,0.000000;
#CREDIT:Ben Speirs;
#DISPLAYBPM:99.000000;
#NOTES:
0000
0000
0000
0000
,
0000
0000
0000
0000
,
0001
0000
0000
0000
,
1000
0000
0010
0000
,
0100
0000
0000
0000
,
0001
0000
1000
0000
,
0010
0000
0000
0000
,
1000
0000
0100
0000
,
0010
0000
0000
0000
,
0001
0001
0000
0000
,
1000
0000
0000
0000
,
0010
0010
0000
0000
,
1001
0000
0000
0000
,
1000
1000
0000
0000
,
0100
0000
0000
0000
,
1000
0000
0001
0000
,
1001
0000
0000
0000
,
0010
0010
0010
0000
,
1001
0000
0000
0000
,
0100
0100
0100
0000
,
1000
0000
0000
0000
,
0001
0000
1000
0000
,
0010
0000
0000
0000
,
1000
0000
0001
0000
,
0100
0000
0000
0000
,
0001
0000
1000
0000
,
0010
0000
0000
0000
,
1000
1000
0000
0001
,
0001
0000
0000
0000
,
0100
0000
0100
0000
,
1001
0000
0000
0000
,
0000
0000
0000
0000
,
1001
0000
0000
0000
,
0000
0000
0000
0000
,
0010
0000
0000
0000
,
0000
0000
0010
0000
,
1000
1000
1000
1000
,
1000
0000
1000
0000
,
0001
0001
0001
0001
,
0001
0000
1001
0000
,
0100
0000
0100
0000
,
0010
0000
0010
0000
,
1000
0000
1000
0000
,
0001
0000
0001
0000
,
1001
0000
0000
0000
,
1000
0000
0010
0000
,
0100
0000
0000
0000
,
0100
0100
0000
0001
,
0001
0000
0000
0000
,
1000
0000
0001
0000
,
0010
0000
0000
0000
,
0001
0001
0000
1000
,
1000
0000
0000
0000
,
0010
0000
0000
0000
,
0000
0100
0000
0100
,
0000
0100
0000
0000
;
