#TITLE:Cosmic Love;
#SUBTITLE:(Seven Lions Remix);
#ARTIST:ODESZA;
#TITLETRANSLIT:;
#SUBTITLETRANSLIT:;
#ARTISTTRANSLIT:;
#GENRE:;
#CREDIT:;
#BANNER:Cosmic Love (Seven Lions Remix).png;
#BACKGROUND:Cosmic Love (Seven Lions Remix)-bg.png;
#LYRICSPATH:;
#CDTITLE:;
#MUSIC:Cosmic Love (Seven Lions Remix).ogg;
#OFFSET:-1.640000;
#SAMPLESTART:56.472836;
#SAMPLELENGTH:14.694003;
#SELECTABLE:YES;
#BPMS:0.000000=140.039993
;
#STOPS:
;
#BGCHANGES:;
#KEYSOUNDS:;
#ATTACKS:;

//---------------dance-single - ----------------
#NOTES:
     dance-single:
     :
     Hard:
     8:
     0.448342,0.557208,0.254021,0.245827,0.065554,383.000000,352.000000,31.000000,30.000000,0.000000,0.000000,0.448342,0.557208,0.254021,0.245827,0.065554,383.000000,352.000000,31.000000,30.000000,0.000000,0.000000:
0000
0000
0000
0000
,
0000
0000
0000
0000
,
0000
0000
0000
0000
,
0000
0000
0000
0000
,
0000
0000
0000
0000
,
0000
0000
0000
0000
,
0000
0000
0000
0000
,
0000
0000
0000
0000
,
0001
2000
3020
0000
,
0130
0000
0001
1000
1000
0000
0001
0000
,
0200
0310
1000
0001
,
2000
0000
3100
1000
0001
0000
1000
0000
,
0102
0100
1000
1003
,
2000
0100
0001
3001
,
0002
1003
0020
0130
,
0002
0023
0230
0300
,
1100
0100
1000
1100
0000
0000
0000
0000
,
0101
0100
0001
0101
0000
0000
0000
0000
,
1001
1000
0001
1001
0000
0000
0000
0000
,
0001
0010
0100
1000
0010
0100
0001
0000
,
1010
0010
1000
1010
0000
0000
0000
0000
,
0011
0010
0001
0011
0000
0000
0000
0000
,
1001
1000
0001
1001
0000
0000
0000
0000
,
1000
0100
0010
0001
0100
0010
1000
0000
,
0001
0100
0010
0100
1000
0100
0010
0000
,
1000
0010
0100
0010
0001
0010
1000
0000
,
0010
1000
0100
1000
0001
1000
0100
0000
,
1000
0001
0100
0001
1000
0001
0010
0000
,
0001
0010
0100
1000
0001
0010
0100
1000
,
0001
0100
0010
1000
0001
0100
0010
1000
,
0001
0100
1000
0100
0001
0010
0100
1000
,
0001
0010
1000
0010
0001
1000
0010
0100
,
2002
3000
0103
0000
,
2002
0003
3200
0310
,
0011
1100
1001
0000
,
0200
0000
0000
0000
0301
0100
0010
1000
,
1001
0000
0110
0000
1002
0000
0000
0000
0103
0000
0000
0000
0001
1000
0001
0000
,
2000
0000
3200
0320
,
0031
0100
0010
0100
0001
0010
0100
1000
,
0001
1000
0010
0100
0001
1000
0100
1000
,
0001
0000
0100
0001
0000
0100
0001
0000
2000
0000
0000
0000
0000
0000
0000
0000
,
3020
0000
0000
0130
0001
1000
0001
1000
,
1100
0000
0011
0000
0001
0010
0100
1000
,
0002
0000
0003
0000
1000
0100
0001
0100
,
1000
1010
0101
0000
2002
0000
3003
0000
,
1010
0000
0010
1000
0200
0000
0320
0000
,
0031
0010
0100
1000
0001
0100
0010
1000
,
0100
0000
0100
0000
0010
0000
0001
0000
1000
0000
0000
0000
0000
0000
0001
0100
,
0001
0000
0001
0000
1000
0000
0010
0000
0000
0000
1000
0000
0001
0000
1000
0100
,
1000
0000
1000
0000
0001
0000
1000
0000
0000
0000
0010
0000
1000
0000
0001
0010
,
0001
0000
0001
0000
1000
0000
0001
0000
0000
0000
0100
0000
0001
0000
1000
0010
,
1000
1000
0001
1000
0000
0001
0100
0000
,
0010
0110
0100
0001
0000
0100
0010
1000
,
0100
1100
1000
0001
0000
1000
0010
1000
,
0001
0011
0010
0001
0000
1000
0001
1000
,
0010
1010
1000
0002
0000
1003
0010
0000
,
1000
0000
0100
1000
0100
0000
1000
0000
0001
0000
1000
0000
0001
0000
1000
0000
,
0010
0000
0100
0001
0100
0000
0010
0000
1000
0000
0010
0000
1000
0000
0010
0000
,
1000
0000
0100
0010
0100
0000
0010
0000
0001
0000
0010
0000
0001
0000
0010
0000
,
0001
0000
1000
0100
1000
0000
0001
0000
0100
0000
0001
0000
0100
0000
0001
0000
,
1000
0000
0100
1000
0100
0000
0010
0000
0001
0000
1000
0000
0010
0000
0100
0000
,
0001
0000
0100
0010
0100
0000
0001
0000
0010
0000
0100
0000
1000
0000
0001
0000
,
1000
0000
0010
0100
0010
0000
1000
0000
0001
0000
0010
0000
0100
0000
1000
0001
,
1000
0000
0001
0100
0001
0000
1000
0000
1000
0000
0010
0000
0100
0000
0001
0000
,
2000
0100
0000
0001
0000
0100
0000
0100
,
0000
0000
0000
0000
,
0000
0000
0000
0000
,
0000
0000
0000
0000
,
3001
0000
0000
0000
;

//---------------dance-single - ----------------
#NOTES:
     dance-single:
     :
     Medium:
     5:
     0.273922,0.473627,0.081942,0.245827,0.000000,234.000000,224.000000,10.000000,30.000000,0.000000,0.000000,0.273922,0.473627,0.081942,0.245827,0.000000,234.000000,224.000000,10.000000,30.000000,0.000000,0.000000:
0000
0000
0000
0000
,
0000
0000
0000
0000
,
0000
0000
0000
0000
,
0000
0000
0000
0000
,
0000
0000
0000
0000
,
0000
0000
0000
0000
,
0000
0000
0000
0000
,
0000
0000
0000
0000
,
1000
0010
0100
0000
,
0001
1000
0100
0000
,
0010
0001
1000
0000
,
0001
1000
0010
0100
,
0001
0001
0100
0000
,
0010
0010
1000
0000
,
0001
0001
0010
0000
,
0100
1000
0001
0000
,
1000
0100
1000
0100
0000
0000
0000
0000
,
0010
0001
0010
0001
0000
0000
0000
0000
,
1000
0001
1000
0001
0000
0000
0000
0000
,
0002
0103
0020
1030
,
0001
1000
0001
1000
0000
0000
0000
0000
,
1000
0100
1000
0100
0000
0000
0000
0000
,
0010
0001
0010
0001
0000
0000
0000
0000
,
0002
1003
0002
0103
,
1001
0000
1000
0100
1000
0000
0001
0000
,
0100
0000
0001
0100
0001
0000
0000
0000
,
1010
0000
0010
1000
0010
0000
1000
0000
,
0001
0010
0100
1000
,
1100
0000
0100
1000
0100
0000
1000
0000
,
0001
0000
0100
0001
0100
0000
0000
0000
,
0001
1000
0001
1000
0001
1000
0001
1000
,
0010
0100
0010
0100
0010
0100
0010
0100
,
0002
0000
0103
0000
,
2002
0003
3200
0320
,
0032
0000
1003
0000
,
0202
0000
0303
0000
1000
0100
0010
0001
,
2000
0000
3100
0000
,
1002
0000
0103
0001
,
2000
3010
0002
0013
,
2000
3100
0002
0103
,
0001
1000
0001
1000
0020
0000
0030
0000
,
2002
3000
0100
0103
,
0001
1000
0010
0000
,
2002
0000
3003
0000
1000
0100
0010
0001
,
2000
0100
3001
0000
,
0202
0303
1000
0001
,
0100
0100
0010
0010
,
2000
3001
0002
1003
,
0001
0000
0010
0001
0000
0000
1000
0000
,
0001
0000
1000
0100
0000
0000
1000
0000
,
0001
0000
1000
0010
0000
0000
1000
0000
,
0001
0000
0010
0000
0100
1000
0100
0000
,
1000
0000
0001
0100
0000
0000
0001
0000
,
1000
0000
0010
0100
0000
0000
0010
0000
,
1000
0000
0001
0010
0000
0000
0001
0000
,
1000
0000
0100
1000
0100
0000
1000
0000
,
0001
0010
0001
0010
0000
0000
0000
0000
,
0001
0100
0001
0100
0000
0000
0000
0000
,
0001
1000
0001
1000
0000
0000
0000
0000
,
1000
0100
1000
0100
0000
0000
0000
0000
,
1000
0100
0100
0010
0000
0000
0000
0000
,
0001
1000
1000
0010
0000
0000
0000
0000
,
1000
0010
0010
0100
0000
0000
0000
0000
,
0010
0100
0100
0001
0000
0000
1000
0000
,
2002
0000
0000
0000
,
0000
0000
0000
0000
,
0000
0000
0000
0000
,
0000
0000
0000
0003
,
3100
0000
0000
0000
;

//---------------dance-single - ----------------
#NOTES:
     dance-single:
     :
     Easy:
     3:
     0.180273,0.250744,0.040971,0.155690,0.000000,154.000000,149.000000,5.000000,19.000000,0.000000,0.000000,0.180273,0.250744,0.040971,0.155690,0.000000,154.000000,149.000000,5.000000,19.000000,0.000000,0.000000:
0000
0000
0000
0000
,
0000
0000
0000
0000
,
0000
0000
0000
0000
,
0000
0000
0000
0000
,
0000
0000
0000
0000
,
0000
0000
0000
0000
,
0000
0000
0000
0000
,
0000
0000
0000
0000
,
1000
0000
0001
0000
,
0100
0000
0100
0000
,
0001
0000
0000
0000
,
1000
0100
0010
0001
,
1000
0000
1000
0000
,
0010
0000
0100
0000
,
0002
0000
0003
0000
,
1000
0000
0000
0000
,
0001
0010
0001
0000
,
1000
0100
1000
0000
,
0001
0100
0001
0000
,
1000
0000
0001
0000
,
1000
0010
1000
0000
,
0010
0100
0010
0000
,
0100
0001
0100
0000
,
0001
0000
1000
0000
,
0001
0010
0100
0000
,
1000
0010
0100
0000
,
0010
1000
0001
0000
,
1000
0000
0001
0000
,
1000
0100
1000
0100
,
0100
0010
0100
0010
,
0010
0001
0010
0001
,
0001
1000
0001
0000
,
2002
3003
0000
0000
,
0200
0000
0300
0000
,
0002
0003
1000
0000
,
0020
0030
1000
0000
,
0001
0001
0010
0000
,
2002
0000
3003
0000
,
1000
1000
0100
0100
,
0010
0010
0001
0000
,
2000
3100
2002
3003
,
0002
0000
0103
0000
,
0002
0003
1000
0000
,
0020
0030
1000
0001
,
0100
0100
0010
0000
,
2002
0000
3003
0000
,
0001
0001
1000
1000
,
0020
0000
0030
0000
,
1000
0010
0000
0010
,
1000
0100
0000
0100
,
0010
0001
0000
0001
,
1000
0010
0000
0000
,
0010
0100
0000
0100
,
0001
1000
0000
1000
,
0100
0010
0000
0010
,
0001
1000
0000
0000
,
0001
0100
0001
0001
,
1000
0100
0010
0000
,
1000
0100
1000
1000
,
0100
0010
0001
0000
,
0100
0100
0001
0000
,
1000
1000
0010
0000
,
1000
0100
0010
0000
,
0001
1000
0010
0000
,
2002
0000
0000
0000
,
0000
0000
0000
0000
,
0000
0000
0000
0000
,
0000
0000
0003
0000
,
3010
0000
0000
0000
;

//---------------dance-single - ----------------
#NOTES:
     dance-single:
     :
     Beginner:
     2:
     0.111207,0.222883,0.016388,0.000000,0.000000,95.000000,93.000000,2.000000,0.000000,0.000000,0.000000,0.111207,0.222883,0.016388,0.000000,0.000000,95.000000,93.000000,2.000000,0.000000,0.000000,0.000000:
0000
0000
0000
0000
,
0000
0000
0000
0000
,
0000
0000
0000
0000
,
0000
0000
0000
0000
,
0000
0000
0000
0000
,
0000
0000
0000
0000
,
0000
0000
0000
0000
,
0000
0000
0000
0000
,
0010
0000
0000
0000
,
1000
0000
0000
0000
,
0001
0000
0000
0000
,
0100
0000
0100
0000
,
0100
0000
0000
0000
,
0001
0000
0000
0000
,
1000
0000
0000
0000
,
0000
0000
0000
0000
,
0010
0010
0000
0000
,
1000
1000
0000
0000
,
0001
0001
0000
0000
,
0100
0000
0100
0000
,
0001
0001
0000
0000
,
1000
1000
0000
0000
,
0100
0100
0000
0000
,
1000
0000
0000
0000
,
0001
0001
0000
0000
,
0010
0010
0000
0000
,
0100
0100
0000
0000
,
0100
0000
0100
0000
,
1000
1000
0000
0000
,
0001
0001
0000
0000
,
0100
0100
0100
0000
,
0010
0010
0010
0000
,
1001
0000
0000
0000
,
0010
0000
0000
0000
,
1000
1000
1000
0000
,
1000
0000
0000
0000
,
0001
0001
0000
0000
,
0100
0000
0000
0000
,
0001
0000
0001
0000
,
0000
0000
1000
0000
,
0010
0000
0010
0000
,
0100
0000
0000
0000
,
0001
0000
0000
0000
,
1000
0000
0000
0000
,
0100
0100
0000
0000
,
1000
0000
0000
0000
,
0001
0000
0001
0000
,
1000
0000
0000
0000
,
1000
1000
0000
0000
,
0010
0010
0000
0000
,
0100
0100
0000
0000
,
0001
0000
0000
0000
,
0000
1000
0000
1000
,
0000
0001
0000
0001
,
0000
1000
0000
1000
,
0000
0000
0000
0000
,
0010
0010
0000
0000
,
0100
0100
0000
0000
,
0001
0001
0000
0000
,
1000
0000
0000
0000
,
0001
0000
0000
0001
,
0001
0000
0000
1000
,
1000
0000
0000
0000
,
0010
0000
0010
0000
,
0001
0000
0000
0000
,
0000
0000
0000
0000
,
0000
0000
0000
0000
,
0000
0000
0000
0000
,
1001
0000
0000
0000
;

//---------------dance-double - ----------------
#NOTES:
     dance-double:
     :
     Challenge:
     8:
     0.456536,0.557208,0.237633,0.303187,0.049165,390.000000,361.000000,29.000000,37.000000,0.000000,0.000000,0.456536,0.557208,0.237633,0.303187,0.049165,390.000000,361.000000,29.000000,37.000000,0.000000,0.000000:
// measure 0
00000000
00000000
00000000
00000000
,  // measure 1
00000000
00000000
00000000
00000000
,  // measure 2
00000000
00000000
00000000
00000000
,  // measure 3
00000000
00000000
00000000
00000000
,  // measure 4
00000000
00000000
00000000
00000000
,  // measure 5
00000000
00000000
00000000
00000000
,  // measure 6
00000000
00000000
00000000
00000000
,  // measure 7
00000000
00000000
00000000
00000000
,  // measure 8
00020000
00031000
00002000
00013000
,  // measure 9
00000200
00000000
00001300
00000010
00000200
00000000
00000301
00000000
,  // measure 10
00002000
00003010
00000020
00000130
,  // measure 11
00000010
00001000
00000100
00000000
00001000
00000100
00010000
00000000
,  // measure 12
00002000
00013000
00002000
00103000
,  // measure 13
00200000
00000000
00310000
10000000
00200000
00000000
02300000
00000000
,  // measure 14
03020000
01000000
10000000
00100000
,  // measure 15
20030000
32000000
03200000
00300000
,  // measure 16
00110000
00100000
00010000
00110000
00000000
00000000
00000000
00000000
,  // measure 17
00011000
00001000
00010000
00011000
00000000
00000000
00000000
00000000
,  // measure 18
00001100
00000100
00001000
00001100
00000000
00000000
00000000
00000000
,  // measure 19
00000010
00001000
00000100
00000010
00000001
00000100
00000010
00000000
,  // measure 20
00000101
00000100
00000001
00000101
00000000
00000000
00000000
00000000
,  // measure 21
00001010
00001000
00000010
00001010
00000000
00000000
00000000
00000000
,  // measure 22
00010100
00010000
00000100
00010100
00000000
00000000
00000000
00000000
,  // measure 23
00000100
00010000
00001000
00100000
00010000
10000000
00100000
00000000
,  // measure 24
10100000
10000000
01000000
10000000
00100000
01000000
00010000
00000000
,  // measure 25
01010000
01000000
00100000
01000000
00010000
00100000
00001000
00000000
,  // measure 26
00101000
00001000
00010000
00000100
00001000
00000010
00000100
00000000
,  // measure 27
00000110
00001100
00000101
00001001
,  // measure 28
00001001
00001000
00000010
00000100
00000001
00000010
00000100
00001000
,  // measure 29
00000010
00000010
00001000
00000100
00010000
00010000
00001000
00100000
,  // measure 30
00010000
01000000
00100000
10000000
01000000
00100000
00010000
01000000
,  // measure 31
00100000
00010000
00001000
00000010
00000001
00000100
00000010
00001000
,  // measure 32
00000202
00000300
00001003
00000000
,  // measure 33
00002002
00000003
00000100
00003010
,  // measure 34
00001002
00000000
00000103
00000000
00001000
00000010
00000100
00000001
,  // measure 35
00002000
00000000
00003100
00000000
00001000
00000100
00010000
00001000
,  // measure 36
00100000
00010000
00010000
00000000
20020000
00000000
30030000
00000000
,  // measure 37
22000000
00000000
33000000
00000000
00010000
10000000
00100000
01000000
,  // measure 38
00010000
01000000
10000000
01000000
00010000
00100000
00001000
00010000
,  // measure 39
00000010
00000100
00000010
00001000
00000100
00000010
00000001
00000000
,  // measure 40
00001000
00000000
00000100
00000010
00000000
00000100
00000010
00000000
00000002
00000000
00000000
00000000
00000103
00000000
00000001
00000000
,  // measure 41
00001000
00000010
00001000
00000001
00000100
00000010
00001000
00000100
,  // measure 42
00020000
00000000
00032000
00000000
00103000
00010000
01000000
00100000
,  // measure 43
20000000
00000000
30010000
00000000
10000000
01000000
00100000
00010000
,  // measure 44
01000000
01010000
01010000
00000000
10010000
00000000
00000000
00000000
,  // measure 45
12000000
00000000
03100000
00000000
01000000
00100000
00010000
00000000
,  // measure 46
00100000
00010000
01000000
00000000
00100000
10000000
01000000
00000000
,  // measure 47
10000000
01000000
00010000
00000000
00001000
00000100
00000001
00000000
,  // measure 48
00000100
00000010
00000100
00000001
00000010
00000100
00001000
00000010
,  // measure 49
00000100
00001000
00000100
00000010
00001000
00000100
00010000
00000000
,  // measure 50
00000100
00010000
00001000
00100000
00001000
00010000
00100000
10000000
,  // measure 51
01000000
00000000
00100000
00000000
01000000
00000000
00100000
00000000
00010000
00000000
10000000
00000000
00100000
00000000
01000000
00010000
,  // measure 52
01000000
00000000
00100000
00000000
10000000
00000000
00100000
00000000
10000000
00000000
00100000
00000000
10000000
00000000
01000000
00100000
,  // measure 53
01000000
00000000
00100000
00000000
00010000
00000000
00100000
00000000
00010000
00000000
00100000
00000000
00010000
00000000
00100000
00001000
,  // measure 54
00100000
00000000
00001000
00000000
00010000
00000000
00001000
00000000
00010000
00000000
00001000
00000000
00010000
00000000
00000100
00001000
,  // measure 55
00000100
00001000
00000010
00001000
00000010
00001000
00000001
00000000
,  // measure 56
00000100
00000000
00000010
00000100
00000010
00000000
00000100
00000000
00000001
00000000
00000010
00000000
00000100
00000000
00001000
00000100
,  // measure 57
00001000
00000000
00000001
00000100
00000001
00000000
00000100
00000000
00000010
00000000
00001000
00000000
00000100
00000000
00000000
00000000
,  // measure 58
00001000
00000000
00000100
00010000
00000100
00000000
00010000
00000000
00001000
00000000
00100000
00000000
00010000
00000000
01000000
00010000
,  // measure 59
01000000
00000000
00010000
10000000
00010000
00000000
10000000
00000000
01000000
00000000
00100000
00000000
00010000
00000000
01000000
00000000
,  // measure 60
00002000
00010000
00023000
00000100
00030100
00001000
00000010
00000100
,  // measure 61
00000002
00000100
00000203
00000010
00000310
00001000
00000100
00000010
,  // measure 62
00000002
00000010
00000023
00000100
00000130
00001000
00000010
00000100
,  // measure 63
00000001
00000100
00000010
00001000
00000100
00010000
00001000
00100000
,  // measure 64
02000000
00010000
00000000
10000000
00000000
00100000
00000000
00100000
,  // measure 65
00000000
00000000
00000000
00000000
,  // measure 66
00000000
00000000
00000000
00000000
,  // measure 67
00000000
00000000
00000000
00000000
,  // measure 68
13000000
00000000
00000000
00000000
;
