#TITLE:Connected;
#SUBTITLE:(Yours Forever);
#ARTIST:Tetris Effect Sound Team;
#TITLETRANSLIT:;
#SUBTITLETRANSLIT:;
#ARTISTTRANSLIT:;
#GENRE:;
#CREDIT:;
#BANNER:Connected (Yours Forever).png;
#BACKGROUND:Connected (Yours Forever)-bg.png;
#LYRICSPATH:;
#CDTITLE:;
#MUSIC:Connected (Yours Forever).ogg;
#OFFSET:-0.884000;
#SAMPLESTART:79.768906;
#SAMPLELENGTH:15.714003;
#SELECTABLE:YES;
#BPMS:0.000000=96.000000
;
#STOPS:
;
#BGCHANGES:2.500=Connected (Yours Forever).avi=1.000=0=0=1=====,
99999=-nosongbg-=1.000=0=0=0 // don't automatically add -songbackground-
;
#KEYSOUNDS:;
#ATTACKS:;

//---------------dance-single - ----------------
#NOTES:
     dance-single:
     :
     Hard:
     6:
     0.297426,0.326689,0.144774,0.420533,0.000000,302.000000,281.000000,21.000000,61.000000,0.000000,0.000000,0.297426,0.326689,0.144774,0.420533,0.000000,302.000000,281.000000,21.000000,61.000000,0.000000,0.000000:
// measure 0
0000
0000
0000
0000
,  // measure 1
0000
0000
0000
0000
,  // measure 2
0000
0000
0000
0000
,  // measure 3
0000
0000
0000
0000
,  // measure 4
0002
0010
0010
0100
,  // measure 5
2003
0100
0100
0010
,  // measure 6
3020
0001
0001
1000
,  // measure 7
0230
1000
1000
0001
,  // measure 8
0302
0000
0023
0000
0230
0000
1300
0001
,  // measure 9
2000
0000
3200
0000
0320
0000
0031
0100
,  // measure 10
0002
0000
0203
0000
0320
0000
1030
0001
,  // measure 11
2000
0000
3200
0000
0320
0000
0031
0100
,  // measure 12
0020
0000
2030
0000
3100
0000
1100
0100
,  // measure 13
0020
0000
0032
0000
0203
0000
0301
1000
,  // measure 14
0020
0000
0230
0000
0301
0000
0101
0100
,  // measure 15
0020
0000
2030
0000
3200
0000
1300
0001
,  // measure 16
0100
0010
0100
0001
2000
0000
3100
1000
,  // measure 17
0010
0200
0000
0301
1000
0000
1002
0000
,  // measure 18
0103
0001
1000
0001
0100
0000
1001
0000
,  // measure 19
0001
1000
0100
1000
0001
0000
1001
0000
,  // measure 20
1000
0010
0100
0010
2000
0000
3001
0010
,  // measure 21
0100
0020
0000
0031
1000
0001
0100
0000
,  // measure 22
0001
0100
0010
0100
0001
0000
0101
0000
,  // measure 23
1000
0100
0010
0100
1000
0000
0020
0000
,  // measure 24
0230
0001
0300
1001
,  // measure 25
0001
0010
0100
0000
1000
0010
0100
0000
,  // measure 26
0020
1000
0030
1001
,  // measure 27
1000
0100
0010
0000
0100
1000
0001
0000
,  // measure 28
2000
0100
3000
0011
,  // measure 29
0010
0001
1000
0001
0100
0000
0010
1000
,  // measure 30
0002
0100
0003
1010
,  // measure 31
1000
0100
0010
0100
1000
0000
0110
0000
,  // measure 32
0001
0010
0100
1000
0010
0100
1001
0000
,  // measure 33
0001
1000
0010
0100
0001
0000
2000
0000
,  // measure 34
3100
1000
0010
0100
0001
0010
1001
0000
,  // measure 35
0001
1000
0100
0010
0001
0100
0020
0000
,  // measure 36
0130
0001
0100
1000
0100
0000
1001
0000
,  // measure 37
1000
0100
0010
0001
1000
0001
0100
0000
,  // measure 38
0010
0100
0010
0001
0010
1000
0010
0000
,  // measure 39
0100
0001
1000
0001
2000
0000
3100
0000
,  // measure 40
0002
1000
0100
0000
0103
0000
1001
0000
,  // measure 41
2000
0001
0100
0000
3100
0000
1001
0000
,  // measure 42
1000
0020
0000
0230
0000
0310
1000
0000
,  // measure 43
0001
0020
0000
0230
0000
0310
0001
0000
,  // measure 44
0010
0001
0100
0000
0010
0010
1001
0000
,  // measure 45
2000
0100
3002
0103
,  // measure 46
1020
0000
0130
0010
1000
0001
1001
0000
,  // measure 47
2000
3100
0002
0013
,  // measure 48
0001
1000
0010
0100
0001
1000
0100
0100
,  // measure 49
0010
0001
1000
0010
0100
0001
2000
0000
,  // measure 50
3001
1000
0010
0100
0001
1000
0100
0100
,  // measure 51
0010
0001
1000
0010
0100
0001
1000
0000
,  // measure 52
0202
0000
0000
0000
0303
0100
0001
1000
,  // measure 53
0200
0320
0032
1003
,  // measure 54
2200
0000
0000
0000
0000
0000
0000
3300
0000
0000
1000
0000
0100
0000
0010
0000
,  // measure 55
0002
2003
3020
0130
;

//---------------dance-single - ----------------
#NOTES:
     dance-single:
     :
     Challenge:
     8:
     0.442200,0.557292,0.144774,0.213714,0.199926,449.000000,428.000000,21.000000,31.000000,0.000000,0.000000,0.442200,0.557292,0.144774,0.213714,0.199926,449.000000,428.000000,21.000000,31.000000,0.000000,0.000000:
0000
0000
0000
0000
,
0000
0000
0000
0000
,
0000
0000
0000
0000
,
0000
0000
0000
0000
,
2000
0100
0001
0100
0001
0100
0001
0100
,
0001
0100
0001
0100
0001
0100
0001
0100
,
3002
0100
1000
0100
1000
0100
1000
0100
,
1000
0100
1000
0100
1000
0100
1000
0100
,
2003
0100
3200
0010
0320
0031
1001
0000
,
0002
0100
0203
0010
0320
1030
0100
0000
,
2000
0010
3020
0100
0230
0301
0101
0000
,
0002
0010
0023
0100
0230
1300
0001
0000
,
1000
0000
0010
0000
0100
0000
0001
0000
1000
0000
0100
0010
0001
0000
0000
0000
,
0010
0001
0100
0010
1000
0001
0100
0000
,
0001
0000
0100
0000
0001
0000
0010
0000
0001
0000
1000
0100
0010
0000
0000
0000
,
0100
1000
0010
0100
0001
1000
1002
0000
,
0103
0001
1000
0010
0100
0001
1000
0100
,
0010
0001
1000
0010
0200
0000
0302
0000
,
1003
0000
0100
1000
0001
0000
0100
0001
1000
0000
0100
0000
0110
0000
0000
0000
,
1000
0000
0100
1000
0001
0000
0100
0001
1000
0000
0010
0000
0110
0000
0000
0000
,
0001
0100
0010
1000
0100
1000
0010
0100
,
0001
1000
0100
0010
0002
0000
2003
0000
,
3010
0000
1000
0001
0010
0000
0001
1000
0010
0000
0100
0000
1001
0000
0000
0000
,
0001
0000
0010
0001
1000
0000
0010
1000
0001
0000
0100
0000
1001
0000
0000
0010
,
0200
0000
0001
0000
0310
0000
0110
0100
,
0001
1000
0100
1000
0010
0100
0001
1000
,
0001
0200
0000
0000
0010
0000
0000
0000
0301
0000
0000
0000
0101
0000
0100
0000
,
0010
0000
1000
0000
0100
0000
0010
0000
0001
0000
1000
0000
0001
0000
0000
1000
,
0020
0100
0230
0000
0301
0000
0101
0100
,
0010
0000
1000
0000
0100
0000
0010
0000
0001
0000
1000
0000
0010
0000
0000
1000
,
0200
0000
0010
0010
0310
0000
0110
0000
,
0010
0000
0001
0000
1000
0000
0001
0000
0100
0000
0010
0000
1000
0000
0000
0001
,
0010
0100
1000
0000
0010
0000
0100
0000
0001
0000
1000
0000
0010
0000
0100
0000
,
0001
1000
0001
1000
0010
0100
0001
1000
,
0010
1000
0001
0000
0100
0000
0010
0000
0100
0000
0001
0000
1000
0000
0100
0000
,
0010
0000
0010
0000
0100
0000
1000
0000
0010
0000
0100
0000
0001
0000
1000
0100
,
0010
0010
0001
1000
0010
0100
0001
1000
,
0001
0000
0100
0000
0010
0000
1000
0000
0001
0000
0010
0000
0100
0000
1000
0100
,
0010
0001
1000
0000
0001
0000
1000
0000
0010
0000
0100
0000
0001
0000
1000
0000
,
0010
0100
0001
0000
0100
0000
0010
1000
0100
0000
0010
0000
0001
0000
0000
0000
,
1100
0100
0010
0001
0100
0010
0110
0100
,
1001
0001
0100
0010
1000
0100
1100
0000
,
0011
0010
0100
1000
0010
0100
0110
0100
,
1001
1000
0100
1000
1010
0010
0200
0000
,
0302
0010
0010
1000
1000
0103
0101
0000
,
2000
0010
0010
0001
0001
3100
1100
0000
,
0100
1000
0001
1000
0010
0100
0001
1000
,
0100
0010
0001
0100
0100
0100
0100
0000
,
0001
0100
0001
0100
0001
0100
0001
0100
0001
0100
0001
0100
0010
0000
0000
0000
,
1000
0100
1000
0100
1000
0100
1000
0100
1000
0100
1000
0100
0010
0000
0000
0000
,
0001
1000
0001
1000
0001
1000
0001
1000
0001
1000
0001
1000
0010
0000
0000
0000
,
1000
0001
1000
0001
1000
0001
1000
0001
1000
0001
1000
0001
0100
0000
0000
0000
,
0001
0010
0001
0010
0001
0100
0001
0100
0001
1000
0001
1000
0001
0000
0001
0000
,
1000
0100
1000
0100
1000
0001
1000
0001
1000
0010
1000
0010
1000
0000
0001
0000
,
0200
0000
0010
0000
0310
0100
0001
1000
,
0200
0320
0032
0103
;

//---------------dance-double - ----------------
#NOTES:
     dance-double:
     :
     Challenge:
     8:
     0.385078,0.424669,0.144774,0.296441,0.086175,391.000000,370.000000,21.000000,43.000000,0.000000,0.000000,0.385078,0.424669,0.144774,0.296441,0.086175,391.000000,370.000000,21.000000,43.000000,0.000000,0.000000:
00000000
00000000
00000000
00000000
,
00000000
00000000
00000000
00000000
,
00000000
00000000
00000000
00000000
,
00000000
00000000
00000000
00000000
,
00002000
00010000
00100000
00010000
00100000
00010000
00100000
00010000
,
00023000
00001000
00000010
00001000
00000010
00001000
00000010
00001000
,
00032000
00010000
01000000
00010000
01000000
00010000
01000000
00010000
,
00023000
00001000
00000100
00001000
00000100
00001000
00000100
00031000
,
00002000
00000100
00003200
00000001
00000301
00000000
00001001
00000000
,
00000001
00000010
00000100
00001000
00000010
00000100
00000001
00000000
,
00000200
00000010
00000320
00001000
00002030
00003100
00001001
00000000
,
00000001
00000010
00000100
00001000
00000010
00010000
00001000
00000000
,
00020000
00100000
00230000
10000000
10300000
00000000
10010000
00000000
,
10000000
01000000
00100000
00010000
01000000
00100000
10000000
00000000
,
00200000
01000000
02300000
00010000
03020000
00130000
10010000
00000000
,
10000000
01000000
00100000
00010000
01000000
00001000
00021000
00000000
,
00030010
00001000
00000100
00000010
00000001
00000100
00000010
00001000
,
00000100
00000010
00000001
00001000
00000020
00000000
00000230
00000000
,
00000310
00000000
00001000
00000100
00001000
00000000
00000100
00010000
00001000
00000000
00100000
00000000
00010000
00000000
00000000
00000000
,
01000000
00010000
10000000
00100000
01000000
00000000
10010000
00000000
,
10000000
01000000
00100000
00010000
01000000
00100000
01000000
00010000
,
10000000
01000000
00100000
00010000
02000000
00000000
03020000
00000000
,
10030000
00000000
00010000
01000000
00010000
00000000
01000000
00001000
01000000
00000000
00001000
00000000
00010000
00000000
00000000
00000000
,
00000100
00000000
00001000
00000000
00000010
00000000
00000100
00000000
00000001
00000000
00001000
00000000
00000010
00000000
00000000
00010000
,
00002000
00010000
00013000
00011000
,
00001000
00010000
00100000
10000000
01000000
00010000
00001000
00000000
,
00010000
00002000
00000000
00000000
00010000
00000000
00000000
00000000
00013000
00000000
00000000
00000000
00011000
00000000
00000000
00000000
,
00010000
00000000
00001000
00000000
00000010
00000000
00000001
00000000
00000100
00000000
00001000
00000000
00010000
00000000
00000000
00001000
,
00020000
00001000
00031000
00011000
,
00001000
00000000
00010000
00000000
01000000
00000000
10000000
00000000
00100000
00000000
00010000
00000000
00001000
00000000
00000000
00010000
,
00002000
00010000
00013000
00011000
,
00010000
00001000
00000100
00000001
00000010
00001000
00010000
00000000
,
00012000
00000000
00100000
00000000
00203000
00000000
00010000
00300000
00020000
00000000
01030000
00000000
00100000
00000000
10000000
00000000
,
01000000
00100000
00010000
01000000
00100000
10000000
01000000
00100000
,
00010000
10000000
00010000
00000000
01000000
00000000
00100000
00000000
10000000
00000000
01000000
00000000
00100000
00000000
00010000
00000000
,
01000000
00000000
00001000
00000000
00010000
00000000
00000100
00000000
00001000
00000000
00000010
00000000
00000100
00000000
00000001
00001000
,
00000010
00000010
00000100
00000001
00000010
00000100
00001000
00000001
,
00000200
00000000
00000010
00000300
00000020
00000000
00001000
00000000
00001030
00000000
00000100
00000000
00010000
00000000
00001000
00010000
,
00001000
00010000
00001000
00000000
00100000
00000000
00010000
00000000
01000000
00000000
00100000
00000000
10000000
00000000
01000000
10000000
,
01000000
00100000
00010000
01000000
00100000
00010000
00001000
00000000
,
00010200
00000000
00000310
00000001
00000100
00000010
00001000
00000000
,
00020100
00000000
00031000
00100000
00010000
01000000
00100000
00000000
,
10020000
00001000
10030000
10010000
,
00012000
00000000
00013000
00000100
00001000
00000010
00000100
00000000
,
00001002
00000000
00000103
00001000
00000100
00000010
00001000
00000100
,
00020000
00100000
00031000
00011000
,
00001000
00010000
01000000
10000000
00100000
01000000
00010000
00100000
,
00001000
00010000
00000100
00001000
00001000
00001000
00000001
00000000
,
00001000
00000100
00001000
00000100
00001000
00000000
00000001
00000000
00000100
00000000
00000010
00000000
00001010
00000000
00000000
00000000
,
00000001
00000100
00000001
00000100
00000001
00000000
00000010
00000000
00000010
00000000
00000001
00000000
00001001
00000000
00000000
00000000
,
00010000
00000100
00010000
00000100
00010000
00000000
00000100
00000000
00010000
00000000
00001000
00000000
00100000
00000000
00010000
00000000
,
01000000
00100000
01000000
00100000
01000000
00000000
00010000
00000000
01000000
00000000
00100000
00000000
10000000
00000000
00000000
00000000
,
00010000
00100000
00010000
00100000
00010000
00100000
00010000
00100000
00010000
00000000
10000000
00000000
00100000
00000000
01000000
00000000
,
00002000
00003020
00000032
00000103
,
00002002
00000000
00000000
00000000
00003003
00000001
00000100
00001000
,
00020000
00230000
20300000
02000000
,
33000000
00000000
00000000
00000000
;

//---------------dance-single - ----------------
#NOTES:
     dance-single:
     :
     Medium:
     3:
     0.180228,0.211387,0.062046,0.261971,0.000000,183.000000,174.000000,9.000000,38.000000,0.000000,0.000000,0.180228,0.211387,0.062046,0.261971,0.000000,183.000000,174.000000,9.000000,38.000000,0.000000,0.000000:
0000
0000
0000
0000
,
0000
0000
0000
0000
,
0000
0000
0000
0000
,
0000
0000
0000
0000
,
2000
3000
0100
0100
,
0020
0030
0001
0001
,
0200
0300
0010
0010
,
2000
3000
0001
0001
,
2002
0000
0000
0000
3003
0000
0001
1000
,
0020
0000
0030
0100
,
0002
0000
0000
0000
0003
0000
0100
0001
,
2000
0000
3000
0100
,
0010
0010
0001
0000
,
0100
0100
0010
0000
,
1000
0001
0010
0000
,
0001
1000
0100
0000
,
1000
0010
0100
0001
,
0010
0100
1000
1000
,
0001
0000
0000
0000
0001
1000
0010
0000
,
0001
0000
0000
0000
1000
0001
0010
0000
,
1000
0100
1000
0010
,
0100
0001
0010
0010
,
0001
0000
0010
0001
0100
0000
0000
0000
,
0010
0000
0010
1000
0100
0000
0000
0000
,
2002
0000
0000
3003
,
0001
1000
0010
0100
,
2002
0000
0000
3003
,
1000
0100
0010
0001
,
2002
0000
0000
3003
,
0001
0100
0010
1000
,
2002
0000
0000
3003
,
1000
0100
0200
0300
,
1000
0100
0010
0110
,
0010
0001
1000
0000
,
0001
0100
0010
0110
,
0100
0001
1000
0000
,
0100
1000
0001
0100
,
0010
0000
1000
0100
1000
0000
0000
0000
,
0010
1000
0100
0010
,
0001
0000
0100
0001
0100
0000
0000
0000
,
1002
0103
0001
1000
,
0200
0000
1300
0000
0001
0010
0001
0000
,
2000
3000
0010
0010
,
0200
0300
0002
0003
,
2000
3100
1000
0001
,
0200
0000
0301
0000
1000
0001
0100
0000
,
0002
0003
0100
0100
,
0020
0030
2000
3000
,
0001
0100
0001
0100
0001
0000
0000
0000
,
1000
0100
1000
0100
1000
0000
0000
0000
,
0002
0013
0001
1000
,
2000
3010
1000
0000
,
0001
0100
0001
0000
1000
0000
1000
0000
,
0200
0320
0032
0003
,
2002
0000
3003
1000
,
0020
0230
0302
1003
;

//---------------dance-single - ----------------
#NOTES:
     dance-single:
     :
     Easy:
     2:
     0.089622,0.115302,0.020682,0.110304,0.000000,91.000000,88.000000,3.000000,16.000000,0.000000,0.000000,0.089622,0.115302,0.020682,0.110304,0.000000,91.000000,88.000000,3.000000,16.000000,0.000000,0.000000:
0000
0000
0000
0000
,
0000
0000
0000
0000
,
0000
0000
0000
0000
,
0000
0000
0000
0000
,
0002
0000
0000
0003
,
2000
0000
0000
3000
,
0020
0000
0000
0030
,
0200
0000
0000
0300
,
0002
0003
0000
0001
,
0200
0300
0000
0100
,
0002
0003
0000
0001
,
2000
3000
0000
1000
,
0200
0300
0000
0100
,
2000
3000
0000
1000
,
0020
0030
0000
0010
,
0200
0300
0000
0100
,
0001
0000
0001
0000
,
1000
0000
1000
0000
,
0020
0000
0030
0010
,
0000
0000
0000
0000
,
1000
0000
1000
0000
,
0001
0000
0001
0000
,
0200
0000
0300
0100
,
0000
0000
0000
0000
,
1001
0000
0000
0000
,
0001
0000
0001
0000
,
0010
0000
0000
0000
,
0001
0000
1000
0000
,
0010
0000
0000
0000
,
1000
0000
1000
0000
,
0100
0000
0000
0000
,
1000
0000
1000
0000
,
1001
0000
0000
0000
,
0001
0001
0001
0000
,
0100
0000
0000
0000
,
0100
0100
0100
0000
,
0010
0000
0000
0000
,
0010
0010
0010
0000
,
1000
0000
0000
0000
,
1000
1000
1000
0000
,
1001
0000
0000
0000
,
0010
0000
0000
0000
,
1000
0000
0000
0000
,
0100
0000
0010
0000
,
0001
0000
0000
0000
,
1000
0000
0000
0000
,
0010
0000
0000
0000
,
0100
0000
0001
0000
,
1000
0000
0000
0010
,
0100
0000
0000
0001
,
0001
0000
0000
1000
,
0100
0000
0010
0000
,
0002
0000
0003
0000
,
1000
1000
0001
0001
,
2000
0000
3000
0000
,
0001
0001
1000
1000
;

//---------------dance-single - ----------------
#NOTES:
     dance-single:
     :
     Beginner:
     1:
     0.067955,0.094792,0.013788,0.000000,0.000000,69.000000,67.000000,2.000000,0.000000,0.000000,0.000000,0.067955,0.094792,0.013788,0.000000,0.000000,69.000000,67.000000,2.000000,0.000000,0.000000,0.000000:
0000
0000
0000
0000
,
0000
0000
0000
0000
,
0000
0000
0000
0000
,
0000
0000
0000
0000
,
1000
0000
0000
0000
,
0001
0000
0000
0000
,
0100
0000
0000
0000
,
0001
0000
0000
0000
,
1000
1000
0000
0000
,
1000
0000
0000
0000
,
0010
0010
0000
0000
,
0010
0000
0000
0000
,
0100
0100
0000
0000
,
0100
0000
0000
0000
,
0001
0001
0000
0000
,
0001
0000
0000
0000
,
1000
0000
1000
0000
,
1000
0000
0000
0000
,
0100
0000
0000
0000
,
0100
0000
0000
0000
,
1000
0000
1000
0000
,
1000
0000
0000
0000
,
0001
0000
0000
0000
,
0001
0000
0000
0000
,
0100
0000
0000
0000
,
0001
0000
0000
0000
,
1000
0000
0000
0000
,
0010
0000
0000
0000
,
1000
0000
0000
0000
,
0001
0000
0000
0000
,
0100
0000
0000
0000
,
0001
0000
0000
0000
,
1001
0000
0000
0000
,
1000
0000
1000
0000
,
1000
0000
0000
0000
,
0010
0000
0010
0000
,
0010
0000
0000
0000
,
0100
0000
0100
0000
,
0100
0000
0000
0000
,
0001
0000
0000
0000
,
1001
0000
0000
0000
,
0001
0000
0000
0000
,
1000
0000
0000
0000
,
0010
0000
0010
0000
,
0010
0000
0000
0000
,
1000
0000
0000
0000
,
0001
0000
0000
0000
,
0100
0000
0100
0000
,
0100
0000
0000
0001
,
0001
0000
0000
0000
,
1000
0000
0000
1000
,
1000
0000
0000
0000
,
0010
0000
0000
0000
,
0010
0010
0010
0000
,
0010
0000
0000
0000
,
0100
0000
0000
0000
;
