#TITLE:TiK ToK;
#ARTIST:Ke$ha;
#FILE:TiK ToK.mp3;
#BPM:120.000;
#GAP:240;
#SAMPLESTART:47.660;
#SAMPLELENGTH:15.400;
#FREEZE:746.000=980.000;
#CHANGEBPM:232.000=60.000,244.000=120.000;
#SINGLE:BEGINNER:1:
00000000
00000000
00000000
00000000
00000000
00000000
00000000
00000000
40000000
80000000
20000000
60000000
80000000
20000000
40000000
00800000
00400040
00400000
00600060
00600000
00800080
00800000
00600000
00B00000
00400000
20200000
00400000
80800000
00200020
00200000
00600000
00800000
00200020
00000000
00400040
00000000
00800080
00000000
40000000
00606000
00606000
00404000
00404000
00600000
00200000
00800000
00800000
00000000
00002020
00000000
00004040
00000000
00000080
00800080
008000B0
;
#SINGLE:ANOTHER:5:
00000000
00000000
00000000
00000000
00000000
00000000
00000000
00000000
80422020
40622020
60488080
40600000
40622020
60422020
4080A!A080
00306040
80402220
40204080
20608060
20208040
60444066
60802040
00802060
00B02040
62804280
60408020
608280A0
00B08020
64246020
80402010
00602030
00804060
20808020
84204060
80606040
82602080
40248020
60802048
20000000
00B0B0B0
00A0A0A0
00624060
00208040
00101010
00303030
008!880000
004!4400A0
60204080
6040B0B0
20408420
462030B0
80406082
40804020
20200040
8060A0B!B0
B0000000
;
#SINGLE:MANIAC:7:
00000000
00000000
00000000
00000000
00000000
00000000
00000000
00000000
20624040
80426060
40682020
00860282
60462020
60428080
62842!208!80
26902820
60402420
10108480
20604640
B0B08280
40602826
40200040
10800020
30406420
40802840
10308280
46462080
10904840
82826042
40800040
30800020
64604020
40802802
80406080
20406206
20804060
40208208
20408020
60462842
42806240
B0804860
B0604260
B0202020
40604860
B0206240
(8000260000000000)
00882260
28402040
8280A0B0
24204262
40207030
46402080
62608020
28600020
284020B!B0
B0000000
;
#SINGLE:BASIC:2:
00000000
00000000
00000000
00000000
00000000
00000000
00000000
00000000
80800000
40400000
60600000
20200000
60600000
40400000
80800000
00B00020
00402080
00400060
00206080
00600040
00804020
004!400040
006!600060
00802080
00600020
60400080
00404040
20200040
00802060
008!800080
002!200020
00404040
00404040
00606060
00606060
00808080
00808080
00202020
20000000
00A00000
40000000
60000000
80000000
00202000
20404000
40800000
00A00000
20008000
40002020
20004000
60008080
80006000
4000802!20
0020006!60
006000B!B0
B0000000
;
#SINGLE:SMANIAC:11:
00000000
00000000
00000000
00000000
00000000
00000000
00000000
00000000
(84802060B0001000)
(2420408070003000)
(8028206030001000)
(6004002000408020)
(626040807000B000)
(8280602030001000)
(626264802!20006!6000)
24B08460
26428648
2!20A04620
82642460
B!40702840
68486424
(8000200600402000)
(B000800200604000)
(A000626040204000)
(8280402040604020)
(1000300082804000)
(6042408020608020)
(A000900046408000)
(2084802060802040)
(6000404202806000)
(0000606202804000)
00106240
84628206
82448266
48268208
62842860
28264220
86248628
42624826
(4280626280206000)
(4000804240802000)
(2064642464802000)
(8040600800400020)
(4080262820604000)
(4084802060408000)
(2080420040209000)
(1000B0A06020426!60)
(2030426!6020304080)
(20604020A000684!40)
(8070684!4080706020)
(80402080A0004280)
(6020846020804280)
(6040826040608082)
(02408!8000A0006064)
(04208!8000A000B!B000)
B0000000
;
