#VERSION:0.83;
#TITLE:Miami;
#SUBTITLE:;
#ARTIST:Will Smith;
#TITLETRANSLIT:;
#SUBTITLETRANSLIT:;
#ARTISTTRANSLIT:;
#GENRE:;
#ORIGIN:;
#CREDIT:;
#BANNER:Miami.png;
#BACKGROUND:Miami-bg.png;
#PREVIEWVID:;
#JACKET:jacket.png;
#CDIMAGE:;
#DISCIMAGE:;
#LYRICSPATH:;
#CDTITLE:;
#MUSIC:Miami.ogg;
#OFFSET:0.000000;
#SAMPLESTART:53.272850;
#SAMPLELENGTH:14.694003;
#SELECTABLE:YES;
#BPMS:0.000=108.160;
#STOPS:;
#DELAYS:;
#WARPS:;
#TIMESIGNATURES:0.000=4=4;
#TICKCOUNTS:0.000=4;
#COMBOS:0.000=1;
#SPEEDS:0.000=1.000=0.000=0;
#SCROLLS:0.000=1.000;
#FAKES:;
#LABELS:0.000=Song Start;
#BGCHANGES:3.500=Miami.avi=1.000=0=0=1=====,
99999=-nosongbg-=1.000=0=0=0 // don't automatically add -songbackground-
;
#KEYSOUNDS:;
#ATTACKS:
;

//---------------dance-single - ----------------
#NOTEDATA:;
#CHARTNAME:;
#STEPSTYPE:dance-single;
#DESCRIPTION:;
#CHARTSTYLE:;
#DIFFICULTY:Hard;
#METER:7;
#RADARVALUES:0.442829,0.447020,0.062134,0.103557,0.093201,449.000000,440.000000,9.000000,15.000000,0.000000,0.000000,0.000000,0.000000,0.000000,0.442829,0.447020,0.062134,0.103557,0.093201,449.000000,440.000000,9.000000,15.000000,0.000000,0.000000,0.000000,0.000000,0.000000;
#CREDIT:Ben Speirs;
#NOTES:
0000
0000
0000
0000
,
0000
0000
0000
0000
,
0001
1000
0020
0000
0230
0000
0301
0000
,
0100
0010
0100
0000
0010
0100
0010
0000
,
0100
0001
2000
0000
3200
0000
0310
0000
,
0010
0001
1000
0000
0001
1000
0010
0000
,
1000
0001
0200
0000
0320
0000
1030
0000
,
0010
1000
0100
0010
0001
0000
0100
0000
,
0001
1000
0001
0100
0010
1000
0001
0000
,
1000
0001
1000
0100
0010
0001
0100
0000
,
0010
1000
0100
1000
0010
0100
0001
0001
,
1000
0001
0100
0001
1000
1000
0010
0000
,
1000
0001
0010
0001
0100
0100
0010
0000
,
0100
0001
0010
0001
1000
1000
0100
0000
,
1000
0001
0100
0010
0100
0001
0010
0100
,
1000
0001
1000
0010
0100
0001
0001
0000
,
0101
0100
0010
0000
1000
0001
1000
0000
,
0100
1000
0010
0010
0100
0001
0010
0010
,
0001
0001
1000
1000
0010
0010
0100
0000
,
0001
1000
0010
0000
0100
0001
1000
0000
,
0001
0010
0100
0010
0001
1000
0010
0000
,
1000
0010
0100
0010
1000
0001
0100
0000
,
0001
1000
0010
0000
0100
0001
1000
0000
,
1100
0110
0011
1001
,
0001
0100
0001
0000
1000
0000
0001
0100
0001
0000
1000
0000
0001
0000
0000
0000
,
1000
0000
0100
0010
0100
0000
1000
0000
0010
0000
0100
0000
0001
0000
0000
0000
,
0100
0010
1000
0010
0100
0001
1000
1000
,
0100
0100
0010
0010
0001
0001
1000
0000
,
0001
0100
0001
0000
1000
0000
0010
0100
0010
0000
1000
0000
0001
0000
1000
0000
,
1000
0000
0010
0100
0010
0000
1000
0000
0001
0000
1000
0000
0100
0000
0000
0000
,
1000
0100
0001
0100
1000
0001
1000
0000
,
0001
0100
1000
0100
0001
0000
1001
0000
,
1000
0000
0100
0000
0010
0000
0001
0000
0100
0010
0100
0000
0001
0000
0000
0000
,
0100
0010
1000
0001
0010
0010
0010
0000
,
0001
0010
0200
0000
1300
0010
0200
0000
,
0301
1000
0010
1000
0001
0100
0010
0000
,
2000
0000
3100
1000
0020
0000
0130
0001
,
1000
0001
0100
0010
1000
0001
1000
1000
,
0000
0001
1000
0010
0100
0001
0010
0010
,
0200
0000
1300
0010
0200
0000
0301
0000
,
1001
1000
0001
0001
0000
0100
0010
0100
,
0001
1000
1000
0001
0010
0010
0100
0000
,
0010
0001
0100
0100
0000
0010
1000
0001
,
1000
0010
0100
0001
0010
0100
1000
0000
,
0001
0000
1000
0000
0010
0000
0100
0000
0001
0000
1000
0000
0010
0100
0000
0000
,
0010
0000
0100
0000
0001
0000
0010
0000
0100
0000
1000
0000
0010
0100
0000
0000
,
0001
0100
0020
0000
1030
0001
1000
0000
,
1100
0000
0101
0000
0010
0010
0000
0000
,
0002
0000
0000
0000
1003
0000
0010
0000
0100
0000
0001
1000
0000
0000
0001
0000
,
0001
0000
0100
0000
0010
0000
1000
0000
0001
0000
1000
0100
0000
0000
0000
0000
,
1000
0100
0010
0001
1000
0010
0100
0100
,
0001
0001
1000
1000
0010
0010
0100
0000
,
0001
0000
1000
0100
1000
0000
0010
0000
0100
0000
0001
1000
0000
0000
0001
0000
,
0001
0000
0100
0010
0100
0000
0001
0000
1000
0000
0100
1000
0000
0000
0000
0000
,
0001
1000
0100
1000
0001
0001
0000
0000
,
1000
0100
0001
0100
1000
0001
0100
0000
,
0001
1000
0001
0000
0100
0000
0010
1000
0010
0000
0100
0001
0000
0000
1000
0000
,
1000
0000
0010
0100
0010
0000
1000
0100
1000
0000
0001
0100
0000
0000
0000
0000
,
0001
0100
0010
1000
0100
0010
0001
0001
,
1000
1000
0010
0010
0100
0100
0001
0000
,
1000
0010
1000
0000
0001
0000
0100
0010
0100
0000
0001
1000
0000
0000
0100
0000
,
0100
0000
1000
0100
1000
0000
0001
0100
0001
0000
1000
0010
0000
0000
0000
0000
,
1000
0100
0001
0100
1000
1000
0001
0000
,
0001
0100
1000
0100
0001
0001
1000
0000
,
0020
0000
0000
0030
;

//---------------dance-single - ----------------
#NOTEDATA:;
#CHARTNAME:;
#STEPSTYPE:dance-single;
#DESCRIPTION:;
#CHARTSTYLE:;
#DIFFICULTY:Challenge;
#METER:9;
#RADARVALUES:0.655860,0.670530,0.338286,0.193306,0.645504,665.000000,616.000000,49.000000,28.000000,0.000000,0.000000,0.000000,0.000000,0.000000,0.655860,0.670530,0.338286,0.193306,0.645504,665.000000,616.000000,49.000000,28.000000,0.000000,0.000000,0.000000,0.000000,0.000000;
#CREDIT:Ben Speirs;
#NOTES:
0000
0000
0000
0000
,
0000
0000
0000
0000
,
1000
0001
0100
0000
0001
1000
0010
0000
,
0000
0000
0100
0000
0100
0000
0000
0000
0001
1000
0001
1000
0000
0000
0000
0000
,
0001
0100
2000
0000
0020
0000
3030
0000
,
1000
0001
1000
0000
0001
0000
0100
0000
0001
1000
0001
0000
1000
0000
0010
0000
,
1000
0100
0002
0000
0020
0000
0033
0000
,
0001
0000
1000
0000
0001
0000
0100
0000
0010
0000
0000
0000
0110
0000
0001
0100
,
0001
0000
1000
0100
1000
0000
0001
0010
0100
1000
0000
0001
0000
1000
0010
0000
,
0100
0000
0001
0010
0100
0000
1000
0100
1000
0010
0000
0100
0000
0000
0001
0100
,
0001
0000
1000
0100
0010
0001
1000
0000
0001
0100
0010
1000
0100
0010
0001
0000
,
1000
0000
0010
0000
0100
0000
0001
0000
0010
0000
0100
1000
0000
0000
0001
0100
,
0001
1000
0100
1000
0010
0100
0001
1000
0100
0000
1000
0001
0000
0000
1000
0100
,
0010
0100
0010
0001
0010
0000
0001
0100
0001
0100
0010
0000
0010
0000
1000
0010
,
1000
0000
0001
0010
0000
0000
0001
0100
0001
0000
1000
0100
0000
0000
1000
0001
,
1000
0001
0010
0100
1000
0000
0001
0100
0001
0000
1001
0000
1001
0000
0000
0000
,
1100
0000
0101
0000
1000
0000
0001
0000
0100
0000
0010
1000
0010
0000
0100
0000
,
0001
0010
0001
0010
0100
0000
1000
0000
0010
0100
0010
0100
0001
0000
1000
0000
,
0010
0000
1000
0000
0001
0000
1000
0000
0001
0010
0100
1000
0001
0000
1000
0000
,
0010
0000
0100
0000
0001
0000
0100
0000
0010
0100
0010
0100
0001
0000
1000
0000
,
0001
0010
0100
1000
0001
0000
1000
0100
0000
0010
0000
0001
1000
0010
0000
1000
,
0100
0010
0100
0010
0001
0010
0001
1000
0010
0100
0000
0001
1000
0000
0001
0000
,
0100
0010
0100
0010
0100
0000
0001
0010
0100
1000
0001
0000
1000
0000
0001
0100
,
0001
0000
1000
0100
1000
0001
0100
0010
0000
0100
0010
0000
0110
0000
0110
0000
,
1000
0010
0100
0010
0001
0010
0100
0010
1000
0000
0001
1000
0001
0000
1000
0000
,
0100
0000
0010
0001
0010
0000
0100
1000
0100
0000
1000
0001
0000
0000
0000
0000
,
2000
0100
3200
0010
0320
0001
0032
0203
,
2300
0000
3200
0000
0320
0000
2030
0000
0200
3000
0320
0000
0031
0000
0000
0000
,
1000
0100
0001
0100
1000
0001
0100
0010
1000
0000
0001
0100
0000
0000
0010
0000
,
0010
0000
0100
0001
0100
0000
0010
1000
0010
0000
0100
0001
0000
0000
1000
0000
,
1100
1100
0110
0110
0011
0011
1000
0000
,
0101
0000
0101
0000
0110
0000
0110
0000
1010
0000
0000
0000
0001
1000
0001
1000
,
0010
0000
0100
0000
0001
0000
1000
0100
1000
0100
1000
0000
0010
0000
0100
0001
,
0100
0000
0010
1000
0010
1000
0100
1000
0010
0100
0000
0100
0000
0000
0001
1000
,
0001
0000
0100
0000
0010
1000
0010
0000
1000
0100
1000
0000
0001
0000
0100
0000
,
0010
0000
1000
0001
1000
0000
0001
0000
0100
0010
0100
0000
0010
0000
1000
0000
,
1200
0000
0000
0000
0310
0001
0010
0001
0010
0000
0000
0000
0001
0100
0001
0100
,
0010
0100
0010
0100
0010
1000
0010
1000
0001
0010
0100
1000
0010
0100
0001
0000
,
1000
0100
0010
0001
0100
0001
0100
0001
0000
0000
1000
0001
1000
0000
0001
0100
,
0001
0000
1000
0100
0010
0001
1000
0000
1100
0000
0000
0000
0101
0000
0000
0000
,
1000
0100
1000
0000
0001
0000
0001
0000
0000
0000
0100
0000
0100
0001
1000
0001
,
0000
0000
1000
0100
1000
0000
0001
0000
0100
0010
0100
0010
0000
1001
0000
0000
,
0001
0100
0001
0000
1000
0000
1000
0000
0000
0000
0001
0010
0100
1000
0001
0000
,
0100
0000
0010
0100
0010
0100
0001
0000
1000
0100
0000
0010
0000
0001
0000
0000
,
0100
0010
0100
0000
0001
0000
1000
0100
1000
0000
0001
0010
0100
1000
0000
0000
,
0001
0100
0001
0100
0001
0100
0001
0000
1000
0100
1000
0100
1000
0100
0000
0000
,
1000
0000
0010
0100
0010
0000
0100
0001
0100
0000
0010
1000
0001
0000
0000
0100
,
0010
0000
0000
0000
1001
0000
0000
1000
0100
0010
0001
0000
0000
0000
0000
0000
,
0001
0100
0010
0100
1000
0100
0010
0100
0001
0000
1000
0001
1000
0000
0001
0000
,
0010
0000
0100
1000
0100
0000
0010
0001
0010
0000
0001
1000
0000
0000
0000
0000
,
0002
0010
0023
0100
0230
1000
2300
3020
,
0032
0000
0023
0000
0230
0000
0302
0000
0020
0003
0230
0000
1300
0000
0000
0000
,
0001
0010
1000
0010
0001
1000
0010
0100
0001
0000
1000
0010
0000
0000
0100
0000
,
0100
0000
0010
1000
0010
0000
0100
0001
0100
0000
0010
1000
0000
0000
0001
0000
,
0011
0011
0110
0110
1100
1100
0001
0000
,
1010
1010
0110
0110
0101
0101
1000
0000
,
0001
0100
0010
0100
1000
0100
0010
0100
0001
0000
1000
0100
1000
0000
0010
0000
,
0010
0000
1000
0100
1000
0000
0001
0010
0001
0000
0100
0001
0100
0000
0001
0000
,
1000
1000
0001
0001
0100
0100
1001
0010
,
1010
0100
0101
0010
1010
0100
1001
0000
,
1000
0100
1000
0100
1000
0001
1000
0001
1000
0000
0010
0100
0010
0000
1000
0000
,
0001
0100
0001
0100
0001
1000
0001
1000
0001
0000
0010
0001
0010
0000
0001
0000
,
0100
0100
0110
0110
1001
1001
0100
0000
,
1100
0000
0110
0000
0011
0000
0110
0000
1001
0000
0000
0000
0001
1000
0010
0000
,
0200
0000
0000
0300
;

//---------------dance-double - ----------------
#NOTEDATA:;
#CHARTNAME:;
#STEPSTYPE:dance-double;
#DESCRIPTION:;
#CHARTSTYLE:;
#DIFFICULTY:Challenge;
#METER:8;
#RADARVALUES:0.488196,0.469371,0.034519,0.103557,0.234729,495.000000,490.000000,5.000000,15.000000,0.000000,0.000000,0.000000,0.000000,0.000000,0.488196,0.469371,0.034519,0.103557,0.234729,495.000000,490.000000,5.000000,15.000000,0.000000,0.000000,0.000000,0.000000,0.000000;
#CREDIT:Ben Speirs;
#NOTES:
00000000
00000000
00000000
00000000
,
00000000
00000000
00000000
00000000
,
00010000
00000100
00002000
00000000
00003020
00000000
00000130
00000000
,
00000010
00000000
00001000
00000000
00000100
00000000
00000000
00000000
00001000
00000001
00001000
00000001
00000000
00000000
00000000
00000000
,
00000001
00000100
00002000
00000000
00023000
00000000
00130000
00000000
,
01000000
00100000
01000000
00100000
10000000
01000000
10000000
01000000
,
00100000
00010000
02000000
00000000
03002000
00000000
00013000
00000000
,
00000100
00001000
00000010
00000100
00000001
00000000
00001100
00000000
,
00000001
00000000
00001000
00000000
00000010
00000000
00000100
00000000
00000001
00001000
00000001
00000000
00000100
00000000
00000010
00000000
,
00000010
00000000
00001000
00000000
00000100
00000000
00010000
00000000
00001000
00010000
00001000
00000000
00100000
00000000
00000000
00000000
,
00010000
00000000
00100000
00000000
01000000
00000000
10000000
00000000
00100000
01000000
00100000
01000000
00100000
01000000
00100000
00000000
,
10000000
01000000
00100000
00010000
01000000
01000000
00010000
00000000
,
10000000
00000000
01000000
00000000
00100000
00000000
00010000
00000000
01000000
00010000
01000000
00000000
00100000
00000000
00000000
00000000
,
01000000
00010000
00100000
00001000
00010000
00000100
00000100
00001000
,
00000010
00000100
00000001
00000010
00000100
00001000
00000001
00001000
,
00000010
00000100
00000001
00001000
00000100
00010000
00010000
00000000
,
00101000
00000000
00100000
00000000
00010000
00000000
10000000
00000000
00100000
00000000
01000000
00010000
01000000
00000000
00100000
00000000
,
10000000
00000000
01000000
10000000
01000000
00000000
00100000
00000000
00010000
00000000
10000000
00010000
10000000
00000000
00100000
00000000
,
01000000
01000000
00010000
00010000
10000000
10000000
01000000
00000000
,
10000000
01000000
00020000
00000000
00031000
00000100
00000002
00000000
,
00001003
00000000
00000010
00000000
00001000
00000000
00000001
00000000
00000010
00000000
00000001
00000000
00000100
00000010
00000000
00000000
,
00000100
00000000
00000001
00000000
00000010
00000000
00000100
00000000
00001000
00000000
00000001
00000000
00000100
00000010
00000000
00000000
,
00001000
00000100
00010000
00001000
00100000
00010000
00100000
00001000
,
00011000
00000000
00000100
00001000
00000020
00000000
00000230
00000000
,
00000301
00000100
00000001
00000100
00000001
00000000
00000100
00000000
00000010
00000000
00001000
00000100
00000000
00000000
00010000
00000000
,
00010000
00000000
00001000
00010000
00001000
00000000
00100000
00010000
00100000
00000000
00010000
01000000
00000000
00000000
00000000
00000000
,
00100000
01000000
10000000
01000000
00100000
01000000
00010000
10000000
,
01000000
00010000
00001000
00000010
00000001
00001000
00000010
00000000
,
00001000
00000100
00001000
00000100
00001000
00000000
00000010
00000000
00000100
00000000
00000001
00001000
00000000
00000000
00000001
00000000
,
00000001
00000000
00000100
00000010
00000100
00000000
00000001
00000000
00001000
00000000
00000100
00001000
00000000
00000000
00000001
00000000
,
00000001
00000010
00000100
00001000
00010000
00100000
01000000
00000000
,
10000000
00100000
01000000
00010000
00001000
00000010
00000200
00000000
,
00000301
00000000
00001000
00000000
00000001
00000000
00000100
00000000
00000010
00001000
00000010
00000000
00000100
00000000
00000001
00000000
,
00001000
00000000
00000100
00000000
00010000
00000000
00001000
00000000
00100000
01000000
00000000
01000000
00000000
00000000
00100000
00000000
,
00010000
10000000
00100000
01000000
00010000
10000000
01000000
01000000
,
10000000
00000000
00100000
01000000
00100000
00000000
01000000
00000000
00010000
00000000
10000000
01000000
10000000
00000000
00000000
00000000
,
00020000
00000000
01030000
00100000
02000000
00000000
03001000
00010000
,
00000100
00001000
00000100
00000000
00000010
00000100
00000010
00000000
00000001
00000010
00000001
00000000
00001000
00000001
00001000
00000000
,
00000000
00000001
00000100
00000010
00001000
00000100
00001000
00000010
,
00000100
00001000
00010000
00001000
00100000
00100000
00010000
00000000
,
20000000
00000000
01000000
00000000
00010000
00000000
30010000
00000000
00000000
00000000
10000000
00000000
00010000
01000000
00010000
01000000
,
00000000
00000000
00100000
10000000
00100000
00000000
01000000
00000000
00010000
10000000
00010000
10000000
00000000
00010000
00000000
00000000
,
01000000
00100000
00010000
00010000
00001000
00010000
00000100
00001000
,
00000010
00000100
00000001
00000010
00000100
00000010
00000100
00000000
,
00001100
00000000
00000100
00000000
00000010
00000000
00000001
00000100
00000001
00000000
00001000
00000000
00000010
00000100
00000000
00000000
,
00000001
00000000
00000100
00000000
00000010
00000000
00001000
00000000
00000010
00000100
00000010
00000100
00000010
00000100
00000000
00000000
,
00000001
00000100
00001000
00010000
00001000
00100000
00010000
01000000
,
00100000
00000000
00000000
00000000
10000000
00000000
00000000
00000000
00010000
10000000
00010000
00000000
00000000
00000000
00000000
00000000
,
11000000
00000000
00000000
00000000
00010000
10000000
00010000
00000000
01000000
00000000
00100000
10000000
00000000
00000000
01000000
00000000
,
01000000
00000000
00100000
00010000
00100000
00000000
01000000
10000000
01000000
00000000
10000000
00010000
00000000
00000000
00000000
00000000
,
10000000
01000000
00010000
01000000
10000000
00010000
10000000
01000000
,
00100000
00010000
00001000
00000100
00000010
00000001
00001000
00000000
,
00000001
00000100
00000001
00000000
00001000
00000000
00000010
00000100
00000010
00000000
00001000
00000100
00000000
00000000
00001000
00000000
,
00001000
00000000
00000001
00000010
00000001
00000000
00001000
00000001
00001000
00000000
00000010
00000100
00000000
00000000
00000000
00000000
,
00000001
00000100
00001000
00010000
00100000
00100000
00000000
00000000
,
10000000
01000000
00010000
00001000
00000010
00000010
00000000
00000000
,
00000001
00000100
00000001
00001000
00000001
00000000
00000100
00000000
00000010
00000000
00001000
00000100
00000000
00000000
00001000
00000000
,
00001000
00000000
00000010
00000100
00000010
00000000
00001000
00000100
00000010
00000000
00000001
00001000
00000000
00000000
00000000
00000000
,
00000001
00000100
00001000
00000100
00000001
00001000
00000001
00000010
,
00000100
00001000
00010000
00100000
01000000
10000000
00010000
00000000
,
10000000
01000000
10000000
00000000
00100000
00000000
01000000
00010000
01000000
00000000
00100000
10000000
00000000
00000000
00010000
00000000
,
00010000
00000000
01000000
00100000
01000000
00000000
00010000
10000000
00010000
00000000
10000000
00100000
00000000
00000000
00000000
00000000
,
10000000
01000000
00010000
00001000
00000010
00000010
00000000
00000000
,
00000001
00000100
00001000
00010000
00100000
00100000
00000000
00000000
,
20000000
00000000
00000000
30000000
;

//---------------dance-single - ----------------
#NOTEDATA:;
#CHARTNAME:;
#STEPSTYPE:dance-single;
#DESCRIPTION:;
#CHARTSTYLE:;
#DIFFICULTY:Medium;
#METER:5;
#RADARVALUES:0.322506,0.335265,0.172595,0.151883,0.000000,327.000000,302.000000,25.000000,22.000000,0.000000,0.000000,0.000000,0.000000,0.000000,0.322506,0.335265,0.172595,0.151883,0.000000,327.000000,302.000000,25.000000,22.000000,0.000000,0.000000,0.000000,0.000000,0.000000;
#CREDIT:Ben Speirs;
#NOTES:
0000
0000
0000
0000
,
0000
0000
0000
0000
,
0001
1010
0102
1003
,
0001
0010
0001
0000
1000
0010
1000
0000
,
0100
1100
0012
0103
,
0001
1000
0010
0010
,
1000
1100
0102
1003
,
0020
0000
0000
0230
0000
0000
0300
0000
,
0001
0100
0001
0000
1000
0000
0100
0000
,
1000
0100
1000
0000
0001
0000
0000
0000
,
1000
0010
1000
0000
0001
0000
1000
0000
,
0001
0010
0001
0000
0100
0000
0000
0000
,
0001
0010
0100
0000
2000
0000
3000
0000
,
0100
1000
0001
0000
,
1000
0010
0200
0000
0302
0000
0003
0000
,
1000
0000
0001
0000
0100
0001
1000
0000
,
1100
0001
0010
0010
,
0001
0100
0001
0000
1000
0100
1000
0000
,
0010
0100
0010
0100
0001
1000
0001
0000
,
0000
0100
0100
0000
0001
1000
0001
0000
,
2000
3100
0001
1000
,
0002
0000
0103
0000
1000
0001
1000
0000
,
0010
0010
0100
0100
,
0001
1000
0001
0000
0100
0000
0000
0000
,
0001
0010
0100
0010
0001
0000
0011
0000
,
1000
0100
0010
0100
1000
0000
1100
0000
,
0002
0000
2003
0000
3020
0000
0130
0001
,
0100
0010
0100
0001
0100
0010
0000
0000
,
0100
1001
0100
1001
,
0010
0001
0100
0000
0010
1000
0100
0000
,
1000
0001
1000
0001
0100
0100
0000
0000
,
0001
1000
0001
1000
0100
0100
0000
0000
,
1000
0000
0010
0000
0100
0010
0000
0000
,
0100
0000
0001
0000
0010
0100
0010
0000
,
0001
2000
3002
0103
,
0000
0000
0001
0000
0100
0001
1000
0000
,
1010
0001
0020
0031
,
0100
0000
0010
0000
0100
0001
1000
0001
,
0000
1000
0002
0103
,
0001
1000
0010
0000
0100
0000
0100
0000
,
1001
1100
0000
0010
,
1000
0000
0001
0000
0010
0001
0010
0000
,
0001
0100
0001
0000
1000
0000
1000
0000
,
0010
0000
1000
0000
0100
0010
0001
0000
,
1000
0100
1000
0100
1000
1000
1000
0000
,
0001
0100
0001
0100
0001
0001
0001
0000
,
0100
0000
0100
0000
0010
0000
0010
1000
,
0100
0000
0010
0000
0010
0001
0000
0000
,
0000
1001
2100
3001
,
1000
0001
0100
0000
0001
1000
0010
0000
,
0200
0000
0320
0000
2030
0000
3001
0010
,
0100
1000
0010
0100
0001
1000
0000
0000
,
0001
0100
0001
0000
1000
0010
1000
0000
,
0100
0000
1001
0000
1000
0100
0010
0000
,
0001
0100
0001
0100
0001
0001
0000
0000
,
1000
0100
1000
0100
1000
1000
0000
0000
,
0011
0100
1001
0100
,
1010
0101
1001
0000
,
1000
0100
0010
0100
1000
0000
0001
0100
,
0010
0100
0001
0000
0100
0100
0000
0000
,
0001
1000
0010
0000
0100
0100
0100
0000
,
1010
1100
0101
0000
,
1000
0100
1000
0100
1000
1000
0000
0000
,
0001
0100
0001
0100
0001
0001
0000
0000
,
0200
0000
0000
0300
;

//---------------dance-single - ----------------
#NOTEDATA:;
#CHARTNAME:;
#STEPSTYPE:dance-single;
#DESCRIPTION:;
#CHARTSTYLE:;
#DIFFICULTY:Easy;
#METER:3;
#RADARVALUES:0.178512,0.201159,0.027615,0.062134,0.000000,181.000000,177.000000,4.000000,9.000000,0.000000,0.000000,0.000000,0.000000,0.000000,0.178512,0.201159,0.027615,0.062134,0.000000,181.000000,177.000000,4.000000,9.000000,0.000000,0.000000,0.000000,0.000000,0.000000;
#CREDIT:Ben Speirs;
#NOTES:
0000
0000
0000
0000
,
0000
0000
0000
0000
,
1000
0020
0230
0300
,
0001
1000
0100
0000
,
1000
0002
0023
0030
,
0001
1000
0010
0000
,
1000
0020
0230
0300
,
0002
0003
2000
3000
,
0010
1000
0100
0000
,
0010
0001
1000
0000
,
0001
0001
0100
0000
,
0001
1000
0010
0000
,
1000
1000
0100
0000
,
1000
0010
1000
0000
,
0010
0010
0100
0000
,
0001
1000
0100
0000
,
1000
0000
0100
0100
,
0010
0010
0001
0000
,
0100
0100
0001
0001
,
0000
1000
0100
0000
,
1000
0001
0100
0100
,
0001
1000
0100
0100
,
0010
0000
0010
0000
,
0001
0001
1000
0000
,
1001
0000
0100
0000
,
0010
1000
0100
0000
,
1000
1000
1000
0100
,
0010
0010
0010
0000
,
0001
0001
0100
0000
,
0010
0010
1000
0000
,
0001
1000
0100
0000
,
1000
0001
0100
0000
,
0001
1000
0010
0000
,
0100
0100
0100
0000
,
0001
0000
1000
0000
,
0000
0100
0100
0000
,
1001
0000
1000
0000
,
0010
0010
0010
0010
,
0000
1000
0001
0000
,
0100
0000
0100
0000
,
0001
0010
0000
0001
,
1000
0001
0100
0100
,
0010
0000
0010
0000
,
1000
0000
1000
0000
,
0100
0100
0010
0000
,
0001
0001
0100
0000
,
0010
0010
1000
0000
,
0100
0000
0100
0000
,
0000
1001
1001
0000
,
0000
0100
0000
0000
,
0001
0001
0010
0000
,
0001
0001
0100
0000
,
0001
1000
0001
0000
,
1000
1000
0100
0000
,
1000
1000
1000
0000
,
0010
0010
0010
0000
,
0000
0100
0100
0000
,
0001
0000
0001
0000
,
1000
1000
1000
0001
,
0100
0100
0100
0000
,
0001
1000
0100
0000
,
0010
0010
0010
0000
,
0001
1000
0010
0000
,
0100
0100
0100
0000
,
0200
0000
0000
0300
;

//---------------dance-single - ----------------
#NOTEDATA:;
#CHARTNAME:;
#STEPSTYPE:dance-single;
#DESCRIPTION:;
#CHARTSTYLE:;
#DIFFICULTY:Beginner;
#METER:1;
#RADARVALUES:0.097639,0.154645,0.006904,0.000000,0.000000,99.000000,98.000000,1.000000,0.000000,0.000000,0.000000,0.000000,0.000000,0.000000,0.097639,0.154645,0.006904,0.000000,0.000000,99.000000,98.000000,1.000000,0.000000,0.000000,0.000000,0.000000,0.000000,0.000000;
#CREDIT:Ben Speirs;
#NOTES:
// measure 0
0000
0000
0000
0000
,  // measure 1
0000
0000
0000
0000
,  // measure 2
1000
0000
1000
0000
,  // measure 3
1000
0000
0000
0000
,  // measure 4
0000
0010
0010
0000
,  // measure 5
0010
0000
0000
0000
,  // measure 6
0000
0100
0100
0000
,  // measure 7
0100
0000
0000
0000
,  // measure 8
0001
0000
0001
0000
,  // measure 9
0001
0000
0000
0000
,  // measure 10
1000
0000
1000
0000
,  // measure 11
1000
0000
0000
0000
,  // measure 12
0010
0000
0010
0000
,  // measure 13
0010
0000
0000
0000
,  // measure 14
0100
0000
0100
0000
,  // measure 15
0100
0000
0000
0000
,  // measure 16
0001
0000
0001
0001
,  // measure 17
0001
0000
0000
0000
,  // measure 18
1000
0000
1000
1000
,  // measure 19
1000
0000
0000
0000
,  // measure 20
0010
0010
0000
0000
,  // measure 21
0010
0010
0000
0000
,  // measure 22
0100
0000
0100
0000
,  // measure 23
0100
0000
0000
0000
,  // measure 24
1001
0000
0001
0000
,  // measure 25
0001
0000
0000
0000
,  // measure 26
0100
0100
0100
0000
,  // measure 27
0100
0100
0100
0000
,  // measure 28
0100
0000
0000
0000
,  // measure 29
1000
0000
0000
0000
,  // measure 30
0010
0010
0000
0000
,  // measure 31
0010
0010
0000
0000
,  // measure 32
1000
0000
0000
0000
,  // measure 33
0001
0000
0000
0000
,  // measure 34
0100
0000
0100
0000
,  // measure 35
0100
0000
0000
0000
,  // measure 36
0001
0000
0000
0000
,  // measure 37
1000
0000
0000
0000
,  // measure 38
0010
0000
0010
0000
,  // measure 39
0010
0000
0000
0000
,  // measure 40
0100
0100
0000
0000
,  // measure 41
0001
0001
0000
0000
,  // measure 42
1000
0000
0000
0000
,  // measure 43
0010
0000
0000
0000
,  // measure 44
1000
0000
1000
0000
,  // measure 45
1000
0000
0000
0000
,  // measure 46
0001
0000
0001
0000
,  // measure 47
0001
0000
0000
0000
,  // measure 48
0100
0100
0000
0000
,  // measure 49
0100
0100
0000
0000
,  // measure 50
0001
0000
0001
0000
,  // measure 51
0001
0000
0000
0000
,  // measure 52
0000
1000
1000
0000
,  // measure 53
1000
0000
0000
0000
,  // measure 54
0010
0000
0010
0000
,  // measure 55
0010
0000
0000
0000
,  // measure 56
1000
1000
0000
0000
,  // measure 57
1000
0000
0000
0000
,  // measure 58
0001
0001
0000
0000
,  // measure 59
0001
0000
0000
0000
,  // measure 60
0100
0000
0000
0000
,  // measure 61
0100
0000
0000
0000
,  // measure 62
0010
0000
0010
0000
,  // measure 63
0010
0000
0000
0000
,  // measure 64
1000
0000
0000
0000
;
