#TITLE:BOP TO THE TOP;
#ARTIST:HIGH SCHOOL MUSICAL;
#FILE:BOP TO THE TOP.mp3;
#BPM:115.000;
#GAP:38;
#SAMPLESTART:44.966;
#SAMPLELENGTH:15.000;
#CDTITLE:./CDTITLES/Dance Dance Revolution Disney Channel Edition.png;
#DISPLAYBPM:111..116;
#SINGLE:BEGINNER:1:
00000000
00000000
00000000
80000000
40000000
60000000
20000000
20000000
80000000
40000000
40000000
60000000
20000000
80000000
60000000
40000000
B0000000
80000000
B0000000
20000000
20000000
80000000
40006000
40000000
20008000
20000000
60004000
60000000
80002000
80000000
20000000
40000000
60000000
80000000
60000000
40004000
20000000
80000000
20006000
60002000
40000000
40006000
80000000
20008000
20000000
40006000
80000000
20000000
A0000000
800000A0
;
#SINGLE:BASIC:3:
00000000
00000000
00000000
80000000
20204000
60008000
40406000
60602000
80004000
20602000
80004000
60000000
40008000
20802000
60004000
60608000
20004000
60002000
80804000
20206000
40006000
20008080
20004000
60008000
20208000
40006000
6!60209000
4!40207000
2!2060A000
4060B000
60002000
4!40801000
60002000
A!20003!6000
B0008000
20606000
80004000
2!20401000
60008000
20208000
60004!4000
10208000
80004000
6000B000
80002000
60008000
4!40001!2000
A!80009000
40402000
800000B0
;
#SINGLE:ANOTHER:6:
00000000
00000000
00000000
40602080
40402000
80602084
80206080
40402068
60204080
20608042
40802060
40826024
80204040
20606080
20404060
2820A040
60408020
60424086
80204082
60802048
20284046
80802046
40406060
80802042
40802060
60802040
40802620
80406860
80204840
20806020
B020B080
10409060
A0B0A040
62604240
80206040
24206860
40802060
46408020
64604640
A040A060
60802420
B060B040
A0402086
80204640
80206840
48606840
6!6000B!4000
8080B020
68602420
6040A0B0
;
#SINGLE:MANIAC:7:
00000000
00000000
00000000
(4000800606028000)
(4000802600004060)
(2000804200006000)
(6000208400006040)
(8000206800004080)
(2000600808002040)
(2000400606002060)
(8000400206008040)
20406860
(8000400202008060)
(8000600404008040)
(2000600804002060)
(A001009000042000)
82608240
62404260
82402860
42606240
60802048
(4000600080064020)
1!40709!6030
68486280
42406860
(4080260600004060)
9!60B0B!4010
86428640
82608240
62404260
(6080200408002000)
(6020400206008000)
(4020800602008000)
(4080600804002000)
84802620
68602420
86202680
B!4070B!6030
882264B0
(0080600040080020)
(0060800020040080)
(0020400060020080)
(0040200080060020)
(8040800020060080)
(2040200060020040)
(2060200080040020)
9!6030A!2040
60403042
(A000900100086020)
(6080240A00046000)
;
#DOUBLE:BASIC:3:
00000000
00000000
00000000
00000000
00000000
00600000
20008000
40206000
00006000
00000000
00000000
00606000
20004000
80606000
00000000
00000000
00000000
6!60000060
00002000
80404000
20800000
00600000
00000000
00000000
00006000
00008000
80006000
40008000
20000000
60000000
00000000
00000000
60000000
80202000
40006000
20008000
00006000
00000000
00000000
00006000
00008000
20004000
80002000
00006000
00000000
00000000
00000000
60600000
80806000
200000A0
:
00000000
00000000
00000000
60002000
80004000
20004000
00000000
00000000
40000000
20808000
60002000
40000000
00000000
00000000
20004000
80606000
2!20004020
00004000
40000000
00000000
00000000
40000000
20004000
60002000
20000000
40000000
00000000
00000000
00004000
00002000
80806000
20204000
00004000
00000000
00000000
00000000
40000000
80002000
60004000
20000000
40000000
00000000
00000000
40000000
80002000
60008000
20204000
00004000
00000000
00000000
;
#DOUBLE:ANOTHER:6:
00000000
00000000
00000000
60804080
60602000
00600000
00000000
00000006
00006!6060
80602042
8!80802!2020
80206006
00000000
00000000
00606000
(6000006000006000)
80604020
60248026
80006000
00000000
00000000
006!60608!80
74406040
20600000
00000000
00006080
44406660
20006000
00000000
60008020
A0604060
A0600000
00000000
06600000
80604060
28206460
80006000
00000000
00006060
60006060
20408480
A020A080
60000000
00000000
60002080
42806280
6!60006000
60600000
00000000
(0000000000000000)
:
00000000
00000000
00000000
00000000
00000000
40002046
20208040
60608040
4!40400000
00000000
00000000
00040040
20406060
20808040
20000040
(0004000000004000)
00000000
00000000
00400024
80268040
002!20204!40
40000000
00000000
00004020
66604060
80400000
00000000
00400020
40802080
00400000
00000000
00004020
A0406040
20000440
00000000
00000000
00400080
26208040
24200400
40404000
00000000
00000000
00402068
60402420
00400000
00000000
00004!4000
00404020
68604240
(800040060000B000)
;
#DOUBLE:MANIAC:7:
00000000
00000000
00000000
(0000000006006000)
(6000806200004020)
(6000802400002060)
(0000000000000000)
(0000000000006000)
(6000000800006020)
(4000800200006000)
(0000000000000000)
(6000000060006000)
(3000800402008060)
(8000200408002000)
(6000000000000000)
(6006060000000000)
(6000200404002080)
46404260
(0000000000000000)
00000000
00000006
2!202480B0
(2020200808008040)
68060000
(0000000000000000)
(0000060000006000)
(2020200808084000)
62826800
60000000
00600666
(6000800604006000)
(2080600000000000)
(0000000000000000)
00000660
20902010
64608080
06000000
(0000000000000000)
00006060
(2020200808008040)
68060000
(0000000000000000)
(0000060000006000)
(2020200808084000)
62826800
60000000
00000000
(8!8000000082004060)
(B000300900006000)
(0000000000000000)
:
00000000
00000000
00000000
(6000200400040040)
(4000000000000000)
(0000000000000000)
(4000208400006080)
(2000406204000000)
(4000400004000000)
(0000000004000020)
(4000600208004020)
(0000400004004000)
(0000000000000000)
(0000000000000040)
(0000200806002080)
(0040004!4000004000)
(0000000000000000)
00000000
(4000200060080800)
648260B0
6!60624!4040
00000000
(0000000000000000)
00408460
(2020200808008040)
(2000000400004000)
(0000000000000000)
00000040
02406280
42004044
(4000000000000000)
(0000000402008000)
(4020800604006000)
24400000
00000000
00000400
20204640
(2042400060262000)
30700400
(0000000000000000)
00408460
(2020200808008040)
(2000000400004000)
(0000000000000000)
00000040
02408260
8!80004!4080
(0000400000000000)
(0000000000040020)
(1000700B00064000)
;
