#TITLE:Love Dramatic;
#SUBTITLE:~Kaguya-sama 'Love Is War' OP~;
#ARTIST:Masayuki Suzuki;
#TITLETRANSLIT:;
#SUBTITLETRANSLIT:;
#ARTISTTRANSLIT:;
#GENRE:Anime;
#CREDIT:;
#BANNER:Love Dramatic.png;
#BACKGROUND:Love Dramatic-bg.png;
#LYRICSPATH:;
#CDTITLE:;
#MUSIC:Love Dramatic.ogg;
#OFFSET:0.480000;
#SAMPLESTART:55.792892;
#SAMPLELENGTH:13.714000;
#SELECTABLE:YES;
#BPMS:0.000000=129.009995
;
#STOPS:
;
#BGCHANGES:0.000=Love Dramatic.avi=1.000=0=0=0=StretchNoLoop====,
99999=-nosongbg-=1.000=0=0=0 // don't automatically add -songbackground-
;
#KEYSOUNDS:;
#ATTACKS:;

//---------------dance-single - ----------------
#NOTES:
     dance-single:
     :
     Hard:
     7:
     0.503307,0.581623,0.441774,0.265065,0.055222,319.000000,279.000000,40.000000,24.000000,0.000000,0.000000,0.503307,0.581623,0.441774,0.265065,0.055222,319.000000,279.000000,40.000000,24.000000,0.000000,0.000000:
0000
0000
0000
0000
,
0000
0000
0000
0000
,
0000
0000
0000
0000
1000
0000
0010
0000
0100
0000
0000
0100
0001
0000
1000
0000
,
0001
0000
0020
0000
0000
0000
0130
0000
1000
0000
0001
0100
0001
0000
1000
0000
,
0100
1000
0000
0010
1000
0001
0000
0100
,
0001
0101
0000
1010
0000
1001
0000
0001
,
1000
0001
0010
0100
0010
0001
1000
0100
,
1000
0001
0100
0010
1000
0001
0000
1000
,
0010
1010
0000
0001
0010
0011
0000
1000
,
0001
1002
0000
0000
0103
0000
1010
0000
,
0101
0000
2000
0000
3010
0000
1000
0100
,
0000
1001
0000
0000
0011
0000
0010
0100
,
0010
0002
0000
0103
0010
0000
0100
0001
,
1000
0002
0000
0103
0010
2000
0000
3100
,
1000
1010
0000
1100
0000
0011
0000
0201
,
0000
0000
0000
0000
0310
0000
0000
0000
1001
0000
0000
0001
0010
0000
0100
0000
,
1000
0000
0010
0000
0000
0000
0000
0000
1001
0000
0000
1000
0100
0000
0010
0000
,
0001
0000
0200
0000
0000
0000
0310
0000
1000
0000
0000
1000
0100
0000
0010
0000
,
0001
0200
0000
0310
1000
0200
0000
0310
,
0001
1000
0020
0000
0030
0000
0110
0000
,
1010
0000
0002
0000
0000
0010
0013
0000
,
0001
1000
0200
0000
0300
0000
1100
0000
,
0101
0000
2000
0000
0000
0010
3010
1000
,
0001
0201
0000
0010
0000
1000
0000
0310
,
0100
0001
0010
0100
1000
0200
0000
1300
,
0001
0000
1000
0100
0010
0001
1000
0010
,
0100
0000
0001
0010
0100
1000
0010
0100
,
0001
0000
1010
1000
0100
1100
0100
0010
,
0110
0010
0001
0101
0100
0010
1010
0000
,
0101
0000
1001
1001
0000
0000
0000
0000
,
0001
1000
0000
0000
0001
0000
0100
0000
0101
0000
0000
0100
0010
0000
0010
0000
,
1000
0000
0200
0000
0000
0000
0310
0000
0100
0000
1000
0100
1000
0000
0010
0000
,
0100
0002
0000
0103
0010
0100
0001
0010
,
0100
1100
0000
0011
0000
1010
0000
0010
,
1000
0000
0001
0000
1000
0000
0000
0000
0101
0000
0000
1000
0100
0000
0010
0000
,
0001
0000
1000
0000
0000
0000
0010
0000
1000
0000
0001
0100
0001
0000
0100
0000
,
0010
2000
0000
3100
1000
0010
0100
0001
,
0010
0011
0000
0110
0000
1100
0000
0100
,
1000
0010
0100
1000
0100
0010
0100
0001
,
0100
0010
0100
1000
0100
0010
0000
0010
,
0100
0010
0010
0001
0010
0100
0010
1000
,
0010
0100
0010
0001
0010
0100
0000
0010
,
0010
0100
0001
0010
0100
1000
0100
0001
,
0100
0010
0001
0100
1000
0100
0000
0010
,
1000
0200
0000
0310
0001
0200
0000
0310
,
1000
0001
1000
0100
0010
0002
0000
0103
,
0010
1000
0000
0000
0000
0001
0000
0000
,
0000
2002
0000
0000
3003
0000
0110
1001
;

//---------------dance-single - ----------------
#NOTES:
     dance-single:
     :
     Medium:
     5:
     0.356575,0.396561,0.287153,0.099399,0.000000,226.000000,200.000000,26.000000,9.000000,0.000000,0.000000,0.356575,0.396561,0.287153,0.099399,0.000000,226.000000,200.000000,26.000000,9.000000,0.000000,0.000000:
0000
0000
0000
0000
,
0000
0000
0000
0000
,
0000
0000
0001
0000
1000
0000
0010
0100
,
0000
0110
0000
0000
1001
0000
1000
0100
,
0000
1001
0000
1000
0100
1000
0000
0001
,
0100
0001
0000
0100
0000
0010
0000
1000
,
0100
1000
0000
0001
0010
0001
0000
1000
,
0010
1000
0000
0001
0100
0001
0000
1000
,
0100
0010
0000
0001
0100
0010
0000
1000
,
0002
0200
0000
0000
0000
0300
1000
0000
,
1003
0000
0000
0000
1001
0000
1000
0100
,
0000
0100
0000
0000
1000
0000
0001
0000
,
0100
0010
1000
0000
0001
0000
1000
0100
,
0010
0001
0000
0000
1000
0000
0001
0000
,
0100
0100
0000
0010
0000
1000
0000
0001
,
0000
0000
0000
0000
1001
0000
0001
0010
,
0000
0000
0000
0000
1001
0000
1000
0010
,
0000
0000
0000
0000
1001
0000
0001
0100
,
0000
0020
0000
0000
1000
1030
0000
0000
,
0001
2000
0000
3100
,
0010
0002
0000
0103
,
0010
1000
0200
0000
0000
0000
1300
0000
,
0001
0020
0000
0031
,
1000
0010
0100
0000
0100
0000
0001
0000
,
0001
1000
0100
0000
0100
0000
0010
0000
,
0010
0000
0100
0010
0100
0000
1000
0000
,
0010
0000
0100
0010
0100
0000
0010
0000
,
1000
0000
0001
0010
0000
0001
0100
0000
,
0001
0010
0000
0001
1000
0000
1100
0000
,
0101
0000
1000
1000
0000
0000
0000
0000
,
0010
0000
1000
0000
0001
0000
0100
0010
,
0000
0110
0000
0000
1001
0000
0001
0010
,
0000
1001
0000
0001
0010
0001
0000
1000
,
0010
1000
0000
0010
0000
0100
0000
0001
,
0001
0000
1000
0000
1001
0000
0001
0100
,
0000
0010
0000
0000
1000
0000
0001
0010
,
0000
0100
0000
1000
0100
1000
0000
0001
,
0100
0001
0000
1000
0000
0010
0000
0100
,
0010
1010
0101
0011
,
1100
0000
0001
1000
0001
1000
0000
0000
,
0001
0011
1100
0101
,
1010
0000
1000
0001
1000
0001
0000
0000
,
0100
1001
0110
1001
,
0110
0000
0001
0100
1000
0010
0000
0001
,
0010
0001
0000
1000
0010
1000
0000
0001
,
1000
0002
0000
0000
0000
0000
0003
0100
,
0010
1000
0000
0000
0000
0100
0000
0000
,
0000
1002
0000
0000
0000
0000
0100
0103
;

//---------------dance-single - ----------------
#NOTES:
     dance-single:
     :
     Easy:
     3:
     0.205109,0.237937,0.011044,0.022089,0.000000,130.000000,129.000000,1.000000,2.000000,0.000000,0.000000,0.205109,0.237937,0.011044,0.022089,0.000000,130.000000,129.000000,1.000000,2.000000,0.000000,0.000000:
0000
0000
0000
0000
,
0000
0000
0000
0000
,
0000
1000
0010
0000
,
0010
1000
0001
0000
,
0001
0100
0000
0010
,
0000
1000
0100
0010
,
0000
0001
0001
0010
,
0001
1000
1000
0010
,
0000
0100
0000
0000
0000
0100
0000
0000
,
0000
0200
0000
0000
0000
0000
0000
0000
,
0300
0000
0010
1000
,
0000
0000
0001
0010
,
0000
0001
1000
0010
,
0000
1000
0100
0010
,
0000
0001
0000
1000
0000
0010
0000
0010
,
0000
0000
1001
0000
,
0000
1000
0100
0010
,
0000
0001
1000
0010
,
0000
0100
0000
0000
0000
0001
0000
0000
,
0000
1000
0000
0100
,
0100
0010
0000
0001
,
0000
1000
0000
0010
,
0010
0100
0000
0001
,
0000
1000
0100
1000
,
0000
0001
0100
0001
,
0000
1000
1000
0001
,
0000
0001
0001
1000
,
0000
0000
0010
0000
0000
0010
0000
0000
,
0010
0000
0000
0010
0000
0000
0010
0000
,
0010
0000
0010
0010
0000
0000
0000
0000
,
0000
0100
0001
0000
,
0100
0001
1000
0000
,
0100
1000
1000
0001
,
0000
0100
0000
0001
0000
1000
0000
0000
,
0000
0100
1000
0000
,
1000
0001
0010
0000
,
0001
0100
0100
0010
,
0000
0100
0000
0001
0000
1000
0000
0000
,
0000
0010
1000
0010
,
1000
0001
1000
0001
,
0001
0010
0001
0010
,
0001
1000
0001
1000
,
1000
0010
1000
0010
,
1000
0001
1000
0001
,
0000
0100
0000
0000
0000
0100
0000
0000
,
0000
0200
0000
0000
0000
0000
0300
0000
,
0000
0010
0000
0000
0000
1000
0000
0000
,
0000
0001
0000
0000
0000
0000
0100
0100
;

//---------------dance-single - ----------------
#NOTES:
     dance-single:
     :
     Beginner:
     1:
     0.118332,0.158210,0.022089,0.000000,0.000000,75.000000,73.000000,2.000000,0.000000,0.000000,0.000000,0.118332,0.158210,0.022089,0.000000,0.000000,75.000000,73.000000,2.000000,0.000000,0.000000,0.000000:
0000
0000
0000
0000
,
0000
0000
0000
0000
,
0000
0010
0000
0000
,
0010
0010
0000
0000
,
0000
1000
0000
1000
,
0000
1000
0000
0000
,
0000
0001
0000
0001
,
0000
0001
0000
0000
,
0000
0100
0000
0100
,
0000
0100
0000
0000
,
0000
0000
0001
0000
,
0000
0000
1000
1000
,
0000
0010
0010
0000
,
0000
1000
0000
1000
,
0000
1000
0000
0000
,
0000
0000
0001
0001
,
0000
0010
0010
0000
,
0000
0001
0000
0001
,
0000
0001
0000
0000
,
0000
0100
0000
0000
,
0000
0010
0000
0000
,
0000
1000
0000
0000
,
0000
0001
0000
0000
,
0000
0100
0000
0100
,
0000
0100
0000
0000
,
0000
0010
0000
0010
,
0000
0010
0000
0000
,
0000
1000
0000
0000
,
0001
0000
0000
0100
,
0100
1001
0000
0000
,
0000
0010
0010
0000
,
0000
0010
0010
0000
,
0000
1000
0000
1000
,
0000
1000
0000
0000
,
0000
0001
0001
0000
,
0000
0001
0001
0000
,
0000
0100
0000
0100
,
0000
0100
0000
0000
,
0000
0010
0000
0010
,
0000
0010
0000
0010
,
0000
1000
0000
1000
,
0000
1000
0000
1000
,
0000
0001
0000
0001
,
0000
0001
0000
0001
,
0000
0100
0000
0100
,
0000
0100
0000
0000
,
0000
0010
0000
0000
,
0000
0000
0000
1001
;

//---------------dance-double - ----------------
#NOTES:
     dance-double:
     :
     Challenge:
     7:
     0.506463,0.581623,0.441774,0.254020,0.055222,321.000000,281.000000,40.000000,23.000000,0.000000,0.000000,0.506463,0.581623,0.441774,0.254020,0.055222,321.000000,281.000000,40.000000,23.000000,0.000000,0.000000:
// measure 0
00000000
00000000
00000000
00000000
,  // measure 1
00000000
00000000
00000000
00000000
,  // measure 2
00000000
00000000
00000000
00000000
00001000
00000000
00000000
00000000
00000101
00000000
00000000
00000100
00000010
00000000
00000010
00000000
,  // measure 3
00001000
00000000
00000100
00000000
00000000
00000000
00001000
00000000
00000001
00000000
00000100
00000010
00000100
00000000
00000010
00000000
,  // measure 4
00001000
00000200
00000000
00001300
00000100
00020000
00000000
00031000
,  // measure 5
00100000
00110000
00000000
01010000
00000000
10010000
00000000
10000000
,  // measure 6
01000000
00100000
00010000
01000000
00100000
01000000
10000000
01000000
,  // measure 7
00100000
10000000
01000000
00100000
00010000
01000000
00000000
00010000
,  // measure 8
00100000
00001000
00000000
00010000
00000100
00001000
00000000
00000100
,  // measure 9
00010000
00022000
00000000
00000000
00033000
00000000
00011000
00000000
,  // measure 10
00011000
00000000
00000000
00000000
00001100
00000000
00001000
00000010
,  // measure 11
00000000
00000101
00000000
00000000
00002000
00000000
00003001
00000100
,  // measure 12
00000010
00002000
00000000
00000100
00003100
00000000
00001000
00000100
,  // measure 13
00000010
00000002
00000000
00000013
00000100
00002000
00000000
00003010
,  // measure 14
00000100
00001000
00000000
00010000
00000000
00011000
00000000
00110000
,  // measure 15
00000000
00000000
00000000
00000000
01000000
00000000
00000000
00000000
10010000
00000000
00000000
10000000
01000000
00000000
00100000
00000000
,  // measure 16
00010000
00000000
10000000
00000000
00000000
00000000
00000000
00000000
10010000
00000000
00000000
00010000
00100000
00000000
01000000
00000000
,  // measure 17
10000000
00000000
00010000
00000000
00000000
00000000
00000000
00000000
01010000
00000000
00000000
01000000
00100000
00000000
10000000
00000000
,  // measure 18
01000000
00200000
00000000
00310000
01000000
00100000
10000000
00010000
,  // measure 19
10000000
00100000
02000000
00000000
00000000
00010000
03010000
00000000
,  // measure 20
01010000
00000000
01000000
00010000
00100000
00002000
00000000
00023000
,  // measure 21
00000000
00030100
00002000
00000000
00000000
00000010
00003010
00000000
,  // measure 22
00001001
00000000
00000001
00000010
00000100
00001000
00000000
00000010
,  // measure 23
00000010
00000000
00000200
00000000
00000000
00000300
00000001
00000000
00000100
00000000
00000020
00000000
00000000
00000000
00001030
00000000
,  // measure 24
00000100
00000000
00010000
00000000
00001000
00000000
00010000
00000000
00001000
00000000
00200000
00000000
00000000
00300000
00010000
00000000
,  // measure 25
10000000
00000000
00100000
10000000
01000000
00000000
00100000
00010000
,  // measure 26
01010000
00000000
00010000
00100000
00001000
00000000
00010000
00000100
,  // measure 27
00001100
00000000
00001010
00000010
00000100
00000110
00000100
00000001
,  // measure 28
00000011
00000010
00000100
00001100
00001000
00000100
00010100
00000000
,  // measure 29
00011000
00000000
00110000
10010000
00000000
00000000
00000000
00000000
,  // measure 30
00010000
01000000
00000000
00000000
01010000
00000000
01000000
00000000
00200000
00000000
00000000
10300000
01000000
00000000
00100000
00000000
,  // measure 31
00010000
00000000
20000000
00000000
00000000
00000000
30010000
00000000
00100000
00000000
01000000
00100000
01000000
00000000
00100000
00000000
,  // measure 32
00010000
02000000
00000000
03010000
00100000
00002000
00000000
00013000
,  // measure 33
00000100
00001100
00000000
00011000
00000000
00110000
00000000
00011000
,  // measure 34
00001000
00000000
00010000
00000000
00000100
00000000
00000000
00000000
00001010
00000000
00000000
00001000
00000010
00000000
00000100
00000000
,  // measure 35
00000001
00000000
00001000
00000000
00000000
00000000
00000001
00000000
00001000
00000000
00000100
00000010
00000100
00000000
00000010
00000000
,  // measure 36
00000001
00002000
00000000
00003010
00000100
00000001
00000100
00000010
,  // measure 37
00001000
00000100
00000000
00001100
00000000
00110000
00000000
00100000
,  // measure 38
00010000
01000000
10000000
01000000
00100000
01000000
10000000
01000000
,  // measure 39
00100000
10000000
01000000
00100000
00010000
00100000
00001000
00010000
,  // measure 40
00000100
00001000
00000010
00000100
00000010
00000001
00000010
00000100
,  // measure 41
00000010
00001000
00000100
00000010
00000001
00000100
00000010
00001000
,  // measure 42
00000100
00010000
00011000
00100000
00010000
01000000
00100000
10000000
,  // measure 43
01000000
00010000
00011000
00001000
00000100
00000001
00001000
00000010
,  // measure 44
00000100
00000110
00000000
00000001
00001000
00001001
00000000
00000001
,  // measure 45
00000100
00000101
00000100
00001000
00010000
00200000
00000000
10300000
,  // measure 46
01000000
00100000
00000000
00000000
00000000
10010000
00000000
00000000
,  // measure 47
00000000
00002000
00000000
00000000
00000000
00000000
00013000
00000010
;
