#VERSION:0.82;
#TITLE:Marvin Gaye;
#SUBTITLE:;
#ARTIST:Charlie Puth feat. Meghan Trainor;
#TITLETRANSLIT:;
#SUBTITLETRANSLIT:;
#ARTISTTRANSLIT:;
#GENRE:Darling, Darling;
#ORIGIN:;
#CREDIT:;
#BANNER:Marvin Gaye.png;
#BACKGROUND:Marvin Gaye-bg.png;
#PREVIEWVID:;
#JACKET:jacket.png;
#CDIMAGE:;
#DISCIMAGE:;
#LYRICSPATH:;
#CDTITLE:;
#MUSIC:Marvin Gaye.ogg;
#OFFSET:-0.090000;
#SAMPLESTART:69.884323;
#SAMPLELENGTH:13.714000;
#SELECTABLE:YES;
#BPMS:0.000=110.000;
#STOPS:;
#DELAYS:;
#WARPS:;
#TIMESIGNATURES:0.000=4=4;
#TICKCOUNTS:0.000=4;
#COMBOS:0.000=1;
#SPEEDS:0.000=1.000=0.000=0;
#SCROLLS:0.000=1.000;
#FAKES:;
#LABELS:0.000=Song Start;
#BGCHANGES:3.750=Marvin Gaye.avi=1.000=0=0=1=====,
99999=-nosongbg-=1.000=0=0=0 // don't automatically add -songbackground-
;
#KEYSOUNDS:;
#ATTACKS:
;

//---------------dance-single - ----------------
#NOTEDATA:;
#CHARTNAME:;
#STEPSTYPE:dance-single;
#DESCRIPTION:;
#CHARTSTYLE:;
#DIFFICULTY:Hard;
#METER:7;
#RADARVALUES:0.340590,0.351702,0.143724,0.135270,0.000000,249.000000,17.000000,16.000000,0.000000,0.000000,0.000000,0.000000,0.000000,0.340590,0.351702,0.143724,0.135270,0.000000,249.000000,17.000000,16.000000,0.000000,0.000000,0.000000,0.000000,0.000000;
#CREDIT:Ben Speirs;
#NOTES:
0000
0000
0000
0000
,
0000
0000
0000
0000
,
0000
0000
0000
0000
,
0200
0000
0000
0301
0000
0000
0100
0001
,
2000
0000
0000
3100
0000
0000
1000
0100
,
0020
0000
0000
0031
0000
0000
0010
0001
,
2000
0000
0000
3010
0000
0000
1000
0010
,
0200
0000
0000
0301
0000
0000
0100
0001
,
1000
0000
0000
0000
,
0010
0000
0101
0000
1000
0000
0001
0100
,
0001
0000
1000
0100
0010
0001
1000
0000
,
0100
0000
1010
0000
0001
0000
1000
0010
,
1000
0000
0001
0010
0100
1000
0001
0000
,
0200
0010
0001
0310
,
0002
0100
1003
1001
,
1000
0000
0100
0010
0000
0010
0001
1000
,
0001
0000
0000
0000
0100
0010
0100
0010
,
1000
0000
0100
0010
0001
0000
0100
0010
,
1000
0000
0001
0000
1000
0001
0100
0000
,
0020
1030
0002
0103
,
0101
0000
1000
0010
0010
0100
0001
0000
,
1000
0100
1000
0000
0010
1000
0010
0000
,
1000
0001
1000
0000
0001
0100
0001
0000
,
1000
0100
0010
0001
0100
0010
1000
0001
,
0010
0000
0000
0000
,
0002
0000
0000
0103
0000
0000
0100
0001
,
2000
0000
0000
3100
0000
0000
1000
0100
,
0020
0000
0000
0031
0000
0000
0010
0001
,
2000
0000
0000
3010
0000
0000
1000
0010
,
0200
0000
0000
0301
0000
0000
0001
0100
,
0020
0000
0000
1030
0000
0000
0010
1000
,
0002
0000
0000
1003
0000
0000
1000
0100
,
0010
0000
0000
0000
,
1001
0000
0100
0010
0000
0010
0001
0000
,
0100
0001
0010
0100
1000
0001
0100
0000
,
0110
0000
0001
1000
0000
1000
0010
0100
,
0001
0000
1000
0100
1000
0001
0010
0000
,
0011
0000
0010
0001
1000
0001
0100
0000
,
0110
0000
0100
0010
1000
0100
0010
0000
,
1001
0000
0001
0100
0000
0100
0010
1000
,
0001
0000
1000
0100
0000
0100
0010
0000
,
1001
0000
0010
0100
0000
0100
1000
0000
,
0010
1000
0100
0010
0001
1000
0010
0000
,
0110
0000
1000
0001
0000
0001
0100
0010
,
1000
0000
0001
0010
0001
1000
0100
0000
,
1100
0000
0100
1000
0001
1000
0010
0000
,
0110
0000
0010
0100
0001
0010
0100
0000
,
1001
0000
1000
0100
0001
0100
1000
0010
,
0100
0000
0001
0100
0010
1000
0001
0000
,
1001
0000
0001
0010
0100
1000
0001
0000
,
1100
0000
0001
0100
0010
1000
0001
0000
,
0100
0100
0010
1000
1000
0001
0100
0000
,
1001
0000
0000
0000
;

//---------------dance-single - ----------------
#NOTEDATA:;
#CHARTNAME:;
#STEPSTYPE:dance-single;
#DESCRIPTION:;
#CHARTSTYLE:;
#DIFFICULTY:Challenge;
#METER:8;
#RADARVALUES:0.450497,0.505571,0.169087,0.346629,0.050726,312.000000,20.000000,41.000000,0.000000,0.000000,0.000000,0.000000,0.000000,0.450497,0.505571,0.169087,0.346629,0.050726,312.000000,20.000000,41.000000,0.000000,0.000000,0.000000,0.000000,0.000000;
#CREDIT:Ben Speirs;
#OFFSET:-0.070000;
#BPMS:0.000000=110.000000
;
#STOPS:;
#DELAYS:;
#WARPS:;
#TIMESIGNATURES:0.000000=4=4
;
#TICKCOUNTS:0.000000=4
;
#COMBOS:0.000000=1
;
#SPEEDS:0.000000=1.000000=0.000000=0
,96.000000=0.500000=1.000000=0
,130.000000=1.000000=1.000000=0
;
#SCROLLS:0.000000=1.000000
;
#FAKES:;
#LABELS:0.000000=Song Start
;
#NOTES:
0000
0000
0000
0000
,
0000
0000
0000
0000
,
0000
0000
0000
0000
,
2000
0000
0100
0100
0000
0010
0010
0000
,
3002
0000
0100
0100
0000
0010
0010
0000
,
0203
0000
0010
0010
0000
0001
0001
0000
,
0302
0000
0010
0010
0000
1000
1000
0000
,
2003
0000
0100
0100
0000
0010
0010
0000
,
0002
0000
0000
3003
,
0010
1000
0010
1000
0010
1000
0001
0001
,
1000
0010
1000
0010
1000
0010
0100
0100
,
0001
0010
0001
0010
0001
0010
0100
0100
,
0010
0001
0010
0001
0010
0001
1000
1000
,
0001
0100
0010
1000
0100
0010
0001
0001
,
0010
0001
1000
0001
0100
0010
1000
1000
,
0100
1000
0010
0100
0001
1000
0010
0010
,
0200
0000
0000
0000
0301
0010
1000
0100
,
0002
0000
0013
0200
1000
0000
1300
0002
,
0100
0000
1003
0010
0100
0001
1000
0000
,
2100
0000
3001
0002
0000
0103
0010
0000
,
2010
0000
3001
0002
0000
0013
0100
0000
,
0010
0001
2000
0100
3001
1000
0010
0100
,
0001
1000
0002
0100
1003
0001
0100
0010
,
1010
1000
1001
0001
0101
0100
0110
0010
,
1001
0000
0000
0000
,
0002
0000
0000
0203
0000
0000
0310
1000
,
0002
0000
0000
0023
0000
0000
0130
1000
,
0002
0000
0000
2003
0000
0000
3010
1000
,
0200
0000
0000
0320
0000
0000
0031
1000
,
0020
0000
0130
0200
0000
0301
0002
0000
,
2003
0000
3100
0200
0000
0310
0020
0000
,
0032
0000
1003
2000
0000
3010
0020
0000
,
0230
0000
0000
0300
,
1001
0000
1000
0100
1000
0000
0001
0000
0100
0000
0010
0000
1000
0000
0001
0000
,
0001
0000
0010
0100
0010
0000
0001
0000
1000
0000
0010
0000
0100
0000
0000
0000
,
0101
0000
0100
0010
0100
0000
0001
0000
0010
0000
0100
0000
1000
0000
0001
0000
,
0001
0000
1000
0100
1000
0000
0010
0000
0100
0000
0001
0000
1000
0000
0000
0000
,
0002
0000
0100
0000
1003
0000
0001
0000
1001
0000
0000
0011
0000
0000
1100
0000
,
2000
0100
3001
1000
0010
0100
0001
0000
,
1000
0010
0001
0010
0100
0001
0010
1000
,
0010
0001
1000
0010
0100
0001
1000
0000
,
1001
0000
0001
0010
0001
0000
1000
0000
0010
0000
0100
0000
0001
0000
1000
0000
,
1000
0000
0100
0010
0100
0000
1000
0000
0001
0000
0100
0000
0010
0000
0000
0000
,
1010
0000
0010
0100
0010
0000
1000
0000
0100
0000
0010
0000
0001
0000
1000
0000
,
1000
0000
0001
0010
0001
0000
0100
0000
0010
0000
1000
0000
0001
0000
0000
0000
,
2000
0000
0010
0000
3001
0000
1000
0000
1001
0000
0000
1100
0000
0000
0011
0000
,
0002
0010
1003
0001
0100
0010
1000
0000
,
0001
0100
0010
1000
0001
0010
1000
0100
,
0001
0000
1000
0100
0010
0001
1000
0000
,
2001
0000
0000
0000
3100
0000
1000
0000
0010
0000
0000
0010
0000
0000
0010
0000
,
1002
0000
0103
0001
1000
0100
0010
0000
,
0001
0000
1000
0100
1000
0000
0001
0000
0100
0000
0010
0000
2010
0000
0000
0000
,
3001
0000
0000
0000
;

//---------------dance-single - ----------------
#NOTEDATA:;
#CHARTNAME:;
#STEPSTYPE:dance-single;
#DESCRIPTION:;
#CHARTSTYLE:;
#DIFFICULTY:Medium;
#METER:5;
#RADARVALUES:0.253631,0.351702,0.101452,0.185996,0.000000,176.000000,12.000000,22.000000,0.000000,0.000000,0.000000,0.000000,0.000000,0.253631,0.351702,0.101452,0.185996,0.000000,176.000000,12.000000,22.000000,0.000000,0.000000,0.000000,0.000000,0.000000;
#CREDIT:Ben Speirs;
#NOTES:
0000
0000
0000
0000
,
0000
0000
0000
0000
,
0000
0000
0000
0000
,
0100
0000
0000
0001
0000
0000
1000
0000
,
0100
0000
0000
1000
0000
0000
0001
0000
,
0100
0000
0000
0010
0000
0000
1000
0000
,
0001
0000
0000
0010
0000
0000
0100
0000
,
1000
0000
0000
0001
0000
0000
0100
0000
,
1001
0000
0000
0000
,
0002
0103
0010
1000
,
0200
0310
0001
1000
,
0020
0130
0001
0010
,
0200
1300
0001
0000
,
2200
0000
3300
0000
0001
1000
0001
0000
,
0202
0000
0303
0000
1000
0001
1000
0000
,
0110
0001
0010
1000
,
1001
0000
0000
0000
0001
0100
0001
0100
,
0010
1000
0001
0010
,
0100
0000
1000
0001
1000
0000
0100
0000
,
0010
0000
0010
0001
1000
0000
0000
0000
,
0010
0000
0010
1000
0001
0000
0000
0000
,
2200
3300
0010
0000
,
0202
0303
0010
0000
,
1000
0001
1000
0001
0100
0100
0100
0000
,
0110
0000
0000
0000
,
1000
0000
0000
1000
0000
0000
0010
0000
,
0100
0000
0000
0100
0000
0000
0001
0000
,
0010
0000
0000
0010
0000
0000
0100
0000
,
1000
0000
0000
1000
0000
0000
0010
0100
,
0001
0000
0000
0001
0000
0000
0010
0000
,
0100
0000
0000
0100
0000
0000
1000
0000
,
0010
0000
0000
0010
0000
0000
0100
0000
,
0110
0000
0000
0000
,
1001
0000
0000
0100
0000
0000
1000
0100
,
0010
0000
0000
0001
0000
0000
1000
0010
,
0100
0000
0000
0001
0000
0000
0010
0001
,
1000
0000
0000
0100
0000
0000
1000
0010
,
0100
0000
0000
0100
0000
0000
0010
1000
,
0100
0000
0000
0100
0000
0000
0010
0001
,
1000
0000
0000
0001
0000
0000
0100
0010
,
1000
0000
0000
0001
0000
0000
0100
0000
,
0010
1000
0001
1000
,
0100
0000
0000
0000
1000
0100
1000
0000
,
0001
0100
0010
0100
,
0001
0000
0000
0000
0010
0100
0010
0000
,
0002
0000
0003
0000
0010
0100
0010
0000
,
0200
0000
0300
0000
1000
0100
1000
0000
,
0002
1003
0010
0100
,
0002
1003
0100
0010
,
2002
0000
3003
0000
0100
1000
0001
0000
,
2002
0000
3003
0000
0100
0001
1000
0000
,
0200
1300
0010
0200
,
0301
0000
0000
0000
;

//---------------dance-single - ----------------
#NOTEDATA:;
#CHARTNAME:;
#STEPSTYPE:dance-single;
#DESCRIPTION:;
#CHARTSTYLE:;
#DIFFICULTY:Easy;
#METER:2;
#RADARVALUES:0.125608,0.175851,0.059181,0.000000,0.000000,97.000000,7.000000,0.000000,0.000000,0.000000,0.000000,0.000000,0.000000,0.125608,0.175851,0.059181,0.000000,0.000000,97.000000,7.000000,0.000000,0.000000,0.000000,0.000000,0.000000,0.000000;
#CREDIT:Ben Speirs;
#NOTES:
0000
0000
0000
0000
,
0000
0000
0000
0000
,
0000
0000
0000
0000
,
0000
1000
0000
1000
,
0000
0001
0000
0001
,
0000
0100
0000
0100
,
0000
0010
0000
0010
,
0000
1000
0000
1000
,
0001
0000
0000
0000
,
1001
0000
0100
0000
,
1000
0000
0010
0100
,
0001
0000
0010
0000
,
0001
0000
1000
0100
,
0010
0000
0001
0000
,
1000
0000
0010
0000
,
0100
0000
0001
0000
,
1001
0000
0000
0000
,
0110
0000
0001
0000
,
0010
0001
0100
0000
,
0010
0010
0010
0000
,
0100
0000
0000
0000
,
0001
0001
0000
0000
,
1000
1000
0000
0000
,
0001
1000
0001
1000
,
1001
0000
0000
0000
,
0000
0100
0000
0100
,
0000
0100
0000
0100
,
0000
0010
0000
0010
,
0000
0010
0000
0010
,
0000
0001
0000
0001
,
0000
1000
0000
1000
,
0000
0010
0000
0010
,
0100
0000
0000
0000
,
1001
0000
0100
0000
,
1000
0000
0010
0100
,
0001
0000
1000
0000
,
0001
0000
0010
0100
,
1000
0000
0000
0000
,
0001
0000
0000
0000
,
0100
0000
0100
0000
,
0010
0000
0000
0000
,
1001
0000
0010
0000
,
0001
0000
0100
0010
,
1000
0000
0001
0000
,
1000
0000
0100
0010
,
0001
0000
0000
0000
,
1000
0000
0000
0000
,
0010
0000
0010
0000
,
0100
0000
0100
0000
,
0001
0000
0000
0000
,
1000
0000
0000
0000
,
0100
0000
1000
0000
,
1001
0000
0000
0000
;

//---------------dance-single - ----------------
#NOTEDATA:;
#CHARTNAME:;
#STEPSTYPE:dance-single;
#DESCRIPTION:;
#CHARTSTYLE:;
#DIFFICULTY:Beginner;
#METER:1;
#RADARVALUES:0.095414,0.153870,0.033817,0.000000,0.000000,75.000000,4.000000,0.000000,0.000000,0.000000,0.000000,0.000000,0.000000,0.095414,0.153870,0.033817,0.000000,0.000000,75.000000,4.000000,0.000000,0.000000,0.000000,0.000000,0.000000,0.000000;
#CREDIT:Ben Speirs;
#NOTES:
0000
0000
0000
0000
,
0000
0000
0000
0000
,
0000
0000
0000
0000
,
1000
0000
0000
0000
,
0001
0000
0000
0000
,
0010
0000
0000
0000
,
0100
0000
0000
0000
,
1000
0000
0000
0000
,
0001
0000
0000
0000
,
1001
0000
0000
0000
,
0010
0000
0010
0000
,
1000
0000
0000
0000
,
0100
0000
0100
0000
,
0010
0000
0000
0000
,
0001
0000
0000
0000
,
1000
0000
1000
0000
,
0001
0000
0000
0000
,
0100
0000
0100
0000
,
0100
0000
0000
0000
,
0001
0000
0001
0000
,
0001
0000
0000
0000
,
1000
1000
0000
0000
,
0001
0001
0000
0000
,
0100
0100
0100
0100
,
0100
0000
0000
0000
,
0000
0010
0000
0010
,
0000
0010
0000
0010
,
0000
0010
0000
0010
,
0000
0010
0000
0010
,
0000
0100
0000
0100
,
0000
0100
0000
0100
,
0000
0100
0000
0100
,
0000
0000
0000
0000
,
1001
0000
0000
0000
,
1000
1000
0000
0000
,
0100
0000
0000
0000
,
0010
0010
0000
0000
,
0001
0000
0000
0000
,
1000
0000
0000
0000
,
0010
0000
0000
0000
,
0100
0000
0100
0000
,
1001
0000
0000
0000
,
1000
0000
0000
0000
,
0001
0000
0000
0000
,
0010
0000
0000
0000
,
0100
0100
0000
0000
,
1000
1000
0000
0000
,
0001
0001
0000
0000
,
0100
0000
0000
0000
,
0010
0010
0000
0000
,
1000
1000
0000
0000
,
0001
0001
0000
0000
,
1001
0000
0000
0000
;

//---------------dance-double - ----------------
#NOTEDATA:;
#CHARTNAME:;
#STEPSTYPE:dance-double;
#DESCRIPTION:;
#CHARTSTYLE:;
#DIFFICULTY:Challenge;
#METER:6;
#RADARVALUES:0.350253,0.373683,0.076089,0.321266,0.000000,243.000000,9.000000,38.000000,0.000000,0.000000,0.000000,0.000000,0.000000,0.350253,0.373683,0.076089,0.321266,0.000000,243.000000,9.000000,38.000000,0.000000,0.000000,0.000000,0.000000,0.000000;
#CREDIT:Ben Speirs;
#NOTES:
// measure 0
00000000
00000000
00000000
00000000
,  // measure 1
00000000
00000000
00000000
00000000
,  // measure 2
00000000
00000000
00000000
00000000
,  // measure 3
02000000
00000000
00000000
00100000
00000000
00000000
03100000
00000000
,  // measure 4
02000000
00000000
00000000
03010000
00000000
10000000
01000000
00000000
,  // measure 5
00200000
00010000
00301000
00100000
,  // measure 6
00002000
00000000
00013000
00000100
00001000
00000000
00000010
00001000
,  // measure 7
00000002
00000000
00000000
00000013
00000000
00000000
00000001
00001000
,  // measure 8
00000200
00000000
00000300
00000000
,  // measure 9
00001000
00001000
00000001
00001000
00000010
00000100
00000001
00000000
,  // measure 10
00000200
00000000
00000310
00000000
00000100
00000001
00001000
00000000
,  // measure 11
00000010
00000010
00001000
00000100
00000100
00000010
00000001
00000000
,  // measure 12
00002000
00000000
00003100
00000000
00010000
00000100
00010000
00000000
,  // measure 13
00202000
00000000
00303000
00000000
00001000
00100000
00010000
00000000
,  // measure 14
01000000
01000000
00100000
00100000
10000000
00100000
01000000
00000000
,  // measure 15
00020000
00000000
00030000
20000000
00000000
30000000
00100000
01000000
,  // measure 16
00010000
00000000
00000000
00000000
10000000
10000000
00010000
00010000
,  // measure 17
00200000
00000000
00310000
00100000
00002000
00000000
00013000
00001000
,  // measure 18
00000000
00001000
00000100
00000001
00001000
00000000
00000010
00000000
,  // measure 19
00001002
00000000
00000010
00000013
00000000
00000001
00001000
00000000
,  // measure 20
00002001
00000000
00000000
00000000
00000100
00000000
00000100
00003000
00000000
00000000
00001000
00000000
00000100
00000000
00020000
00000000
,  // measure 21
00000000
00031000
00000000
00000000
00001000
00010000
00001000
00200000
,  // measure 22
00000000
00310000
00000000
00000000
00100000
00010000
01000000
00100000
,  // measure 23
10000000
01000000
00010000
00001000
00000100
00000001
00001000
00000010
,  // measure 24
00000110
00000000
00000000
00000000
,  // measure 25
00000002
00000000
00000000
00000103
00000000
00000000
00000100
00000010
,  // measure 26
00002000
00000000
00000000
00003100
00000000
00000000
00001000
00000100
,  // measure 27
00020000
00000000
00000000
00031000
00000000
00000000
00010000
00001000
,  // measure 28
02000000
00000000
00000000
03100000
00000000
00100000
01000000
00010000
,  // measure 29
20000000
00000000
00000000
01000000
31000000
00000000
10000000
00010000
,  // measure 30
00200000
00000000
00000000
01000000
01300000
00000000
00100000
00010000
,  // measure 31
02000000
00000000
03100000
10000000
01000000
00100000
00010000
00000000
,  // measure 32
20020000
00000000
00000000
30030000
,  // measure 33
10000000
00000000
00100000
01000000
00000000
01000000
00010000
00000000
,  // measure 34
10000000
01000000
00100000
00010000
01000000
01000000
00010000
00100000
,  // measure 35
00001000
00000000
00010000
00001000
00000000
00001000
00010000
00000000
,  // measure 36
00001000
00010000
00000100
00000100
00001000
00000010
00000100
00000001
,  // measure 37
00002000
00000000
00003000
00000000
00000010
00001000
00000001
00000000
,  // measure 38
00000010
00000000
00000001
00000000
00000100
00000010
00000100
00000000
,  // measure 39
00000010
00001000
00000001
00000000
00000010
00000010
00000001
00001000
,  // measure 40
00000100
00000000
00001000
00000000
00000010
00000100
00000001
00000000
,  // measure 41
00002002
00000000
00003003
00000000
00000001
00001000
00000010
00000000
,  // measure 42
00000000
00000100
00000100
00000010
00001000
00001000
00000100
00010000
,  // measure 43
00002000
00000000
00003000
00000000
00100000
00000000
00010000
00100000
,  // measure 44
00001000
00000000
00100000
00010000
01000000
01000000
00100000
00000000
,  // measure 45
20200000
30300000
00010000
10000000
,  // measure 46
02000000
00000000
13000000
00000000
01000000
10000000
00100000
01000000
,  // measure 47
00010000
00000000
00000000
00000000
01000000
00010000
00100000
00001000
,  // measure 48
00020000
00000000
00030100
00000000
00001000
00001000
00000010
00000000
,  // measure 49
00002002
00003003
00000001
00000100
,  // measure 50
00000020
00000000
00001030
00000000
00000001
00001000
00000100
00000000
,  // measure 51
00000010
00000000
00000010
00000001
00000100
00000010
00001000
00000000
,  // measure 52
00010100
00000000
00000000
00000000
;
