#TITLE:Hold My Hand;
#SUBTITLE:;
#ARTIST:Jess Glynne;
#TITLETRANSLIT:;
#SUBTITLETRANSLIT:;
#ARTISTTRANSLIT:;
#GENRE:High Pitched House;
#CREDIT:;
#BANNER:Hold My Hand.png;
#BACKGROUND:Hold My Hand-bg.png;
#LYRICSPATH:;
#CDTITLE:;
#MUSIC:Hold My Hand.ogg;
#OFFSET:0.009000;
#SAMPLESTART:49.742916;
#SAMPLELENGTH:13.714000;
#SELECTABLE:YES;
#BPMS:0.000000=123.000000
,168.000000=61.500000
,200.000000=123.000000
;
#STOPS:
;
#BGCHANGES:3.750=Hold My Hand.avi=1.000=0=0=1=====,
99999=-nosongbg-=1.000=0=0=0 // don't automatically add -songbackground-
;
#KEYSOUNDS:;
#ATTACKS:;

//---------------dance-single - ----------------
#NOTES:
     dance-single:
     :
     Hard:
     8:
     0.517826,0.714116,0.067753,0.271012,0.403130,485.000000,10.000000,40.000000,0.000000,0.000000,0.000000,0.517826,0.714116,0.067753,0.271012,0.403130,485.000000,10.000000,40.000000,0.000000,0.000000,0.000000:
0000
0000
0000
0000
,
0000
0000
0000
0000
,
1000
0000
0000
0001
0000
0000
0100
0000
0100
0000
0000
0010
0000
0000
0100
0000
,
0001
0010
0100
1000
0001
0000
1000
0000
,
0010
0000
0000
0010
0000
0000
0010
0000
0200
0000
0000
0000
0301
0000
0000
0000
,
0010
0000
0000
0010
0000
0000
0010
0000
0200
0000
0000
0000
1300
0000
0000
0000
,
0001
0000
0000
1000
0000
0000
0010
0000
0010
0000
0000
0100
0000
0000
0010
0000
,
1000
0100
0010
0001
1000
0000
0001
0000
,
0100
0000
0000
0100
0000
0000
0100
0000
0020
0000
0000
0000
1030
0000
0000
0000
,
0100
0000
0000
0100
0000
0000
0100
0000
0020
0000
0000
0000
0031
0000
0000
0000
,
0100
0000
0100
0010
0000
0000
1000
0000
0100
0000
0100
0010
0000
0000
0001
1000
,
0000
0010
1000
0100
0010
0001
1000
0000
,
0010
0000
0000
0100
0010
0000
1000
0000
0100
0000
0010
0000
0001
0000
0000
0000
,
0100
0000
0000
0010
0100
0000
0001
0000
0010
0000
0100
0000
1000
0000
0000
0000
,
0010
0000
0010
0100
0000
0000
0001
0000
0010
0000
0010
0100
0000
0000
1000
0000
,
0001
0100
0001
0010
0100
1000
0001
0000
,
0100
0000
0000
0010
0100
0000
0001
0000
0010
0000
0100
0000
1000
0000
0000
0000
,
0010
0000
0000
0100
0010
0000
1000
0000
0100
0000
0010
0000
0001
1000
0000
0000
,
0020
0000
0000
0130
0001
0000
0010
0000
0200
0000
0000
1300
0010
0000
0100
0000
,
0002
0000
0000
1003
0100
0000
1000
0000
0002
0000
0000
0103
0010
0000
0100
0000
,
0001
0010
0100
1000
0010
1000
0002
0000
,
1003
0100
1000
0010
0100
0001
1001
0000
,
0200
0000
0000
0310
1000
0000
0100
0000
0020
0000
0000
0031
0100
0000
0010
0000
,
2000
0000
0000
3001
0010
0000
0001
0000
2000
0000
0000
3010
0100
0000
0010
0000
,
1000
0100
0010
0001
0100
0001
2000
0000
,
3001
0010
0001
0000
1000
0100
0010
0001
,
1001
0000
0000
0010
0100
0000
0010
0000
1000
0100
0000
0000
0010
0001
0000
0000
,
1000
0000
0000
0010
1000
0000
0001
0000
0100
0010
0000
0000
1000
0001
0000
0000
,
0010
0000
0000
0001
0010
0000
0100
0000
1000
0010
0000
0000
0100
0001
0000
0000
,
1000
0000
0000
0010
0100
0000
0010
0000
1000
0100
0000
0000
0010
0001
0000
0000
,
2000
0000
3010
0100
0002
0000
0013
1000
,
0020
0000
0031
0100
2000
0000
3100
0001
,
1000
0000
0000
0100
1000
0000
0010
0000
0100
0000
0001
0000
1000
0000
0000
0000
,
0001
0010
0100
1000
0010
0100
0001
0000
,
1000
0000
0100
0000
1000
0001
1000
0001
1000
0000
0010
0000
0100
0000
0000
0000
,
0001
0100
0000
0000
0100
0010
0000
0000
0010
1000
0000
0000
1000
0001
0000
0000
,
0001
0000
0010
0000
0001
1000
0001
1000
0001
0000
0100
0000
0010
0000
0000
0000
,
1000
0010
0000
0000
0010
0100
0000
0000
0100
0001
0000
0000
0001
1000
0000
0000
,
1000
0000
0001
0000
0100
0010
0100
0010
0100
0000
0001
0000
1000
0000
0000
0000
,
0001
0010
0000
0000
0010
1000
0000
0000
1000
0100
0000
0000
0100
0001
0000
0000
,
0001
0000
1000
0000
0010
0100
0010
0100
0010
0000
1000
0000
0001
0000
0000
0000
,
1000
0100
0001
0100
1000
0010
0100
0001
,
2000
0000
0000
0100
0200
0000
0000
0000
3300
0000
0000
1000
0100
1000
0010
0100
,
0002
0000
0000
0100
0200
0000
0000
0000
0303
0000
0000
0001
0100
0010
1000
0001
,
0020
0000
0000
0000
0031
1000
0001
1000
0200
0000
0000
0000
1300
0001
1000
0001
,
0010
0000
0001
0000
1000
0010
0100
0001
1000
0000
1000
0000
0001
0100
0010
0000
,
2001
0000
0000
0100
3100
0000
1000
0000
0010
1000
0001
0000
0100
0010
1000
0000
,
1002
0000
0000
0100
0103
0000
0010
0000
0100
0001
1000
0000
0010
1000
0001
0000
,
2200
3300
0202
0303
2020
3030
0022
0033
,
2002
0000
0000
0000
0000
0000
0000
0000
0000
0000
0000
0000
3003
0000
0000
0000
0001
0000
1000
0000
0001
0000
1000
0000
0001
0000
1000
0000
0010
0100
0010
0000
,
1001
0000
0000
0100
0010
0000
0100
0000
0001
0010
0000
0000
0100
1000
0000
0000
,
0001
0000
0000
0100
0001
0000
1000
0000
0010
0100
0000
0000
0001
1000
0000
0000
,
0100
0000
0000
1000
0100
0000
0010
0000
0001
0100
0000
0000
0010
1000
0000
0000
,
0001
0000
0000
0100
0010
0000
0100
0000
0001
0010
0000
0000
0100
1000
0000
0000
,
0002
0000
0103
0010
2000
0000
3100
0001
,
0200
0000
1300
0010
0002
0000
0013
1000
,
0001
0000
0000
0010
0001
0000
0100
0000
0010
0000
1000
0000
0001
0000
0000
0000
,
1000
0100
0010
0001
0100
0010
1000
0000
,
0001
0000
0010
0000
0001
1000
0001
1000
0001
0000
0100
0000
0010
0000
0000
0000
,
1000
0010
0000
0000
0010
0100
0000
0000
0100
0001
0000
0000
0001
1000
0000
0000
,
1000
0000
0100
0000
1000
0001
1000
0001
1000
0000
0010
0000
0100
0000
0000
0000
,
0001
0100
0000
0000
0100
0010
0000
0000
0010
1000
0000
0000
1000
0001
0000
0000
,
0001
0000
1000
0000
0010
0100
0010
0100
0010
0000
1000
0000
0001
0000
0000
0000
,
1000
0100
0000
0000
0100
0001
0000
0000
0001
0010
0000
0000
0010
1000
0000
0000
,
1000
0000
0001
0000
0100
0010
0100
0010
0100
0000
0001
0000
1000
0000
0000
0000
,
0001
0000
0010
0000
1000
0000
0010
0000
0001
0000
0000
0100
0000
0000
1000
0000
;

//---------------dance-single - ----------------
#NOTES:
     dance-single:
     :
     Medium:
     5:
     0.329086,0.580220,0.182933,0.291338,0.027101,270.000000,27.000000,43.000000,0.000000,0.000000,0.000000,0.329086,0.580220,0.182933,0.291338,0.027101,270.000000,27.000000,43.000000,0.000000,0.000000,0.000000:
0000
0000
0000
0000
,
0000
0000
0000
0000
,
0100
0001
1000
0001
,
0010
0000
0100
1000
0001
0000
0000
0000
,
0100
0000
0000
0100
0000
0000
0100
0000
0000
0000
0000
0000
0000
0000
0000
0000
,
0010
0000
0000
0010
0000
0000
0010
0000
0000
0000
0000
0000
0000
0000
0000
0000
,
1000
0010
1000
0001
,
0010
0000
0001
1000
0010
0000
0000
0000
,
0100
0000
0000
0100
0000
0000
0100
0000
0000
0000
0000
0000
0000
0000
0000
0000
,
0010
0000
0000
0010
0000
0000
0010
0000
0000
0000
0000
0000
0000
0000
0000
0000
,
1000
1100
0001
0101
,
1000
1010
0001
0011
,
1000
0000
0000
1000
0000
0000
1000
0000
0000
0000
0000
0000
0000
0000
0000
0000
,
0001
0000
0000
0001
0000
0000
0001
0000
0000
0000
0000
0000
0000
0000
0000
0000
,
0001
0101
1000
1100
,
0001
0011
1000
1010
,
0001
0000
0000
0001
0000
0000
0001
0000
0000
0000
0000
0000
0000
0000
0000
0000
,
1000
0000
0000
1000
0000
0000
1000
0000
0000
0000
0000
0000
0000
0000
0000
0000
,
0020
1030
0002
0013
,
0200
0000
1300
0000
0020
0000
0130
0001
,
1000
0000
0100
0000
0010
0000
0001
1000
,
0001
0100
0010
0000
,
2000
3100
0002
0103
,
2000
0000
3010
0000
0002
0000
0013
0001
,
0100
0000
0010
0000
1000
0000
0001
1000
,
0001
0000
0000
0000
1000
0001
0100
0000
,
1001
0010
0100
1010
,
0100
0000
0001
0000
1000
0100
0010
0000
,
0001
1000
0010
0101
,
1000
0000
0001
0000
0010
0001
0100
0000
,
0020
0000
1030
1000
1000
0000
0001
0000
,
0200
0000
0310
0010
0010
0000
0100
0000
,
0001
0000
1000
0000
0100
0010
0001
0000
,
1000
0010
0100
0001
0010
0100
1000
0000
,
0000
0000
1001
0000
0010
0100
0001
0000
,
2000
3100
0020
0031
,
0000
0000
1001
0000
0100
0010
1000
0000
,
0002
0013
0200
1300
,
0000
0000
0101
0000
1000
0001
0100
0000
,
0020
0130
0002
1003
,
0000
0000
1100
0000
0010
0001
1000
0000
,
0010
0100
0001
0100
0010
1000
0001
0000
,
0200
0020
0000
0330
,
0002
2000
0000
3003
,
0200
2300
3002
0203
,
0320
0000
0030
0000
,
1000
0000
0001
0000
0100
0000
0010
0010
,
1000
0000
0001
0000
0010
0000
0100
0100
,
2200
3300
0202
0303
2020
3030
0022
0033
,
2002
0000
3003
0000
0010
0100
0010
0100
,
1001
0100
0010
0101
,
0010
0000
1000
0000
0001
0010
0100
0000
,
1000
0001
0100
1010
,
0001
0000
1000
0000
0100
1000
0010
0000
,
0200
0000
0301
0001
0001
0000
1000
0000
,
0020
0000
0130
0100
0100
0000
0010
0000
,
1000
0000
0001
0000
0010
0100
1000
0000
,
0001
0100
0010
1000
0100
0010
0001
0000
,
0000
0000
1001
0000
0100
0010
1000
0000
,
0002
0013
0200
1300
,
0000
0000
1001
0000
0010
0100
0001
0000
,
2000
3100
0020
0031
,
0000
0000
1010
0000
0001
1000
0010
0000
,
0200
0310
2000
3001
,
0000
0000
0011
0000
0100
1000
0001
0000
,
0100
0010
1000
0010
0100
0001
1000
0100
;

//---------------dance-single - ----------------
#NOTES:
     dance-single:
     :
     Easy:
     3:
     0.176158,0.378654,0.060978,0.094854,0.000000,159.000000,9.000000,14.000000,0.000000,0.000000,0.000000,0.176158,0.378654,0.060978,0.094854,0.000000,159.000000,9.000000,14.000000,0.000000,0.000000,0.000000:
0000
0000
0000
0000
,
0000
0000
0000
0000
,
0100
0000
0010
0000
,
1000
0000
0001
0000
,
0020
0030
0000
0000
,
0020
0030
0000
0000
,
0001
0000
1000
0000
,
0001
0000
0010
0000
,
0200
0300
0000
0000
,
0200
0300
0000
0000
,
1001
0000
0010
0000
,
1000
0001
0100
0000
,
0020
0030
0010
0000
,
0020
0030
0010
0000
,
0100
0000
0001
0000
,
0010
0100
1000
0000
,
0002
0003
0001
0000
,
0002
0003
0001
0000
,
1000
1000
0001
0001
,
0100
0100
0010
0010
,
1000
0000
0000
0000
,
0001
0000
0000
0000
,
0010
0010
0001
0001
,
0100
0100
0010
0010
,
1000
0000
0001
0000
,
0100
0000
0000
0000
,
1001
0000
0010
0000
,
0100
0000
0001
1000
,
0100
0000
1000
0000
,
0010
0000
0100
0010
,
1000
0000
0001
0000
,
0010
0000
0001
0000
,
1000
0000
0010
0000
,
0100
0100
0100
0000
,
0110
0000
0001
0000
,
1000
0100
0010
0001
,
1000
0000
0010
0000
,
0100
0001
0100
0010
,
1000
0000
0001
0000
,
0010
0001
1000
0010
,
0100
0000
0001
0000
,
1000
0100
0010
0000
,
1001
0000
0000
0000
,
0010
0000
0000
0000
,
0100
0001
1000
0100
,
1001
0000
0000
0000
,
0010
0010
0010
0010
,
0100
0100
0100
0100
,
0002
0003
2000
3000
0020
0030
0200
0300
,
2002
0000
3003
0000
0010
0010
0010
0000
,
1001
0000
0100
0000
,
0010
0000
1000
0001
,
0010
0000
0001
0000
,
0100
0000
0010
0100
,
0001
0000
1000
0000
,
0100
0000
1000
0000
,
0001
0000
0100
0000
,
0010
0010
0010
0000
,
0110
0000
1000
0000
,
0001
0010
0100
1000
,
0001
0000
0100
0000
,
0010
1000
0010
0100
,
0001
0000
1000
0000
,
0100
1000
0001
0100
,
0010
0000
1000
0000
,
0001
0010
0100
1001
;

//---------------dance-single - ----------------
#NOTES:
     dance-single:
     :
     Beginner:
     2:
     0.120020,0.178190,0.040652,0.000000,0.000000,118.000000,6.000000,0.000000,0.000000,0.000000,0.000000,0.120020,0.178190,0.040652,0.000000,0.000000,118.000000,6.000000,0.000000,0.000000,0.000000,0.000000:
0000
0000
0000
0000
,
0000
0000
0000
0000
,
1000
0000
1000
0000
,
0001
0000
0001
0000
,
0100
0000
0000
0000
,
0100
0000
0000
0000
,
0001
0000
0001
0000
,
1000
0000
1000
0000
,
0100
0000
0000
0000
,
0100
0000
0000
0000
,
1000
0000
0000
0000
,
0010
0000
0000
0000
,
0100
0100
0000
0000
,
0100
0100
0000
0000
,
0001
0000
0000
0000
,
0010
0000
0000
0000
,
0100
0100
0000
0000
,
0100
0100
0000
0000
,
1000
0000
0001
0000
,
0100
0000
0100
0000
,
0010
0000
0000
0000
,
0010
0000
0000
0000
,
0100
0000
0001
0000
,
1000
0000
1000
0000
,
0100
0000
0000
0000
,
0010
0000
0000
0000
,
1001
0000
0000
0000
,
0100
0100
0000
0000
,
1001
0000
0000
0000
,
0100
0100
0000
0000
,
0010
0000
0010
0000
,
1000
0000
1000
0000
,
1001
0000
0000
0000
,
0001
0001
0001
0000
,
0000
0100
0000
0100
,
0000
0010
0010
0010
,
0000
1000
0000
1000
,
0000
0001
0001
0001
,
0000
0010
0000
0010
,
0000
0100
0100
0100
,
0000
1000
0000
1000
,
0000
0001
0001
0001
,
0000
0000
0000
0000
,
0010
0000
0000
0000
,
1000
0000
0001
0000
,
0100
0000
0000
0000
,
0001
0000
1000
0000
,
0100
0000
0010
0000
,
0001
0001
0001
0001
,
0001
0000
1000
0000
,
1001
0000
0000
0000
,
0010
0010
0000
0000
,
1001
0000
0000
0000
,
0010
0010
0000
0000
,
0100
0000
0100
0000
,
0001
0000
0001
0000
,
1001
0000
0000
0000
,
1000
1000
1000
0000
,
0000
0010
0000
0010
,
0000
0100
0100
0100
,
0000
0001
0000
0001
,
0000
1000
1000
1000
,
0000
0100
0000
0100
,
0000
0010
0010
0010
,
0000
0001
0000
0001
,
0000
1000
1000
1000
;

//---------------dance-double - ----------------
#NOTES:
     dance-double:
     :
     Challenge:
     8:
     0.504276,0.714116,0.182933,0.359091,0.274400,441.000000,27.000000,53.000000,0.000000,0.000000,0.000000,0.504276,0.714116,0.182933,0.359091,0.274400,441.000000,27.000000,53.000000,0.000000,0.000000,0.000000:
// measure 0
00000000
00000000
00000000
00000000
,  // measure 1
00000000
00000000
00000000
00000000
,  // measure 2
00100000
00000000
10000000
00000000
01000000
00100000
00010000
00000000
,  // measure 3
10000000
00000000
00100000
01000000
00010000
00000000
00000000
00000000
,  // measure 4
01010000
00011000
01010000
00000000
,  // measure 5
01010000
00011000
01010000
00011000
,  // measure 6
00000100
00000000
00001000
00000000
00000010
00000100
00000001
00000000
,  // measure 7
00001000
00000100
00000010
00000000
00000001
00000000
00000000
00000000
,  // measure 8
00001100
00011000
00001100
00000000
,  // measure 9
00001100
00011000
00001100
00011000
,  // measure 10
00100000
00000000
00000000
00100000
00010000
00000000
00000000
00000000
01000000
00000000
00000000
01000000
00100000
00000000
00000000
00000000
,  // measure 11
10000000
00000000
00000000
10000000
01000000
00000000
00100000
00000000
00010000
00000000
00000000
00000000
10000000
00000000
00000000
00000000
,  // measure 12
00100000
01000000
00100000
01000000
00200000
00000000
10300000
00000000
,  // measure 13
00100000
01000000
00100000
01000000
00200000
00000000
10300000
00000000
,  // measure 14
00010000
00000000
00000000
00010000
00100000
00000000
00000000
00000000
00001000
00000000
00000000
00001000
00010000
00000000
00000000
00000000
,  // measure 15
00000100
00000000
00000000
00000100
00001000
00000000
00000010
00000000
00000100
00000000
00000000
00000000
00000001
00000000
00001000
00000000
,  // measure 16
00000020
00000000
00000230
00000000
00000320
00000000
00001030
00000001
,  // measure 17
00000200
00000320
00000230
00000301
,  // measure 18
00001000
00000001
00001000
00000001
00001000
00000100
00001000
00000100
,  // measure 19
00010000
00000100
00010000
00000100
00010000
00001000
00010000
00001000
,  // measure 20
00200000
00000000
00310000
00000000
01000000
00010000
20000000
00000000
,  // measure 21
30010000
00000000
01000000
00000000
00100000
10000000
01000000
00000000
,  // measure 22
10000000
00010000
10000000
00010000
01000000
00010000
01000000
00010000
,  // measure 23
01000000
00001000
01000000
00001000
00100000
00001000
00100000
00001000
,  // measure 24
00020000
00000000
00031000
00000000
00010000
00000100
00002000
00000000
,  // measure 25
00003010
00000000
00000100
00000000
00000001
00000100
00000010
00001000
,  // measure 26
00000002
00000000
00000000
00000000
00000103
00000000
00000000
00000000
00000010
00001000
00000000
00001000
00000100
00000000
00000010
00000000
,  // measure 27
00000002
00000000
00001003
00000100
00000100
00010000
00010000
00001000
,  // measure 28
00002000
00000000
00000000
00000000
00103000
00000000
00000000
00000000
00010000
00100000
00000000
00100000
00010000
00000000
10000000
00000000
,  // measure 29
00200000
00000000
01300000
00000000
00010000
01000000
00100000
10000000
,  // measure 30
02000000
00000000
03100000
00010000
00020000
00000000
01030000
00100000
,  // measure 31
00200000
00000000
10300000
01000000
02000000
00000000
03100000
00010000
,  // measure 32
20000000
00000000
30010000
00000000
01000000
00100000
10000000
00000000
,  // measure 33
00010000
00010000
10000000
10000000
10010000
01100000
10010000
00000000
,  // measure 34
10000000
00000000
00010000
00000000
01000000
00100000
01000000
00200000
00000000
00000000
10300000
00000000
00010000
00000000
00000000
00000000
,  // measure 35
11000000
00000000
00000000
01000000
00100000
00000000
00000000
00100000
00010000
00000000
01000000
00000000
00010000
00000000
00100000
00000000
,  // measure 36
00001000
00000000
00010000
00000000
00001000
00010000
00001000
00010000
00000000
00000000
00001000
00000000
00010000
00000000
00000100
00000000
,  // measure 37
00001100
00000000
00000000
00001000
00000010
00000000
00000000
00000010
00000100
00000000
00000001
00000000
00001000
00000000
00000000
00000000
,  // measure 38
00000001
00000000
00000100
00000000
00000010
00001000
00000010
00001000
00000000
00000000
00000001
00000000
00000100
00000000
00000010
00000000
,  // measure 39
00001010
00000000
00000000
00001000
00000100
00000000
00000000
00000100
00000010
00000000
00000001
00000000
00001000
00000000
00000000
00000000
,  // measure 40
00000010
00000000
00001000
00000000
00000100
00010000
00000100
00010000
00000000
00000000
00001000
00000000
00010000
00000000
00000100
00000000
,  // measure 41
00001000
00001000
00000100
00010000
00001000
00100000
00010000
10000000
,  // measure 42
00200000
00000000
00000000
01000000
02300000
00000000
00000000
00000000
03000000
00000000
00000000
00010000
00010000
10000000
10000000
00100000
,  // measure 43
02000000
00000000
00000000
03010000
00020000
00000000
00000000
00000000
00030000
00000000
00000000
10000000
10000000
01000000
00100000
00010000
,  // measure 44
02000000
00000000
00000000
03100000
00100000
00010000
00001000
00000010
00000200
00000000
00000000
00000310
00000010
00000001
00001000
00000010
,  // measure 45
00000200
00000000
00000302
00000000
00000000
00001003
00000100
00002000
00000000
00000000
00000000
00000000
00003001
00001000
00000100
00000010
,  // measure 46
00000002
00000000
00000000
00000103
00000200
00000000
00000000
00000000
00000320
00000000
00000000
00001030
00001000
00000100
00000010
00000001
,  // measure 47
00002000
00000000
00000000
00003100
00000200
00000000
00000000
00000000
00020300
00000000
00000000
00031000
00001000
00010000
00100000
10000000
,  // measure 48
22000000
33000000
02020000
03030000
00022000
00033000
00002200
00003300
,  // measure 49
00002002
00000000
00000000
00000000
00000000
00000000
00003003
00000000
00000010
00000100
00000010
00000100
00000010
00000100
00000001
00001000
,  // measure 50
00001100
00000000
00000000
00001000
00000100
00000000
00000010
00000000
00000001
00001000
00000000
00001000
00000010
00000000
00000100
00000000
,  // measure 51
00000001
00000000
00000000
00001000
00000100
00000000
00000010
00000000
00000001
00000100
00000000
00000100
00000010
00000000
00001000
00000000
,  // measure 52
00000100
00000000
00000000
00000100
00010000
00000000
00001000
00000000
00100000
00010000
00000000
00010000
00100000
00000000
00010000
00000000
,  // measure 53
10000000
00000000
00000000
10000000
00100000
00000000
01000000
00000000
00010000
00100000
00000000
00100000
01000000
00000000
10000000
00000000
,  // measure 54
00020000
00000000
01030000
00001000
00020000
00000000
00031000
00100000
,  // measure 55
00020000
00000000
01030000
00001000
00020000
00000000
00031000
00010000
,  // measure 56
00000200
00000000
00001300
00000010
00000100
00000001
00001000
00000000
,  // measure 57
00000001
00000100
00000001
00000100
00000010
00001000
00000101
00000000
,  // measure 58
00000010
00000000
00001000
00000000
00000100
00000010
00000100
00000010
00000000
00000000
00000010
00000000
00000001
00000000
00001000
00000000
,  // measure 59
00000010
00000000
00000000
00001000
00000100
00000000
00001000
00000000
00000001
00000000
00000000
00000001
00000100
00000000
00000001
00000000
,  // measure 60
00001000
00000000
00000010
00000000
00010000
00000100
00010000
00000100
00000000
00000000
00010000
00000000
00001000
00000000
00100000
00000000
,  // measure 61
00010000
00000000
00000000
00010000
10000000
00000000
00000000
10000000
00100000
00000000
01000000
00000000
00010000
00000000
00000000
00000000
,  // measure 62
10000000
00000000
01000000
00000000
00100000
00010000
00100000
00010000
00000000
00000000
00100000
00000000
01000000
00000000
00100000
00000000
,  // measure 63
00010000
00000000
00000000
00010000
10000000
00000000
00000000
10000000
00100000
00000000
01000000
00000000
00010000
00000000
00000000
00000000
,  // measure 64
10000000
00000000
01000000
00000000
00100000
00010000
00100000
00010000
00000000
00000000
10000000
00000000
00100000
00000000
01000000
00000000
,  // measure 65
00010000
00000000
00010000
00000000
00100000
00000000
00001000
00000000
00020000
00000000
00000000
00000010
00030000
00000000
00000100
00000000
;
