#TITLE:Truly, Madly, Deeply;
#SUBTITLE:;
#ARTIST:Cascada;
#TITLETRANSLIT:;
#SUBTITLETRANSLIT:;
#ARTISTTRANSLIT:;
#GENRE:;
#CREDIT:;
#BANNER:Truly, Madly, Deeply-bn.png;
#BACKGROUND:Truly, Madly, Deeply-bg.png;
#LYRICSPATH:;
#CDTITLE:;
#MUSIC:Truly, Madly, Deeply.mp3;
#OFFSET:-0.080;
#SAMPLESTART:44.640;
#SAMPLELENGTH:15.400;
#SELECTABLE:YES;
#BPMS:0.000=84.000
;
#STOPS:
;
#BGCHANGES:;
#KEYSOUNDS:;
#ATTACKS:;

//---------------dance-single - ----------------
#NOTES:
     dance-single:
     :
     Beginner:
     1:
     0.049,0.049,0.000,0.000,0.000,41.000,0.000,0.000,0.000,0.000,0.000,0.049,0.049,0.000,0.000,0.000,41.000,0.000,0.000,0.000,0.000,0.000:
0000
0000
0000
0000
,
0000
0000
0000
0000
,
0000
0000
0000
0000
,
0000
0000
0000
0000
,
0010
0000
0000
0000
,
0010
0000
0000
0000
,
0100
0000
0000
0000
,
0100
0000
0000
0000
,
0001
0000
0000
0000
,
0001
0000
0000
0000
,
1000
0000
0000
0000
,
1000
0000
0000
0000
,
0010
0000
0000
0000
,
1000
0000
0000
0000
,
0001
0000
0000
0000
,
0100
0000
0000
0000
,
0010
0000
0010
0000
,
0010
0000
0000
0000
,
0100
0000
0100
0000
,
0100
0000
0000
0000
,
0001
0000
0001
0000
,
0001
0000
0000
0000
,
1000
0000
1000
0000
,
1000
0000
0000
0000
,
0010
0010
0000
0000
,
0000
0000
0000
0000
,
1000
1000
0000
0000
,
0000
0000
0000
0000
,
0001
0001
0000
0000
,
0000
0000
0000
0000
,
0100
0000
0100
0000
,
0100
0000
0000
0000
,
0001
0000
0000
0000
,
1000
0000
0000
0000
,
0010
0000
0000
0000
,
1000
0000
0000
0000
,
0100
0000
0000
0000
,
0010
0000
0000
0000
,
0001
0000
0000
0000
,
1000
0000
0000
0000
;

//---------------dance-single - ----------------
#NOTES:
     dance-single:
     :
     Medium:
     3:
     0.162,0.166,0.042,0.109,0.000,118.000,5.000,13.000,0.000,0.000,0.000,0.162,0.166,0.042,0.109,0.000,118.000,5.000,13.000,0.000,0.000,0.000:
0000
0000
0000
0000
,
0000
0000
0000
0000
,
0000
0000
0000
0000
,
0000
0000
0000
0000
,
0010
1000
0001
0000
,
1000
0001
0100
0000
,
0010
1000
0100
0000
,
1000
0001
0100
0000
,
0001
0010
0100
0000
,
0010
0001
1000
0000
,
0010
1000
0100
0000
,
1000
0100
0010
0000
,
2002
0000
3003
0000
,
0202
0000
0303
0000
,
2020
0000
3030
0000
,
0220
0000
0030
0301
,
1000
0000
0001
0000
1000
0100
0010
0002
,
0000
0103
0000
0000
0000
0000
0001
0000
,
1000
0000
0010
0000
0100
0010
1000
0200
,
0000
0300
0000
0000
0000
1000
0001
0100
,
0001
0000
1000
0000
0100
0000
1000
0020
,
0000
0130
0000
0000
0000
0010
0100
0001
,
1000
0001
0010
0001
,
1000
0000
0000
0000
0000
0010
0100
0010
,
1000
0000
0000
0001
0001
0000
1000
0020
,
0000
0130
0000
0000
0010
0000
1000
0000
,
0001
0000
1000
0000
0001
0010
0100
2000
,
0000
3000
0000
0000
0010
0000
1000
0000
,
0001
0100
0010
0100
,
0001
0000
0000
0000
0000
0010
0010
0100
,
0100
0000
0010
0100
,
1000
0001
1000
0000
,
0110
0000
0000
0001
,
1000
0100
0000
0000
,
1000
0010
0100
0000
,
0010
0100
0001
0010
,
0100
1000
0001
0000
,
1000
0001
0100
0000
,
0010
0100
0010
1000
,
0100
0000
0000
0000
0000
1000
0001
1000
;

//---------------dance-single - ----------------
#NOTES:
     dance-single:
     :
     Hard:
     5:
     0.216,0.217,0.050,0.084,0.000,165.000,6.000,10.000,0.000,0.000,0.000,0.216,0.217,0.050,0.084,0.000,165.000,6.000,10.000,0.000,0.000,0.000: // measure 0
0000
0000
0000
0000
,  // measure 1
0000
0000
0000
0000
,  // measure 2
0000
0000
0000
0000
,  // measure 3
0000
0000
0000
0000
,  // measure 4
0020
0000
1030
0000
0100
0100
0000
0000
,  // measure 5
0002
0000
1003
0000
0100
0010
0001
0000
,  // measure 6
2000
0000
3010
0000
0100
0100
0000
0000
,  // measure 7
0002
0000
0013
0000
0001
1000
0100
0000
,  // measure 8
1010
1000
0010
0000
0100
0000
0010
0010
,  // measure 9
1000
0000
0001
0000
0010
0001
0100
0000
,  // measure 10
0110
0100
0010
0000
0100
0000
0001
0000
,  // measure 11
1000
0000
0000
0000
0100
1000
0001
1000
,  // measure 12
0002
0100
0013
0000
,  // measure 13
0200
0010
0301
0000
,  // measure 14
2000
0010
3100
0000
,  // measure 15
2002
0000
3000
0103
,  // measure 16
0101
0000
0110
0000
0001
0100
1000
0000
,  // measure 17
0010
0000
1000
0000
0100
1000
0001
1000
,  // measure 18
0010
0000
0100
0000
0010
1000
0100
0010
,  // measure 19
0001
0000
0000
0000
0100
0001
1000
0100
,  // measure 20
0100
0000
1000
0000
0010
0000
0100
0001
,  // measure 21
0010
0001
0000
0000
0000
0010
0001
0100
,  // measure 22
0100
0010
0100
0001
,  // measure 23
1000
0000
0000
0000
0001
0010
0100
1000
,  // measure 24
1100
0000
0000
1000
0010
0100
0001
0010
,  // measure 25
0010
0000
0000
0000
0001
1000
0100
1000
,  // measure 26
0010
0000
0000
0000
0010
0100
0001
1000
,  // measure 27
0001
0000
0010
0001
,  // measure 28
1000
1000
0010
0100
,  // measure 29
0001
0000
0001
0000
0000
0000
0010
0100
,  // measure 30
1000
0000
0020
0100
,  // measure 31
1030
0000
0001
0000
0100
0000
0010
0100
,  // measure 32
0001
0000
1000
0000
0100
0100
0000
1000
,  // measure 33
0001
0000
0100
0000
0010
0100
0001
0000
,  // measure 34
1000
0001
1000
0010
,  // measure 35
0100
0001
0100
0010
1000
0100
0010
0001
,  // measure 36
1000
0000
0001
0000
0100
0000
0000
0001
,  // measure 37
1000
0010
1000
0100
,  // measure 38
0010
0001
1000
0001
,  // measure 39
0100
0000
0000
0000
0000
1000
0100
0010
,  // measure 40
0001
0000
0000
0000
;

//---------------dance-single - ----------------
#NOTES:
     dance-single:
     :
     Easy:
     2:
     0.101,0.100,0.075,0.017,0.000,74.000,9.000,2.000,0.000,0.000,0.000,0.101,0.100,0.075,0.017,0.000,74.000,9.000,2.000,0.000,0.000,0.000:
0000
0000
0000
0000
,
0000
0000
0000
0000
,
0000
0000
0000
0000
,
0000
0000
0000
0000
,
0010
0000
1000
1000
,
0001
0000
0100
0100
,
0010
0000
0100
0100
,
0001
1000
0100
0000
,
1001
0000
1000
0000
,
0110
0000
0001
0000
,
0101
0000
0010
0000
,
1001
0000
0000
0000
,
0100
1000
0000
0000
,
0010
0100
0000
0000
,
0001
0010
0000
0000
,
2002
0000
0000
3003
,
0100
0100
0100
0000
,
0010
0000
0000
0000
,
1000
1000
1000
0000
,
0001
0000
0000
0000
,
0010
0010
0010
0000
,
0001
0000
0000
0000
,
0100
0000
0100
0000
,
0100
0000
0000
0000
,
1001
0000
0000
0000
,
0100
0000
0000
0000
,
1000
1000
1000
1000
,
1000
0000
0000
0000
,
0001
0010
0100
0000
,
1000
0001
0100
0000
,
0010
0000
0010
0000
,
1000
0000
0000
0000
,
1001
0000
0000
0100
,
0100
0000
0001
0000
,
1000
0000
0100
0000
,
1000
0100
0010
0001
,
1001
0000
0000
0000
,
0110
0000
0000
0000
,
0010
0000
1000
0000
,
0001
0000
0000
0100
,
0100
0000
0000
0000
;
