#TITLE:Truly, Madly, Deeply;
#ARTIST:Cascada;
#FILE:Truly, Madly, Deeply.mp3;
#BPM:84.000;
#GAP:80;
#SAMPLESTART:44.640;
#SAMPLELENGTH:15.400;
#SINGLE:BEGINNER:1:
00000000
00000000
00000000
00000000
80000000
80000000
20000000
20000000
60000000
60000000
40000000
40000000
80000000
40000000
60000000
20000000
80008000
80000000
20002000
20000000
60006000
60000000
40004000
40000000
80800000
00000000
40400000
00000000
60600000
00000000
20002000
20000000
60000000
40000000
80000000
40000000
20000000
80000000
60000000
40000000
;
#SINGLE:ANOTHER:3:
00000000
00000000
00000000
00000000
80406000
40602000
80402000
40602000
60802000
80604000
80402000
40208000
B!B000B000
3!30003000
7!70007000
A!A0008030
40604286!6
03000060
40802842!2
02000462
60402048!8
0A000826
40608060
40000828
40066048!8
0A008040
60406824!4
04008040
60208020
60000882
20008020
40604000
A0000060
40200000
40802000
80206080
20406000
40602000
80208040
20000464
;
#SINGLE:MANIAC:4:
00000000
00000000
00000000
00000000
8!80702200
6!60B02860
4!40702200
6!60906420
74802088
40608620
A2802060
40002464
6!60209000
2!20803000
4!40801000
B!B0004030
30A06240
80402464
80208428
60002642
20408026
86000862
20802060
40006824
10048268
80006424
80008264
60008060
40408020
60600082
40008!8020
70602082
60402204
60208260
40604080
26284286
40602006
40804020
80604060
20000428
60000000
;
#SINGLE:BASIC:2:
00000000
00000000
00000000
00000000
80004040
60002020
80002020
60402000
B0004000
A0006000
30008000
B0000000
20400000
80200000
60800000
B!B00000B0
20202000
80000000
40404000
60000000
80808000
60000000
20002000
20000000
B0000000
20000000
40404040
40000000
60802000
40602000
80008000
40000000
B0000020
20006000
40002000
40208060
B0000000
A0000000
80004000
60000020
20000000
;
