#TITLE:CHEETAH SISTERS;
#ARTIST:THE CHEETAH GIRLS;
#FILE:CHEETAH SISTERS.mp3;
#BPM:107.000;
#GAP:45;
#SAMPLESTART:0.020;
#SAMPLELENGTH:15.000;
#CDTITLE:./CDTITLES/Dance Dance Revolution Disney Channel Edition.png;
#SINGLE:BEGINNER:1:
00000000
00000000
00800000
00200000
00400000
00600000
00200000
00800000
00400000
00600000
00400000
00800000
00200000
00600000
00800000
00400040
00200020
00800080
00600060
00200020
00800080
00400040
00200020
00800000
00600000
00400000
00800000
00600000
00200000
00400000
00800000
00B00000
00600000
00A00000
00B00000
00200000
00800000
00B00000
00400060
00200000
00800000
00A00000
;
#SINGLE:BASIC:3:
00000000
00000000
00600080
00404020
00800040
00602020
00800060
00404020
008000B0
00200060
00802040
00800040
40208060
00600040
00802080
20B00060
80A00020
40B00060
40A000B0
00608020
00408020
00B000A0
004060B0
00802020
80006040
60408080
00602020
00804040
00806040
20806020
40600040
00A00060
40A00040
60A040B0
408020B0
80A06020
40A06040
80B000A0
00B0A0B0
00A06040
80206060
40400000
;
#SINGLE:ANOTHER:5:
00000000
00000000
00408020
00606080
20404060
60408080
20206040
00606080
002080B0
42802040
60208040
68204020
80608020
48208040
60282820
60108040
80308040
80B02080
402860B0
40902060
20702060
20B08020
608240B0
00286040
80284060
80246086
40408026
80246090
10A06046
80204080
204480B0
40902060
20702060
20B08020
608240B0
60108040
80308040
80B02080
402860B0
00A04060
20846460
B0A00000
;
#SINGLE:MANIAC:6:
00000000
00000000
00826082
40206084
20208064
B0408020
60802042
40802060
802820B!B0
00B02086
04028064
00703080
40842086
28428020
82046820
B0268024
01086042
40826424
82686420
B0842086
09024068
60284686
28424680
B0408202
0A062426
80204240
80602680
20404640
82028420
10646464
60A01090
B0842086
09024068
60284686
28424680
B0268024
01086042
40826424
82686420
B0602808
0B046464
80A!A00000
0000A000
;
#DOUBLE:BASIC:2:
00000000
00000000
00600000
00000000
00000000
00600080
20400020
00808060
00000000
00000000
00000000
00000060
00000060
00800040
00606020
00B00080
00600000
00600000
00000000
00000000
00000060
00600080
80204040
00202060
00800000
00000060
00000000
00000000
00000060
00A000B0
00806000
00000000
00000000
00000060
00000060
00802020
00400080
00200000
00606000
00000000
00000000
00600000
:
00000000
00000000
00000040
00808060
00200040
00000000
00000000
00000000
404000A0
00800060
00800020
00400000
00400000
00000000
00000000
00000000
00000040
00400020
20806060
00A00020
00400000
00400000
00000000
00000000
00000040
00404000
00200080
00206080
80400000
00000000
00000040
20A00060
80800020
40400000
00400000
00000000
00000000
00000040
00000020
00800060
00B00020
00400000
;
#DOUBLE:ANOTHER:6:
00000000
00000000
00408026
80006000
00000000
00000060
00206082
40208060
20006600
00000000
00600080
68246020
80600060
00000000
00000060
00902048
20308006
00000000
00006060
80624020
00600000
00000000
00000000
06002080
40286020
00600000
00000060
80246090
60000000
00600080
60228010
80900060
00000000
00000000
600620B0
20906000
60600000
00000000
00060060
80A04060
40280800
60000000
:
00000000
00000000
00000000
00400080
40604028
60402000
40000000
00000000
00400020
70208068
20004000
00000000
00004000
84204060
80424200
40000000
00000040
40108030
80100040
00000000
40048060
20664026
8620A000
20400000
00000000
40042084
60208004
00000000
40108064
20004000
00000000
00004000
20A08040
60B02040
00400000
00000040
00402080
60702060
40204040
00000000
00004040
40100000
;
#DOUBLE:MANIAC:7:
00000000
00000000
00000006
00602026
408480A0
10908006
00000000
00006008
60428620
70282068
00060000
00000000
00600026
20842080
60464640
90268060
00000000
00000000
00606080
A0424068
08060000
00000000
00060860
A0482082
60806000
6!60660080
60000000
00000000
6!603!20A!809!60
B0108090
00600000
00000060
80682040
A0428642
80060600
00000000
00608062
80486840
20806060
60000000
00060864
828!800000
80000000
:
00000000
00000000
00268020
40040000
00000000
00000040
20708026
80100040
00000000
00000000
04004082
40826028
42004000
00000000
00000000
00000040
20428060
A0682468
20040400
00000000
00402048
20624260
80204000
00000000
0004004!40
40804004
00248026
802!20A!807!40
40000000
00000000
40024826
80242040
00000000
00000000
00404020
A0686042
02040000
00000000
00040400
40248026
80204000
00000000
00000000
;
