#VERSION:0.82;
#TITLE:Run Away With Me;
#SUBTITLE:;
#ARTIST:Carly Rae Jepsen;
#TITLETRANSLIT:;
#SUBTITLETRANSLIT:;
#ARTISTTRANSLIT:;
#GENRE:ANTHEMIC POP WOW;
#ORIGIN:;
#CREDIT:;
#BANNER:Run Away With Me.png;
#BACKGROUND:Run Away With Me-bg.png;
#PREVIEWVID:;
#JACKET:jacket.png;
#CDIMAGE:;
#DISCIMAGE:;
#LYRICSPATH:;
#CDTITLE:;
#MUSIC:Run Away With Me.ogg;
#OFFSET:0.073000;
#SAMPLESTART:56.406944;
#SAMPLELENGTH:13.714000;
#SELECTABLE:YES;
#DISPLAYBPM:119.000000;
#BPMS:0.000=119.000,
108.000=119.200,
111.000=119.000;
#STOPS:;
#DELAYS:;
#WARPS:;
#TIMESIGNATURES:0.000=4=4;
#TICKCOUNTS:0.000=4;
#COMBOS:0.000=1;
#SPEEDS:0.000=1.000=0.000=0;
#SCROLLS:0.000=1.000;
#FAKES:;
#LABELS:0.000=Song Start;
#BGCHANGES:4.000=Run Away With Me.avi=1.000=0=0=1=====,
99999=-nosongbg-=1.000=0=0=0 // don't automatically add -songbackground-
;
#KEYSOUNDS:;
#ATTACKS:
;

//---------------dance-single - ----------------
#NOTEDATA:;
#CHARTNAME:;
#STEPSTYPE:dance-single;
#DESCRIPTION:;
#CHARTSTYLE:;
#DIFFICULTY:Hard;
#METER:8;
#RADARVALUES:0.468344,0.458278,0.277349,0.120896,0.664927,405.000000,39.000000,17.000000,0.000000,0.000000,0.000000,0.000000,0.000000,0.468344,0.458278,0.277349,0.120896,0.664927,405.000000,39.000000,17.000000,0.000000,0.000000,0.000000,0.000000,0.000000;
#CREDIT:Ben Speirs;
#DISPLAYBPM:119.000000;
#NOTES:
0000
0000
0000
0000
,
0000
0000
0000
0000
,
0000
0000
0000
0000
,
0000
0000
0000
0000
,
1000
0000
0000
0010
0000
0010
0100
0000
0000
0001
0000
0001
,
0010
0000
0000
0001
1000
0001
0100
0000
0100
0010
0000
0010
,
1000
0000
0000
0001
0000
0001
0010
0000
0000
0100
0000
0100
,
1000
0000
0000
1000
0001
1000
0010
0000
0010
0100
0000
0100
,
0001
0000
0000
1000
0100
1000
0001
0000
0000
0100
0000
0000
,
0010
0000
0000
1000
0010
1000
0001
0000
0010
0000
0100
0000
,
2000
0000
0000
3100
0000
0000
1100
0000
0000
0100
0000
1000
,
0002
0000
0000
0103
0000
0000
0101
0000
0000
1001
0000
0100
,
0001
0000
0000
1000
0100
0010
0001
0000
0000
1000
0100
0010
,
0001
1000
1010
0011
,
1000
0000
0000
0001
0010
0100
1000
0000
0000
0001
0010
0100
,
1000
0001
0011
1010
,
1000
0000
0000
0001
0010
0001
1000
0000
0000
0010
0000
0000
,
0100
0000
0000
0001
0100
0001
1000
0000
0100
0000
0010
0000
,
0002
0000
0000
0013
0000
0000
0011
0000
0000
0010
0000
0001
,
2000
0000
0000
3010
0000
0000
1010
0000
0000
1001
0000
0010
,
0200
0000
0000
0301
0000
0010
0200
0000
0000
1300
0000
0000
,
1100
0000
0100
0000
0010
0000
0011
0000
0001
0000
1000
0000
,
0020
0000
0000
0130
0000
0001
0020
0000
0000
0130
0000
0000
,
0011
0000
0010
0000
0100
0000
1100
0000
1000
0000
0010
0000
,
2000
0000
0000
3100
0000
0010
0002
0000
0000
1003
0000
0000
,
1001
0000
1000
0000
0001
0000
1001
0000
0001
0000
1000
0000
,
0120
1000
0100
1030
,
0220
0000
0330
1001
,
0011
0000
0001
1000
0000
1000
0010
0000
0010
0100
0000
0000
,
0001
0000
1000
0100
0000
0000
0010
0000
0001
1000
0000
0000
,
0010
0000
0100
0001
0000
0001
1000
0000
1000
0100
0000
0000
,
1000
0000
0100
0000
0010
0000
0001
0000
1000
0000
0010
0000
,
0100
0000
0100
0001
0000
0001
1000
0000
1000
0100
0000
0000
,
1000
0000
0001
0100
0000
0000
0010
0000
1000
0100
0000
0010
,
0001
0000
0000
0000
1000
0100
0010
0000
0110
0000
0011
0000
,
1000
0000
0000
0000
0001
0100
0010
0000
0110
0000
1010
0000
,
1100
0000
1000
0001
0000
0001
0100
0000
0100
0010
0000
0000
,
1000
0000
0001
0010
0000
0000
0100
0000
1000
0001
0000
0000
,
0100
0000
0010
1000
0000
1000
0001
0000
0001
0010
0000
0000
,
0001
0000
0010
0000
0100
0000
1000
0000
0001
0000
0100
0000
,
0010
0000
0010
1000
0000
1000
0001
0000
0001
0010
0000
0000
,
0001
0000
1000
0010
0000
0000
0100
0000
0001
0010
0000
0100
,
1000
0000
0000
0000
0001
0010
0100
0000
0110
0000
1100
0000
,
0001
0000
0000
0000
1000
0010
0100
0000
0110
0000
0101
0000
,
2000
0000
0000
3100
0000
1000
0100
0000
1000
0001
0000
0000
,
0002
0000
0000
0103
0000
0001
0100
0000
0001
1000
0000
0000
,
0010
0000
0000
1000
0100
0010
0001
0000
1000
0000
0010
0000
,
0100
0000
0000
0001
0010
0100
1000
0000
0001
0000
0100
0000
,
0002
0000
0000
0013
0000
0001
0010
0000
0001
1000
0000
0000
,
2000
0000
0000
3010
0000
1000
0010
0000
1000
0001
0000
0000
,
0100
0000
0000
0001
0010
0100
1000
0000
0001
0000
0100
0000
,
0010
0000
0000
1000
0100
0010
0001
0000
1000
0000
0010
0000
,
1010
0000
1000
0100
0000
0100
0010
0000
0010
0001
0000
0000
,
0100
0001
0100
0010
0000
0000
1000
0100
1000
0010
0000
0000
,
0100
0001
0100
0010
0000
0010
1000
0000
1000
0100
0000
0000
,
1000
0000
0100
0000
0010
0000
0001
0000
1000
0000
0010
0000
,
0100
0000
0100
0001
0000
0001
1000
0000
1000
0100
0000
0000
,
1000
0010
1000
0001
0000
0000
1000
0001
0100
0001
0000
0000
,
1000
0000
0000
0000
0001
0100
0010
0000
0110
0000
0101
0000
,
1000
0000
0000
0000
0100
1000
0001
0000
1100
0000
1001
0000
,
0101
0000
0001
0010
0000
0010
0100
0000
0100
1000
0000
0000
,
0010
1000
0010
0100
0000
0000
0001
0010
0001
0100
0000
0000
,
0010
1000
0010
0100
0000
0100
0001
0000
0001
0010
0000
0000
,
0001
0000
0010
0000
0100
0000
1000
0000
0001
0000
0100
0000
,
0010
0000
0010
1000
0000
1000
0001
0000
0001
0010
0000
0000
,
0001
0100
0001
1000
0000
0000
0001
1000
0010
1000
0000
0000
,
0001
0000
0000
0000
1000
0010
0100
0000
0110
0000
1010
0000
,
0001
0000
0000
0000
0100
0001
1000
0000
1100
0000
1001
0000
;

//---------------dance-single - ----------------
#NOTEDATA:;
#CHARTNAME:;
#STEPSTYPE:dance-single;
#DESCRIPTION:;
#CHARTSTYLE:;
#DIFFICULTY:Challenge;
#METER:9;
#RADARVALUES:0.613622,0.556121,0.263126,0.227568,1.000000,535.000000,37.000000,32.000000,0.000000,0.000000,0.000000,0.000000,0.000000,0.613622,0.556121,0.263126,0.227568,1.000000,535.000000,37.000000,32.000000,0.000000,0.000000,0.000000,0.000000,0.000000;
#CREDIT:Ben Speirs;
#DISPLAYBPM:119.000000;
#NOTES:
0000
0000
0000
0000
,
0000
0000
0000
0000
,
0000
0000
0000
0000
,
0000
0000
0000
0000
,
1000
0000
0000
0001
0100
0010
1000
0000
0000
0100
0010
0001
,
1000
0000
0000
0010
1000
0001
0100
0000
0100
0010
0000
0010
,
1000
0000
0000
0100
1000
0010
0100
0000
0000
0001
0010
0100
,
1000
0000
0000
0001
1000
0010
0100
0000
0100
0001
0000
0001
,
1000
0000
0000
0100
1000
0010
0200
0000
0000
0301
0000
0000
,
1000
0000
0000
0001
0010
0100
2000
0000
3002
0000
0203
0000
,
0320
0000
0000
1030
0000
0000
0101
0000
0000
1000
0100
0010
,
0002
1003
0101
1100
,
0001
0000
0000
1000
0010
0100
0001
0000
0000
0010
0100
1000
,
0001
0000
0000
0100
0001
1000
0010
0000
0010
0100
0000
0100
,
0001
0000
0000
0010
0001
0100
0010
0000
0000
1000
0100
0010
,
0001
0000
0000
1000
0001
0100
0010
0000
0010
1000
0000
1000
,
0001
0000
0000
0010
0001
0100
0020
0000
0000
1030
0000
0000
,
0001
0000
0000
1000
0100
0010
0002
0000
2003
0000
3020
0000
,
0230
0000
0000
0301
0000
0000
1010
0000
0000
0001
0010
0100
,
2000
0000
0000
3001
0000
0000
1001
0000
0101
0000
1100
0000
,
0002
0000
0000
1003
0000
0002
0100
0000
0000
1003
0000
0000
,
0001
0010
0100
0010
0100
0010
0001
1000
0010
1000
0010
1000
,
0200
0000
0000
0310
0000
0100
1000
0000
1000
0010
0000
0000
,
1000
0100
0010
0100
0010
0100
1000
0001
0100
0001
0100
0001
,
0020
0000
0000
0130
0000
0010
0001
0000
0001
0100
0000
0000
,
0001
1000
0010
1000
0010
1000
0001
0010
0100
0010
0100
0010
,
0002
0000
0000
1003
0000
0000
1001
0000
0000
1000
0100
0010
,
0002
0000
0000
1003
,
0101
0000
0100
0010
0000
0010
1000
0000
1000
0001
0010
0100
,
1000
0000
1000
0010
0100
0001
1000
0000
1000
0100
0010
0001
,
0100
0000
0100
0010
1000
0100
0010
0000
0010
0001
0000
0001
,
1000
0100
0010
0001
0010
0001
1000
0010
0100
0001
0100
0001
,
0010
0000
0010
0100
0000
0100
1000
0000
1000
0010
0100
0001
,
1000
0000
1000
0100
0010
0001
0100
0000
0100
0010
1000
0100
,
0010
0000
0010
0001
1000
0100
0010
0001
0010
0001
0010
0000
,
0100
0000
0100
1000
0001
0010
0100
1000
0100
1000
0100
0000
,
1001
0000
0001
0100
0000
0100
0001
0000
0001
1000
0100
0010
,
0001
0000
0001
0100
0010
1000
0001
0000
0001
0010
0100
1000
,
0010
0000
0010
0100
0001
0010
0100
0000
0100
1000
0000
1000
,
0001
0010
0100
1000
0100
1000
0001
0100
0010
1000
0010
1000
,
0100
0000
0100
0010
0000
0010
0001
0000
0001
0100
0010
1000
,
0001
0000
0001
0010
0100
1000
0010
0000
0010
0100
0001
0010
,
0100
0000
0100
1000
0001
0010
0100
1000
0100
1000
0100
0000
,
0010
0000
0010
0001
1000
0100
0010
0001
0010
0001
0010
0000
,
0002
0000
0000
0103
0010
0100
0002
0000
1003
0200
0000
0000
,
2300
0000
0000
3010
0100
0010
2000
0000
3001
0020
0000
0130
,
2000
0000
0000
3001
0100
0010
0110
0000
1010
0000
0101
0000
,
1000
0000
0000
0100
1000
0001
1001
0000
0011
0000
1100
0000
,
2000
0000
0000
3010
0100
0010
2000
0000
3001
0020
0000
0000
,
0032
0000
0000
0103
0010
0100
0002
0000
1003
0200
0000
0310
,
0002
0000
0000
1003
0010
0100
0110
0000
0101
0000
1010
0000
,
0001
0000
0000
0010
0001
1000
1001
0000
1100
0000
0011
0000
,
1001
0000
0100
0010
0000
1000
0100
0000
0010
0001
1000
0010
,
0100
0000
0100
0001
0010
0100
1000
0000
1000
0010
0100
0001
,
0010
0000
0100
1000
0000
0010
0100
0000
0001
1000
0000
0000
,
1010
0000
1001
0000
0101
0000
1001
0000
1100
0000
0110
0000
,
0011
0000
0100
1000
0000
0010
0100
0000
0001
1000
0010
0100
,
0001
0000
0001
0010
0100
1000
0010
0000
0010
0100
0001
0010
,
0100
0000
0100
1000
0010
0100
0001
0100
1000
0100
0010
0100
,
0001
0000
1000
0001
0100
0010
1000
0010
0001
0010
0100
0010
,
1000
0000
0010
0100
0000
0001
0010
0000
0100
1000
0001
0100
,
0010
0000
0010
1000
0100
0010
0001
0000
0001
0100
0010
1000
,
0100
0000
0010
0001
0000
0100
0010
0000
1000
0001
0000
0000
,
0101
0000
1001
0000
1010
0000
1001
0000
0011
0000
0110
0000
,
1100
0000
0010
0001
0000
0100
0010
0000
1000
0001
0100
0010
,
1000
0000
1000
0100
0010
0001
0100
0000
0100
0010
1000
0100
,
0010
0000
0010
0001
0100
0010
1000
0010
0001
0010
0100
0010
,
1000
0000
0001
1000
0010
0100
0001
0100
1000
0100
0010
0100
,
0001
0000
0000
0000
;

//---------------dance-single - ----------------
#NOTEDATA:;
#CHARTNAME:;
#STEPSTYPE:dance-single;
#DESCRIPTION:;
#CHARTSTYLE:;
#DIFFICULTY:Medium;
#METER:6;
#RADARVALUES:0.316970,0.434158,0.199122,0.120896,0.387578,267.000000,28.000000,17.000000,0.000000,0.000000,0.000000,0.000000,0.000000,0.316970,0.434158,0.199122,0.120896,0.387578,267.000000,28.000000,17.000000,0.000000,0.000000,0.000000,0.000000,0.000000;
#CREDIT:Ben Speirs;
#DISPLAYBPM:119.000000;
#NOTES:
0000
0000
0000
0000
,
0000
0000
0000
0000
,
0000
0000
0000
0000
,
0000
0000
0000
0000
,
0000
1000
0010
1000
,
0100
1000
0001
1001
,
0000
0001
0100
0001
,
0010
0001
1000
1001
,
0000
1000
0100
0010
,
0000
0001
0100
0010
,
2000
3000
0001
0000
,
0200
0300
0010
0010
,
1000
0100
1000
0001
,
1000
0010
0100
0100
,
0001
0010
0001
0100
,
0001
0010
0100
0100
,
1000
0001
0100
0000
,
0010
1000
0001
0000
,
0020
0030
0001
1000
,
0200
0000
0000
0300
0000
0000
1000
0000
0100
0000
0010
0000
,
0002
0000
0000
0000
0000
1003
0000
0000
0000
0000
0000
0000
,
0001
0000
0100
0000
0001
0000
1000
0000
0100
0000
1000
0000
,
0020
0000
0000
0000
0000
0130
0000
0000
0000
0000
0000
0000
,
0010
0000
0100
0000
0001
0000
0100
0000
0010
0000
1000
0000
,
0200
0000
0000
0000
0000
0310
0000
0000
0000
0000
0000
0000
,
0100
0000
1000
0000
0100
0000
0010
0000
0001
0000
0010
0000
,
0200
0000
0000
0000
,
2300
0000
0000
3001
,
0101
0000
0101
0000
0000
0000
1000
0000
0000
0001
0000
0000
,
0010
0000
0010
0000
0000
0000
0100
0000
0100
0000
0000
0000
,
1000
0000
1000
0000
0000
0000
0010
0000
0000
1000
0000
0000
,
0001
0000
0100
0000
0001
0000
1000
0000
0100
0000
1000
0000
,
0010
0000
0010
0000
0000
0000
0100
0000
0000
0001
0000
0000
,
1000
0000
1000
0000
0000
0000
0100
0000
0000
0010
0000
0000
,
0001
0000
0000
0000
1000
0100
1000
0000
0001
0000
1000
0000
,
0000
0000
0000
0000
0001
0100
0001
0000
1000
0000
0001
0000
,
1010
0000
1010
0000
0000
0000
0001
0000
0000
1000
0000
0000
,
0100
0000
0100
0000
0000
0000
0010
0000
0010
0000
0000
0000
,
0001
0000
0001
0000
0000
0000
0100
0000
0000
0001
0000
0000
,
1000
0000
0010
0000
1000
0000
0001
0000
0010
0000
0001
0000
,
0100
0000
0100
0000
0000
0000
0010
0000
0000
1000
0000
0000
,
0001
0000
0001
0000
0000
0000
0010
0000
0000
0100
0000
0000
,
1000
0000
0000
0000
0001
0010
0001
0000
1000
0000
0001
0000
,
0000
0000
0000
0000
1000
0010
1000
0000
0001
0000
1000
0000
,
0020
0000
0000
0130
0000
0000
0001
0000
0001
0000
0000
0000
,
0020
0000
0000
0130
0000
0000
1000
0000
1000
0000
0000
0000
,
0100
0000
0000
0000
1000
0100
0010
0000
0001
0000
1000
0000
,
0000
0000
0000
0000
0001
0100
0010
0000
1000
0000
0001
0000
,
0200
0000
0000
0310
0000
0000
1000
0000
1000
0000
0000
0000
,
0200
0000
0000
0310
0000
0000
0001
0000
0001
0000
0000
0000
,
0010
0000
0000
0000
0001
0010
0100
0000
1000
0000
0001
0000
,
0000
0000
0000
0000
1000
0010
0100
0000
0001
0000
1000
0000
,
1001
0000
1001
0000
0000
0000
0010
0000
0000
1000
0000
0000
,
0001
0000
0101
0000
0000
0000
1000
0000
1100
0000
0000
0000
,
0001
0000
0011
0000
0000
0000
0001
0000
0000
1000
0000
0000
,
0010
0000
1000
0000
0010
0000
0100
0000
0001
0000
1000
0000
,
0100
0000
0110
0000
0000
0000
0010
0000
0000
0001
0000
0000
,
1000
0000
1100
0000
0000
0000
0002
0000
0000
2003
0000
0000
,
3010
0000
0000
0000
1000
0100
1000
0000
1100
0000
1100
0000
,
0000
0000
0000
0000
0001
0100
0001
0000
0101
0000
0101
0000
,
1001
0000
1001
0000
0000
0000
0100
0000
0000
0001
0000
0000
,
1000
0000
1010
0000
0000
0000
0001
0000
0011
0000
0000
0000
,
1000
0000
1100
0000
0000
0000
1000
0000
0000
0001
0000
0000
,
0100
0000
0001
0000
0100
0000
0010
0000
1000
0000
0001
0000
,
0010
0000
0110
0000
0000
0000
0100
0000
0000
1000
0000
0000
,
0001
0000
0011
0000
0000
0000
2000
0000
0000
3002
0000
0000
,
0103
0000
0000
0000
0001
0010
0001
0000
0011
0000
0011
0000
,
0000
0000
0000
0000
1000
0010
1000
0000
1010
0000
1010
0000
;

//---------------dance-single - ----------------
#NOTEDATA:;
#CHARTNAME:;
#STEPSTYPE:dance-single;
#DESCRIPTION:;
#CHARTSTYLE:;
#DIFFICULTY:Easy;
#METER:4;
#RADARVALUES:0.213345,0.289439,0.042669,0.099561,0.085338,190.000000,6.000000,14.000000,0.000000,0.000000,0.000000,0.000000,0.000000,0.213345,0.289439,0.042669,0.099561,0.085338,190.000000,6.000000,14.000000,0.000000,0.000000,0.000000,0.000000,0.000000;
#CREDIT:Ben Speirs;
#DISPLAYBPM:119.000000;
#NOTES:
0000
0000
0000
0000
,
0000
0000
0000
0000
,
0000
0000
0000
0000
,
0000
0000
0000
0000
,
1000
0000
0001
0000
,
0010
0000
0001
1000
,
0100
0000
1000
0000
,
0010
0000
0100
0100
,
0001
0000
1000
0000
,
0100
1000
0010
0100
,
0002
0003
1001
0000
,
2000
3000
1001
1001
,
0001
0000
0100
0000
,
0010
0000
1000
0100
,
0010
0000
0001
0000
,
1000
0000
0010
0010
,
0100
0000
0001
0000
,
0010
0001
1000
0010
,
2000
3000
1001
0000
,
0002
0003
1000
0100
,
0020
0030
0020
0030
,
0001
0010
0100
1000
,
0020
0030
0020
0030
,
0100
0010
1000
0100
,
2000
3000
0002
0003
,
0100
0001
1000
0100
,
0020
0030
0002
0003
,
2002
0000
3003
1001
,
0100
0000
1000
0000
,
0010
1000
0100
0010
,
0001
0000
1000
0000
,
0010
0100
0010
1000
,
0100
0000
0010
0000
,
0001
0010
0100
1000
,
0010
0000
0000
0000
0000
0000
1000
0000
1000
0000
1000
0000
,
0000
0000
0000
0000
0000
0000
0001
0000
0001
0000
0001
0000
,
0100
0000
0010
0000
,
1000
0100
0010
0001
,
1000
0000
0001
0000
,
0010
0100
0010
0001
,
1000
0000
0010
0000
,
0100
0001
0010
0100
,
1000
0000
0000
0000
0000
0000
0001
0000
0001
0000
0001
0000
,
0000
0000
0000
0000
0000
0000
1000
0000
1000
0000
1000
0000
,
0010
0100
0001
0000
,
0010
0100
1000
0000
,
0001
0000
0000
0000
0000
0000
0100
0000
0100
0000
0100
0000
,
0000
0000
0000
0000
0000
0000
0010
0000
0010
0000
0010
0000
,
1000
0001
0010
0000
,
0100
1000
0001
0000
,
0100
0000
0000
0000
0000
0000
0010
0000
0010
0000
0010
0000
,
0000
0000
0000
0000
0000
0000
0100
0000
0100
0000
0100
0000
,
0001
0000
1000
0000
,
0100
0100
0010
0010
,
0001
0000
1000
0000
,
0001
0100
0010
1000
,
0100
0000
1000
0000
,
0010
0010
1000
1000
,
0100
0000
0000
0000
0000
0000
1000
0000
1000
0000
1000
0000
,
0000
0000
0000
0000
0000
0000
0001
0000
0001
0000
0001
0000
,
0100
0000
0010
0010
,
1000
0000
0100
0010
,
0001
0000
1000
0000
,
0001
1000
0010
0100
,
0001
0000
1000
0000
,
0100
0100
0010
0010
,
0001
0000
0000
0000
0000
0000
1000
0000
1000
0000
1000
0000
,
0000
0000
0000
0000
0000
0000
0001
0000
0001
0000
0001
0000
;

//---------------dance-single - ----------------
#NOTEDATA:;
#CHARTNAME:;
#STEPSTYPE:dance-single;
#DESCRIPTION:;
#CHARTSTYLE:;
#DIFFICULTY:Beginner;
#METER:2;
#RADARVALUES:0.131055,0.192722,0.028446,0.000000,0.000000,125.000000,4.000000,0.000000,0.000000,0.000000,0.000000,0.000000,0.000000,0.131055,0.192722,0.028446,0.000000,0.000000,125.000000,4.000000,0.000000,0.000000,0.000000,0.000000,0.000000,0.000000;
#CREDIT:Ben Speirs;
#DISPLAYBPM:119.000000;
#NOTES:
0000
0000
0000
0000
,
0000
0000
0000
0000
,
0000
0000
0000
0000
,
0000
0000
0000
0000
,
0001
0000
0000
0000
,
1000
0000
1000
0000
,
0010
0000
0000
0000
,
0100
0000
0100
0000
,
0001
0000
0000
0000
,
0010
0000
0000
0000
,
0100
0000
0000
0000
,
1000
0000
0000
0000
,
0010
0000
0010
0000
,
1000
0000
1000
0000
,
0001
0000
0001
0000
,
0100
0000
0100
0000
,
0010
0000
0010
0000
,
1000
0000
1000
0000
,
0001
0000
0000
0000
,
1000
0000
0000
0000
,
0010
0000
0010
0000
,
0100
0000
0000
0000
,
0100
0000
0100
0000
,
0001
0000
0000
0000
,
0001
0000
0001
0000
,
1000
0000
0000
0000
,
1000
0000
0001
0000
,
0100
0000
0000
0010
,
0010
0000
1000
0000
,
0100
0100
0100
0000
,
0010
0000
0001
0000
,
1000
1000
1000
0000
,
1000
0000
0010
0000
,
0100
0000
0100
0000
,
0100
0000
0000
0000
,
0001
0000
0000
0000
,
1000
0000
0100
0000
,
0010
0010
0010
0000
,
0010
0000
0001
0000
,
1000
1000
1000
0000
,
1000
0000
0001
0000
,
0100
0000
0100
0100
,
0100
0000
0000
0000
,
0010
0000
0000
0000
,
1000
1000
1000
0000
,
0001
0001
0001
0000
,
0100
0000
0100
0000
,
0010
0000
0000
0000
,
1000
1000
1000
0000
,
0001
0001
0001
0000
,
0010
0000
0010
0000
,
0100
0000
0000
0000
,
1001
1001
0000
0000
,
0100
0100
0000
0000
,
1000
1000
0000
0000
,
0001
0001
0001
0001
,
0001
0000
0100
0000
,
0010
0000
1000
1000
,
1000
0000
0000
0000
,
0100
0000
0000
0000
,
1001
1001
0000
0000
,
0100
0100
0100
0000
,
0001
0001
0000
0000
,
1000
1000
1000
1000
,
1000
0000
0100
0000
,
1000
0000
0001
0001
,
0001
0000
0000
0100
,
0100
0000
0000
0010
;

//---------------dance-double - ----------------
#NOTEDATA:;
#CHARTNAME:;
#STEPSTYPE:dance-double;
#DESCRIPTION:;
#CHARTSTYLE:;
#DIFFICULTY:Challenge;
#METER:8;
#RADARVALUES:0.490695,0.507762,0.320018,0.163565,0.643592,415.000000,45.000000,23.000000,0.000000,0.000000,0.000000,0.000000,0.000000,0.490695,0.507762,0.320018,0.163565,0.643592,415.000000,45.000000,23.000000,0.000000,0.000000,0.000000,0.000000,0.000000;
#CREDIT:;
#DISPLAYBPM:119.000000;
#NOTES:
// measure 0
00000000
00000000
00000000
00000000
,  // measure 1
00000000
00000000
00000000
00000000
,  // measure 2
00000000
00000000
00000000
00000000
,  // measure 3
00000000
00000000
00000000
00000000
,  // measure 4
00000001
00000000
00000000
00000100
00000001
00000100
00000001
00000000
00000000
00001000
00000100
00001000
,  // measure 5
00000100
00010000
00010100
00011000
,  // measure 6
00110000
00000000
00000000
00010000
01000000
00010000
01000000
00000000
00000000
00100000
10000000
00100000
,  // measure 7
10000000
10000000
11000000
01100000
,  // measure 8
00110000
00000000
00000000
10000000
00010000
10000000
00200000
00000000
00000000
01000000
00000000
00000000
,  // measure 9
01300000
00000000
00000000
00100000
10000000
00100000
01000000
00000000
00010000
00000000
00100000
00000000
,  // measure 10
00002000
00000000
00000000
00013000
00000000
00000000
00020100
00000000
00000000
00031000
00010000
00000100
,  // measure 11
00010000
00000100
00010100
00001010
,  // measure 12
00000001
00000000
00000000
00001000
00000100
00000010
00000001
00000000
00000000
00001000
00000100
00000010
,  // measure 13
00000001
00000000
00000000
00000100
00000000
00000000
00000010
00000000
00000010
00001000
00000000
00001000
,  // measure 14
00000100
00000000
00000000
00010000
00000100
00010000
00001000
00000000
00000000
00001000
00010000
00001000
,  // measure 15
00100000
00000000
00000000
00010000
00000000
00000000
10000000
00000000
10000000
00100000
00000000
00100000
,  // measure 16
01000000
00000000
00000000
00010000
10000000
00010000
20000000
00000000
00000000
00100000
00000000
00000000
,  // measure 17
30010000
00000000
00000000
10000000
00010000
10000000
00020000
00000000
01000000
00000000
00100000
00000000
,  // measure 18
20030000
00000000
00000000
00000000
00000000
00000000
31000000
00000000
00000000
10000000
01000000
00100000
,  // measure 19
00020000
00000000
00000000
01030000
00000000
00000000
01010000
00000000
00100000
00000000
10000000
00000000
,  // measure 20
12000000
00000000
00000000
03100000
00000000
00010000
20000000
00000000
00000000
30100000
00000000
00000000
,  // measure 21
10000000
00000000
01000000
00000000
00010000
00000000
00001000
00000000
00000100
00000000
00000001
00000000
,  // measure 22
00002000
00000000
00000000
00003010
00000000
00001000
00000001
00000000
00000001
00000010
00000000
00000000
,  // measure 23
00000001
00000000
00000010
00000000
00001000
00000000
00010000
00000000
00100000
00000000
10000000
00000000
,  // measure 24
00020000
00000000
00000000
10030000
00000000
00100000
02000000
00000000
00000000
03010000
00000000
00000000
,  // measure 25
10000000
00000000
01000000
00000000
00010000
00000000
00001000
00000000
00000100
00000000
00000001
00000000
,  // measure 26
00000020
00000000
00000000
00001000
00000000
00000000
00000031
00000000
00000000
00000001
00000010
00000100
,  // measure 27
00002000
00000000
00003000
00010001
,  // measure 28
00001100
00000000
00001000
00000010
00000000
00000010
00000100
00000000
00000100
00001001
00000000
00000000
,  // measure 29
00000010
00000000
00001000
00000001
00000000
00000000
00000010
00000000
00000001
00001000
00000000
00000000
,  // measure 30
00000010
00000000
00000100
00000001
00000000
00000001
00000010
00000000
00000010
00000100
00000000
00000000
,  // measure 31
00001000
00000000
00000100
00000000
00010000
00000000
00010100
00000000
00011000
00000000
00110000
00000000
,  // measure 32
00010000
00000000
10000000
00100000
00000000
01000000
00010000
00000000
00000000
10010000
00000000
00000000
,  // measure 33
00100000
10000000
00100000
01000000
00000000
00000000
00010000
10000000
00010000
01000000
00000000
00000000
,  // measure 34
00100000
00000000
00000000
10000000
01000000
00100000
00010000
00000000
00110000
00000000
10010000
00000000
,  // measure 35
10000000
00000000
00000000
00010000
01000000
00100000
10000000
00000000
10100000
00000000
10010000
00000000
,  // measure 36
00101000
00000000
00000000
00100000
00000000
00010000
10000000
00000000
10000000
01010000
00000000
00000000
,  // measure 37
00100000
10000000
01000000
00100000
00000000
00000000
00010000
10000000
00100000
01000000
00000000
00000000
,  // measure 38
00010000
10000000
00010000
01000000
00000000
00000000
00100000
00000000
00000000
10010000
00000000
00000000
,  // measure 39
10000000
00000000
01000000
00000000
00010000
00000000
00001000
00000000
00000010
00000000
00000001
00000000
,  // measure 40
00001000
00000000
00000010
00000100
00000000
00000010
00000100
00000000
00000000
00001001
00000000
00000000
,  // measure 41
00000001
00000100
00000001
00001000
00000000
00000000
00002010
00000000
00000000
00003001
00000000
00000010
,  // measure 42
00000200
00000000
00000000
00001300
00000100
00010000
00001000
00000000
00011000
00000000
00101000
00000000
,  // measure 43
00001000
00000000
00000000
00100000
00001000
00010000
00000100
00000000
00010100
00000000
00001100
00000000
,  // measure 44
00000020
00000000
00000000
00000130
00000001
00000100
00000001
00000000
00001000
00000100
00000000
00000000
,  // measure 45
00000010
00000000
00000001
00000100
00000000
00000100
00001000
00000000
00001000
00010000
00000000
00010000
,  // measure 46
00200000
00000000
00000000
10300000
00010000
10000000
00010000
00000000
00100000
00010000
00000000
10000000
,  // measure 47
00100000
00000000
00000000
10000000
00010000
10000000
00010000
00000000
01000000
00010000
00000000
10000000
,  // measure 48
02000000
00000000
00000000
03100000
00000000
00010000
01000000
00000000
01000000
00001000
00000000
00000000
,  // measure 49
00010000
00000000
00000100
00001000
00000000
00000010
00000100
00000000
00000001
00001000
00000000
00000100
,  // measure 50
00020000
00031000
00011000
00101000
,  // measure 51
00100000
00010000
00100000
00010000
00000000
00000000
10000000
00100000
01000000
00010000
00000000
00000000
,  // measure 52
11000000
00000000
00010000
01000000
00000000
00100000
10000000
00000000
00000000
00110000
00000000
00000000
,  // measure 53
10000000
01000000
00100000
00010000
00000000
00000000
01000000
00010000
00100000
00001000
00000000
00000000
,  // measure 54
00010000
00000100
00001000
00000010
00000000
00000000
00000100
00000000
00000000
00001010
00000000
00000000
,  // measure 55
00000001
00000100
00000010
00000100
00000010
00000100
00001000
00000100
00000010
00000100
00000010
00000100
,  // measure 56
00000001
00000000
00001000
00000100
00000000
00000000
00001000
00000000
00000000
00010100
00000000
00000000
,  // measure 57
00001000
00000000
00010000
00001000
00000000
00000000
00100000
00000000
00010000
01000000
00000000
01000000
,  // measure 58
00100000
00000000
00000000
10000000
00100000
01000000
00010000
00000000
10000000
01000000
00000000
10000000
,  // measure 59
00010000
00000000
00000000
00010000
01000000
00100000
10000000
00000000
00010000
01000000
00000000
00000000
,  // measure 60
20010000
00100000
31000000
01010000
,  // measure 61
10000000
01000000
00100000
00010000
00000000
00000000
01000000
00100000
00010000
00001000
00000000
00000000
,  // measure 62
00010000
00001000
00000010
00000001
00000000
00000000
00000100
00000000
00000000
00001001
00000000
00000000
,  // measure 63
00000001
00000000
00000100
00000000
00001000
00000000
00010000
00000000
00100000
10000000
00000000
10000000
,  // measure 64
02000000
00100000
03100000
10010000
,  // measure 65
10000000
01000000
00100000
00010000
00000000
00000000
01000000
00000000
00001000
00010000
00000000
00001000
,  // measure 66
00200000
00000000
00000000
00310000
00100000
01000000
10000000
00000000
11000000
00000000
01010000
00000000
,  // measure 67
00100000
00000000
00000000
00010000
10000000
00100000
01000000
00000000
01100000
00000000
01010000
00000000
,  // measure 68
00001000
00000000
00000000
00000000
;
