#VERSION:0.82;
#TITLE:Unfinished Sympathy;
#SUBTITLE:;
#ARTIST:Massive Attack;
#TITLETRANSLIT:;
#SUBTITLETRANSLIT:;
#ARTISTTRANSLIT:;
#GENRE:R'n'B;
#ORIGIN:;
#CREDIT:;
#BANNER:Unfinished Sympathy.png;
#BACKGROUND:Unfinished Sympathy-bg.png;
#PREVIEWVID:;
#JACKET:jacket.png;
#CDIMAGE:;
#DISCIMAGE:;
#LYRICSPATH:;
#CDTITLE:;
#MUSIC:Unfinished Sympathy.ogg;
#OFFSET:-0.217000;
#SAMPLESTART:75.755981;
#SAMPLELENGTH:13.714000;
#SELECTABLE:YES;
#BPMS:0.000=114.360;
#STOPS:;
#DELAYS:;
#WARPS:;
#TIMESIGNATURES:0.000=4=4;
#TICKCOUNTS:0.000=4;
#COMBOS:0.000=1;
#SPEEDS:0.000=1.000=0.000=0;
#SCROLLS:0.000=1.000;
#FAKES:;
#LABELS:0.000=Song Start;
#BGCHANGES:4.000=Unfinished Sympathy.avi=1.000=0=0=1=====,
99999=-nosongbg-=1.000=0=0=0 // don't automatically add -songbackground-
;
#KEYSOUNDS:;
#ATTACKS:
;

//---------------dance-single - ----------------
#NOTEDATA:;
#CHARTNAME:;
#STEPSTYPE:dance-single;
#DESCRIPTION:;
#CHARTSTYLE:;
#DIFFICULTY:Hard;
#METER:7;
#RADARVALUES:0.427178,0.468099,0.139731,0.174664,0.150211,383.000000,20.000000,25.000000,0.000000,0.000000,0.000000,0.000000,0.000000,0.427178,0.468099,0.139731,0.174664,0.150211,383.000000,20.000000,25.000000,0.000000,0.000000,0.000000,0.000000,0.000000;
#CREDIT:;
#NOTES:
0000
0000
0000
0000
,
0000
0000
0000
0000
,
0000
0000
0000
0000
,
0000
0000
0000
0000
,
1000
0000
0100
0000
1000
0000
0000
0001
0000
0001
0000
0000
1000
0000
0000
0000
,
0001
0000
0100
0000
0001
0000
0000
1000
0000
1000
0000
0000
0001
0000
0000
0000
,
1000
0000
0010
0000
1000
0000
0000
0001
0000
0001
0000
0000
1000
0000
0000
0000
,
0001
0000
0010
0000
0001
0000
0000
1000
0000
1000
0000
0000
0001
0000
0000
0000
,
0010
0001
1000
0001
0100
0010
1000
0100
,
2000
3000
0100
0100
,
1000
0100
1000
0010
0100
0001
1000
0001
,
0020
0030
0001
0001
,
0100
0001
0010
0100
1000
0010
0100
0001
,
1000
0000
0001
0000
0100
0001
1000
0000
,
0001
1000
0010
0100
0001
0010
0100
1000
,
0001
0000
1000
0000
0010
1000
0100
0000
,
2100
0000
3001
0000
1000
0100
0010
0000
,
0100
0010
0001
0000
2000
0000
3001
0000
,
0102
0000
1003
0000
0001
1000
0010
0100
,
0001
1000
0001
0000
1000
0000
0010
1000
,
0100
0000
1000
0001
2000
0000
3001
0000
,
1000
0000
0001
1000
0002
0000
1003
0000
,
0001
0000
1000
0100
0010
0000
0001
0000
,
0010
0001
0100
0010
2000
0000
3000
0000
,
0001
0000
1000
0010
0100
0000
0001
0000
,
1000
1000
0001
1000
0010
0000
1000
0000
,
0001
0100
0001
1000
0100
1000
0001
0000
,
0011
1010
2200
3300
,
0001
0000
1000
0000
0001
0000
0000
0100
0000
0100
0000
0000
0001
0000
0000
0000
,
1000
0000
0010
0000
1000
0000
0000
0001
0000
0001
0000
0000
0010
0000
0000
0000
,
0001
0000
0010
0000
0100
0000
0000
0010
0000
0010
0000
0000
0001
0000
0000
0000
,
1000
0000
0100
0000
0010
0000
0000
0100
0000
0100
0000
0000
1000
0000
0000
0000
,
0010
0000
1000
0000
0100
0000
0000
1000
0000
1000
0000
0000
0010
0000
1000
0000
,
0100
0000
0010
0000
0001
0000
0000
0010
0000
0010
0000
0000
0001
0000
1000
0000
,
0010
0000
0010
0000
0100
0000
0000
0001
0000
0001
0000
0000
0100
0000
0001
0000
,
1000
0000
1000
0000
0100
0000
0000
1000
0000
1000
0000
0000
0001
0000
1000
0000
,
0020
0000
0000
0000
0130
0000
0010
0100
0010
0000
0100
0000
0001
0000
0010
0000
,
0200
0000
0000
0000
1300
0000
0100
1000
0100
0000
1000
0000
0010
0000
0100
0000
,
0002
0000
0000
0000
0103
0000
0001
0100
0001
0000
0100
0000
0010
0000
1000
0000
,
0001
0000
1000
0100
0010
0000
0100
0010
,
0001
0000
0010
0001
1000
0001
0100
0000
,
0101
1100
0101
1100
,
0001
1000
0010
0000
1000
0000
1100
0000
,
0011
0000
1000
0001
1000
0010
0100
0000
,
0101
0000
0100
0010
1000
0001
0000
0000
,
2010
0000
0001
0000
0100
0000
3010
1000
,
0200
0000
0310
0000
0010
0001
1000
0001
,
0200
0310
2000
3100
,
1000
0000
0001
0010
0100
1000
0001
0000
,
2001
0000
3100
0000
1000
0010
0100
0000
,
0201
0000
0310
0000
0100
0001
1000
0000
,
0012
0000
1003
0001
1000
0010
0100
0000
,
0001
0010
0100
1000
0001
0000
0000
0000
1000
0000
0010
0000
0100
0000
0000
0000
,
0001
0100
0001
0100
0001
0100
0001
0100
,
2001
0000
0000
0000
3010
0000
0100
0010
0100
0000
0010
0000
1000
0000
0100
0000
,
0010
0000
0000
0000
0001
0000
0100
0001
0100
0000
0001
0000
1000
0000
0010
0000
,
0100
0000
0000
0000
0001
0000
1000
0100
1000
0000
0100
0000
1000
0000
0010
0000
,
0200
1000
0010
0301
,
0101
0000
0000
0000
0100
0000
0001
1000
0001
0000
1000
0000
0010
0000
0100
0000
,
0001
0000
0000
0000
1000
0000
0100
1000
0100
0000
1000
0000
0010
0000
0100
0000
,
0001
0000
0000
0000
1000
0000
0010
0100
0010
0000
0100
0000
0001
0000
1000
0000
,
0010
0000
1000
0100
0010
0001
0000
0000
,
2100
0001
0010
3001
,
0102
1000
0010
0103
,
0001
0000
1000
0000
0001
1000
0000
0010
0000
0100
0000
0010
0100
0000
0010
0000
,
1000
0000
0001
0000
1000
0001
0000
0100
0000
0010
0000
0100
0010
0000
0100
0000
,
0001
0002
0000
0000
0000
0100
0000
0000
,
1003
0000
0000
0000
;

//---------------dance-double - ----------------
#NOTEDATA:;
#CHARTNAME:;
#STEPSTYPE:dance-double;
#DESCRIPTION:;
#CHARTSTYLE:;
#DIFFICULTY:Challenge;
#METER:7;
#RADARVALUES:0.404222,0.468099,0.097812,0.181651,0.146718,365.000000,14.000000,26.000000,0.000000,0.000000,0.000000,0.000000,0.000000,0.404222,0.468099,0.097812,0.181651,0.146718,365.000000,14.000000,26.000000,0.000000,0.000000,0.000000,0.000000,0.000000;
#CREDIT:Ben Speirs;
#NOTES:
00000000
00000000
00000000
00000000
,
00000000
00000000
00000000
00000000
,
00000000
00000000
00000000
00000000
,
00000000
00000000
00000000
00000000
,
00000001
00000000
00000100
00000000
00000001
00000000
00000000
00001000
00000000
00001000
00000000
00000000
00000010
00000000
00000000
00000000
,
00001000
00000000
00000100
00000000
00001000
00000000
00000000
00000001
00000000
00000001
00000000
00000000
00001000
00000000
00000000
00000000
,
00000100
00000000
00010000
00000000
00000100
00000000
00000000
00010000
00000000
00001000
00000000
00000000
00010000
00000000
00000000
00000000
,
00001000
00000000
00100000
00000000
00001000
00000000
00000000
00100000
00000000
00010000
00000000
00000000
01000000
00000000
00000000
00000000
,
00010000
01000000
00100000
10000000
01000000
00100000
00010000
20000000
,
00000000
30000000
01000000
01000000
,
10000000
00100000
01000000
00010000
00100000
00010000
01000000
00002000
,
00000000
00003000
00010000
00010000
,
00000100
00001000
00000010
00000000
00000100
00000010
00001000
00000000
,
00000010
00001000
00000001
00000000
00000010
00000001
00000100
00000000
,
00000001
00000000
00000100
00000000
00000010
00000000
00000000
00001000
00000000
00000100
00000000
00000000
00000010
00000000
00000000
00000000
,
00000001
00000000
00001000
00000000
00000010
00000000
00000000
00000100
00000000
00000001
00000000
00000000
00001000
00000000
00000000
00000000
,
00000010
00000000
00001000
00000000
00000100
00010000
00001000
00000000
,
00010000
00001000
00100000
00001000
00010000
00000000
00000100
00000000
,
00010000
00000000
00001000
01000000
00010000
00000000
10000000
00000000
,
00100000
00100000
10000000
00000000
01000000
10000000
00010000
00000000
,
10000000
00000000
00100000
01000000
00100000
00000000
10000000
00000000
,
00010000
00000000
00100000
01000000
00100000
00000000
00010000
00000000
,
10000000
00000000
00100000
01000000
00010000
00000000
00000000
00000000
,
01000000
00010000
00100000
00001000
00020000
00000000
00030000
00000000
,
00000100
00000000
00010000
00000000
00001000
00010000
00000100
00000000
,
00001000
00001000
00000010
00000000
00000100
00000000
00000001
00000000
,
00001000
00000000
00000001
00000000
00000010
00000001
00001000
00000000
,
00001001
00000110
00002002
00003003
,
00000001
00000000
00000100
00000000
00000001
00000000
00000000
00001000
00000000
00001000
00000000
00000000
00000001
00000000
00000000
00000000
,
00001000
00000000
00000100
00000000
00001000
00000000
00000000
00000001
00000000
00000001
00000000
00000000
00001000
00000000
00000000
00000000
,
00000100
00000000
00010000
00000000
00001000
00000000
00000000
00010000
00000000
00001000
00000000
00000000
00010000
00000000
00000000
00000000
,
00001000
00000000
00100000
00000000
00010000
00000000
00000000
00100000
00000000
00010000
00000000
00000000
10000000
00000000
00000000
00000000
,
00100000
00000000
10000000
00000000
00010000
00000000
00000000
01000000
00000000
01000000
00000000
00000000
00010000
00000000
00100000
00000000
,
00001000
00000000
00001000
00000000
00010000
00000000
00000000
00000100
00000000
00000100
00000000
00000000
00010000
00000000
00001000
00000000
,
00010000
00000000
00000100
00000000
00001000
00000000
00000000
00000010
00000000
00000010
00000000
00000000
00000100
00000000
00000010
00000000
,
00001000
00000000
00000001
00000000
00000010
00000000
00000000
00000001
00000000
00000001
00000000
00000000
00001000
00000000
00000010
00000000
,
00000200
00000000
00000000
00000000
00000301
00000000
00000100
00000010
00000100
00000000
00000001
00000000
00000010
00000000
00000100
00000000
,
00002000
00000000
00000000
00000000
00003100
00000000
00010000
00000100
00010000
00000000
00001000
00000000
00100000
00000000
00010000
00000000
,
02000000
00000000
00000000
00000000
03100000
00000000
01000000
00100000
01000000
00000000
00100000
00000000
10000000
00000000
01000000
00000000
,
00100000
00000000
00010000
00100000
10000000
00000000
00010000
00100000
,
10000000
00000000
00010000
00100000
10000000
00000000
11000000
00000000
,
10020000
00000000
01030000
00000000
00010000
01000000
00100000
01000000
,
10000000
00000000
01000000
00100000
10000000
00000000
11000000
00000000
,
00020000
00000000
00000000
00030000
00100000
00000000
00010000
00000000
01000000
00000000
00000000
00000000
00001000
00000000
00010000
00000000
,
00000100
00000000
00010000
00000010
00000100
00000001
00000000
00000000
,
00002010
00000000
00003001
00000000
00000010
00000001
00001000
00000000
,
00000001
00000000
00000100
00000010
00000100
00001000
00000100
00000000
,
00002010
00003001
00000012
00001003
,
00000001
00000000
00000100
00000010
00000100
00001000
00000100
00000000
,
00000120
00000000
00001030
00000000
00000010
00001000
00000100
00000000
,
00001200
00000000
00010300
00000000
00000100
00010000
00001000
00000000
,
00100000
00001000
00010000
00000000
00001000
01000000
00010000
00000000
,
10000000
00010000
10000000
00010000
10000000
00000000
00000000
00000000
00010000
00000000
10000000
00000000
00100000
00000000
00000000
00000000
,
01000000
01000000
01000000
01000000
,
20020000
00000000
30030000
00000000
10000000
00100000
00010000
00001000
,
00200000
00000000
00310000
00000000
00100000
00001000
00010000
00000000
,
00021000
00000000
00030100
00000000
00001000
00000010
00000100
00000100
,
00000020
00000000
00001030
00000010
00001000
00000001
00000010
00000000
,
00000002
00000000
00000000
00000000
00000103
00000000
00000001
00000100
00000001
00000000
00000100
00000000
00000010
00000000
00001000
00000000
,
00000200
00000000
00000310
00000000
00001000
00000010
00000001
00001000
,
00000020
00000000
00000130
00000000
00000010
00001000
00000100
00010000
,
00002000
00000000
00100000
00100000
00010000
00013000
00000000
00000000
,
00011000
00020000
00000000
00000000
00031000
00010000
00001000
00100000
,
00010000
00000000
10000000
00100000
01000000
00000000
00010000
00000000
,
00100000
00000000
00010000
00000000
00100000
00010000
00000000
00100000
00000000
00001000
00000000
00010000
00001000
00000000
00010000
00000000
,
00000100
00000000
00010000
00000000
00000100
00001000
00000000
00000100
00000000
00001000
00000000
00000010
00000100
00000000
00000010
00000000
,
00001000
00002000
00000000
00000000
00000000
00000100
00000000
00000000
,
00003001
00000000
00000000
00000000
;

//---------------dance-single - ----------------
#NOTEDATA:;
#CHARTNAME:;
#STEPSTYPE:dance-single;
#DESCRIPTION:;
#CHARTSTYLE:;
#DIFFICULTY:Medium;
#METER:5;
#RADARVALUES:0.285451,0.421289,0.104798,0.321382,0.000000,225.000000,15.000000,46.000000,0.000000,0.000000,0.000000,0.000000,0.000000,0.285451,0.421289,0.104798,0.321382,0.000000,225.000000,15.000000,46.000000,0.000000,0.000000,0.000000,0.000000,0.000000;
#CREDIT:Ben Speirs;
#NOTES:
0000
0000
0000
0000
,
0000
0000
0000
0000
,
0000
0000
0000
0000
,
0000
0000
0000
0000
,
0002
0000
0103
0000
0001
0000
0100
0100
,
0020
0000
1030
0000
0010
0000
1000
1000
,
0200
0000
1300
0000
0001
0000
1000
1000
,
0020
0130
0002
0003
,
2000
0100
3100
1000
,
0010
0100
0001
0000
,
0002
1000
1003
0001
,
2000
0010
3010
0000
,
1000
0000
0100
0000
0010
0100
0010
0000
,
0001
1000
0010
0000
,
1000
0000
0001
0000
1000
0100
1000
0000
,
0001
1000
0010
0000
,
0201
0000
0300
0000
0010
0100
0010
0000
,
1000
0000
0100
0010
0001
0000
0000
0000
,
1200
0000
0300
0000
1000
0010
1000
0000
,
0001
0010
0100
0000
0010
0000
0000
0000
,
0001
0000
0100
0001
0100
0000
0000
0000
,
0001
0000
1000
0100
1000
0000
0000
0000
,
0001
0000
1000
0010
1000
0000
0000
0000
,
0001
1000
0100
0000
,
1000
0100
0010
0010
,
0002
0003
2000
3000
,
0010
1000
0100
0000
,
1000
0001
2002
3003
,
0001
0000
0100
0000
0010
0000
0100
0100
,
0001
1000
0001
0000
,
1000
0000
0100
0000
0010
0000
0100
0100
,
1000
0010
0100
0000
,
0001
1000
0010
0100
,
0001
0000
0010
0001
1000
0000
0000
0000
,
0001
1000
0010
0100
,
0010
0000
1000
0100
0010
0000
0000
0000
,
2200
0000
3300
0000
0001
1000
0001
0000
,
0202
0000
0303
0000
1000
0001
1000
0000
,
2020
0000
3030
0000
0001
1000
0001
0000
,
1000
0020
0030
0020
,
0030
0020
0030
1000
,
2002
0000
3003
0000
,
0001
1000
0010
0100
,
0200
0000
0301
1000
,
0010
0000
1000
0100
0010
0001
0000
0000
,
2002
0000
3003
0001
,
1000
0000
0010
1000
,
0200
0300
0020
0030
,
0001
0000
1000
0001
1000
0001
0000
0000
,
2200
3300
0100
1000
,
2002
3003
0001
0100
,
0202
0303
0001
1000
,
0010
1000
0001
0000
0000
0000
0010
0000
,
1001
1001
1001
1001
,
2000
0000
3000
0000
0100
1000
0010
0000
,
0200
0000
0300
0000
0010
0100
0001
0000
,
2000
0000
3000
0000
0001
1000
0010
0000
,
0200
0300
0010
0010
,
0200
0000
0300
0000
0001
1000
0100
0000
,
2000
0000
3000
0000
0100
1000
0010
0000
,
2000
0000
3000
0000
0010
1000
0001
0000
,
0020
0030
0000
0000
,
0002
0010
0000
0013
,
0001
1000
0010
0000
,
2000
0100
0000
3100
,
1000
0010
0100
0000
,
0001
0001
0000
0000
0000
0000
0000
0000
,
1000
0000
0000
0000
;

//---------------dance-single - ----------------
#NOTEDATA:;
#CHARTNAME:;
#STEPSTYPE:dance-single;
#DESCRIPTION:;
#CHARTSTYLE:;
#DIFFICULTY:Easy;
#METER:2;
#RADARVALUES:0.151708,0.234050,0.000000,0.153704,0.000000,130.000000,0.000000,22.000000,0.000000,0.000000,0.000000,0.000000,0.000000,0.151708,0.234050,0.000000,0.153704,0.000000,130.000000,0.000000,22.000000,0.000000,0.000000,0.000000,0.000000,0.000000;
#CREDIT:Ben Speirs;
#NOTES:
// measure 0
0000
0000
0000
0000
,  // measure 1
0000
0000
0000
0000
,  // measure 2
0000
0000
0000
0000
,  // measure 3
0000
0000
0000
0000
,  // measure 4
1000
0000
0001
0000
,  // measure 5
0100
0100
0010
0010
,  // measure 6
0100
0000
0001
0000
,  // measure 7
1000
1000
0001
0001
,  // measure 8
1000
0000
0100
0000
,  // measure 9
0020
0030
0000
0000
,  // measure 10
0001
0000
1000
0000
,  // measure 11
0020
0030
0000
0000
,  // measure 12
0200
0300
0000
0000
,  // measure 13
0001
0000
1000
0000
,  // measure 14
0010
0000
1000
0000
,  // measure 15
0002
0003
0000
0000
,  // measure 16
1000
0000
0100
0100
,  // measure 17
0010
0000
0001
0000
,  // measure 18
1000
0000
0010
0010
,  // measure 19
0100
0000
0000
0000
,  // measure 20
0000
0001
0001
0000
,  // measure 21
0000
1000
1000
0000
,  // measure 22
0000
0010
1000
0000
,  // measure 23
0001
0010
0100
0000
,  // measure 24
0010
0000
0001
0000
,  // measure 25
1000
0000
1000
0000
,  // measure 26
0010
0000
0100
0000
,  // measure 27
0001
1000
0001
0000
,  // measure 28
1000
0000
0000
0100
,  // measure 29
0010
0000
0000
0001
,  // measure 30
0100
0000
0010
0000
,  // measure 31
2000
3000
0000
0000
,  // measure 32
0002
0003
0000
0000
,  // measure 33
1000
0000
0001
0000
,  // measure 34
0100
0000
0010
0000
,  // measure 35
0020
0030
0000
0000
,  // measure 36
1000
0000
0100
1000
,  // measure 37
0000
0000
0001
0100
,  // measure 38
0000
0000
0001
1000
,  // measure 39
0000
0010
0000
0010
,  // measure 40
0000
0010
0000
0000
,  // measure 41
2000
0000
3000
0000
,  // measure 42
0100
0000
0000
1000
,  // measure 43
0010
0000
0100
0000
,  // measure 44
0002
0000
0003
0000
,  // measure 45
0200
0000
0300
0000
,  // measure 46
0001
0000
0100
0010
,  // measure 47
1000
0000
0001
0000
,  // measure 48
0010
0000
0001
0000
,  // measure 49
2000
3000
0000
0100
,  // measure 50
0020
0030
0000
0001
,  // measure 51
0200
0300
0000
0001
,  // measure 52
2000
3000
0000
0000
,  // measure 53
0001
1000
0001
1000
,  // measure 54
0020
0030
0100
0100
,  // measure 55
0002
0003
1000
1000
,  // measure 56
0200
0300
0010
0010
,  // measure 57
0001
0000
1000
0000
,  // measure 58
0010
0000
1000
1000
,  // measure 59
0200
0300
0010
0010
,  // measure 60
0002
0003
1000
1000
,  // measure 61
0010
0000
0000
0000
,  // measure 62
2000
3000
0000
0000
,  // measure 63
0002
0003
0000
0000
,  // measure 64
0100
0010
0100
0000
,  // measure 65
0001
0100
0001
0000
,  // measure 66
2000
3000
0000
0000
,  // measure 67
0001
0000
0000
0000
;

//---------------dance-single - ----------------
#NOTEDATA:;
#CHARTNAME:;
#STEPSTYPE:dance-single;
#DESCRIPTION:;
#CHARTSTYLE:;
#DIFFICULTY:Beginner;
#METER:1;
#RADARVALUES:0.090825,0.163835,0.013973,0.000000,0.000000,89.000000,2.000000,0.000000,0.000000,0.000000,0.000000,0.000000,0.000000,0.090825,0.163835,0.013973,0.000000,0.000000,89.000000,2.000000,0.000000,0.000000,0.000000,0.000000,0.000000,0.000000;
#CREDIT:Ben Speirs;
#NOTES:
// measure 0
0000
0000
0000
0000
,  // measure 1
0000
0000
0000
0000
,  // measure 2
0000
0000
0000
0000
,  // measure 3
0000
0000
0000
0000
,  // measure 4
0001
0000
0000
0000
,  // measure 5
1000
0000
0000
0000
,  // measure 6
1000
0000
0000
0000
,  // measure 7
0010
0000
0000
0000
,  // measure 8
0100
0000
0100
0000
,  // measure 9
0100
0000
0000
0000
,  // measure 10
0001
0000
0001
0000
,  // measure 11
0001
0000
0000
0000
,  // measure 12
1000
0000
1000
0000
,  // measure 13
1000
0000
0000
0000
,  // measure 14
0010
0000
0010
0000
,  // measure 15
0010
0000
0000
0000
,  // measure 16
1000
0000
0000
0000
,  // measure 17
0001
0000
0000
0000
,  // measure 18
0100
0000
0100
0000
,  // measure 19
0100
0000
0000
0000
,  // measure 20
0000
0001
0001
0000
,  // measure 21
0000
1000
1000
0000
,  // measure 22
0000
0010
0010
0000
,  // measure 23
0010
0000
0000
0000
,  // measure 24
1000
0000
0000
0000
,  // measure 25
0001
0000
0000
0000
,  // measure 26
1000
0000
0000
0000
,  // measure 27
0010
0010
0010
0000
,  // measure 28
0010
0000
0000
0000
,  // measure 29
0100
0000
0000
0000
,  // measure 30
0001
0000
0000
0000
,  // measure 31
1000
0000
0000
0000
,  // measure 32
0010
0000
0010
0000
,  // measure 33
0010
0000
0000
0000
,  // measure 34
1000
0000
1000
0000
,  // measure 35
1000
0000
0000
0000
,  // measure 36
0000
0000
0001
0001
,  // measure 37
0000
0000
0100
0100
,  // measure 38
0000
0000
0010
0010
,  // measure 39
0000
0000
0000
0000
,  // measure 40
1000
0000
1000
0000
,  // measure 41
1001
0000
0000
0000
,  // measure 42
0001
0000
0000
0100
,  // measure 43
0100
0000
0000
0000
,  // measure 44
0010
0000
0000
0000
,  // measure 45
1000
0000
0000
0000
,  // measure 46
0100
0000
0000
0100
,  // measure 47
0100
0000
0100
0000
,  // measure 48
0100
0000
0000
0000
,  // measure 49
1001
0000
0000
0000
,  // measure 50
0001
0000
0000
0000
,  // measure 51
0100
0000
0000
0000
,  // measure 52
0010
0010
0000
0000
,  // measure 53
1000
1000
1000
1000
,  // measure 54
1000
0000
0000
0000
,  // measure 55
0001
0000
0000
0000
,  // measure 56
0100
0000
0000
0000
,  // measure 57
0010
0000
0000
0000
,  // measure 58
0000
0000
1000
1000
,  // measure 59
0000
0000
0001
0001
,  // measure 60
0000
0000
0100
0100
,  // measure 61
0000
0000
0000
0000
,  // measure 62
0001
0000
0000
0000
,  // measure 63
1000
0000
0000
0000
,  // measure 64
0010
0000
0010
0000
,  // measure 65
0010
0000
0000
0000
,  // measure 66
0100
0000
0000
0000
,  // measure 67
0001
0000
0000
0000
;
