#VERSION:0.82;
#TITLE:Sweet Lovin';
#SUBTITLE:;
#ARTIST:Sigala;
#TITLETRANSLIT:;
#SUBTITLETRANSLIT:;
#ARTISTTRANSLIT:;
#GENRE:Sweet Like Chocolate;
#ORIGIN:;
#CREDIT:;
#BANNER:Sweet Lovin'.png;
#BACKGROUND:Sweet Lovin'-bg.png;
#PREVIEWVID:;
#JACKET:jacket.png;
#CDIMAGE:;
#DISCIMAGE:;
#LYRICSPATH:;
#CDTITLE:;
#MUSIC:Sweet Lovin'.ogg;
#OFFSET:-0.090000;
#SAMPLESTART:46.084225;
#SAMPLELENGTH:13.714000;
#SELECTABLE:YES;
#DISPLAYBPM:125.000000;
#BPMS:0.000=125.000,
96.000=250.000,
97.000=125.000,
193.000=250.000,
194.000=125.000,
224.000=250.000,
225.000=125.000;
#STOPS:96.000=0.240,
193.000=0.240,
224.000=0.240;
#DELAYS:;
#WARPS:;
#TIMESIGNATURES:0.000=4=4;
#TICKCOUNTS:0.000=4;
#COMBOS:0.000=1;
#SPEEDS:0.000=1.000=0.000=0;
#SCROLLS:0.000=1.000;
#FAKES:;
#LABELS:0.000=Song Start;
#BGCHANGES:8.000=Sweet Lovin'.avi=1.000=0=0=1=====,
99999=-nosongbg-=1.000=0=0=0 // don't automatically add -songbackground-
;
#KEYSOUNDS:;
#ATTACKS:
;

//---------------dance-single - ----------------
#NOTEDATA:;
#CHARTNAME:;
#STEPSTYPE:dance-single;
#DESCRIPTION:;
#CHARTSTYLE:;
#DIFFICULTY:Hard;
#METER:8;
#RADARVALUES:0.509320,0.566510,0.272047,0.093069,0.171819,447.000000,38.000000,13.000000,0.000000,0.000000,0.000000,0.000000,0.000000,0.509320,0.566510,0.272047,0.093069,0.171819,447.000000,38.000000,13.000000,0.000000,0.000000,0.000000,0.000000,0.000000;
#CREDIT:Ben Speirs;
#DISPLAYBPM:125.000000;
#NOTES:
0000
0000
0000
0000
,
0000
0000
0000
0000
,
0000
0000
0000
0000
,
0000
0000
0000
0000
,
1010
0001
0100
0001
,
1000
0000
0100
0000
0010
0001
1000
0000
,
0011
1000
0001
0100
,
0010
0000
0010
0000
1000
0001
0100
0000
,
0020
0000
2030
0000
3001
0100
0100
0000
,
0002
0000
0000
2003
0000
0000
3100
0000
,
1100
0000
0011
0000
1000
0001
1000
0000
,
0010
0000
0100
0002
0000
0000
1003
0000
,
0001
0100
0001
1000
0001
0000
0100
0000
,
0010
1000
0100
0010
0001
0000
1000
0000
,
2100
0000
3001
1000
0001
0000
0000
0000
,
0100
0010
1000
0000
0001
0100
0001
0000
,
1000
1100
0001
0011
,
1000
1010
0001
0101
,
1000
1001
0001
1001
,
0100
0010
1000
0000
0100
0010
0001
0000
,
1000
0100
1100
0000
0001
0100
0101
0000
,
1000
1010
0001
0011
,
1000
0001
1000
0001
0100
0010
0100
0010
,
1000
0100
0010
0001
1000
0010
0100
0001
,
1000
0000
0101
0000
1000
1000
0100
0001
,
0001
0100
1000
1000
0001
0100
0010
1000
,
0001
0000
1001
0000
0100
0100
0010
0100
,
0100
0001
0010
0100
1000
0000
0001
1000
,
0010
0000
1010
0000
0001
0001
0010
1000
,
1000
0010
0001
0001
1000
0010
0100
0001
,
1000
0100
0001
0100
2000
0000
3001
0010
,
0200
2300
3020
0230
,
0301
1000
0000
0000
0010
0000
1000
0000
0001
0000
0000
0100
0000
0000
0001
0000
,
1000
0100
0000
0000
1000
0000
0001
0000
0010
0000
0000
0001
0000
0000
1000
0000
,
0010
0100
0000
0000
0001
0000
1000
0000
0100
0000
0000
0010
0000
0000
0001
0000
,
1000
0010
0000
0000
1000
0000
0001
0000
0010
0000
0100
0000
1000
0000
0000
0000
,
0001
0100
0000
0000
0010
0000
1000
0000
0100
0000
0000
0010
0000
0000
0001
0000
,
1000
0010
0000
0000
1000
0000
0001
0000
0100
0000
0000
0010
0000
0000
1000
0000
,
0100
0010
0000
0000
0100
0000
1000
0000
0010
0000
0000
0100
0000
0000
0001
0000
,
1000
0100
0010
0001
0100
0010
1000
0000
,
0101
0000
1000
0100
0010
0001
1000
0010
,
0100
0000
0001
1000
0001
0100
0010
0000
,
0101
0000
1000
0001
0010
0100
1000
0001
,
0100
0000
0010
1000
0100
1000
0001
0000
,
1000
0000
0000
0001
0100
0000
0000
0000
0010
0000
1000
0000
0100
0000
0010
0000
,
0001
0000
0000
1000
0100
0000
0000
0000
0010
0000
0001
0000
1000
0000
0010
0000
,
0100
0000
0000
0100
0010
0000
0000
0000
1000
0000
0000
1000
0100
0000
0000
0000
,
0010
0001
1000
0010
1000
0001
0100
0000
,
0010
0000
1001
0000
0101
0100
0010
1000
,
0100
0010
0100
0000
1000
0000
0010
0000
0100
0000
0001
0000
1000
0000
0000
0000
,
0001
0100
0101
0000
1000
1000
0001
0010
,
0100
1000
0100
0000
0010
0000
0001
0000
1000
0000
0010
0000
0100
0000
0000
0000
,
0001
1000
1001
0010
1000
0100
0010
0001
,
1000
1000
0100
1000
0001
0001
0010
0001
,
1000
0010
0100
0001
2000
0000
3100
0010
,
0011
1010
0101
1100
,
0010
0000
0000
0000
1001
0000
0000
0000
1000
0100
1000
0000
0001
0000
1000
0100
,
1000
0000
0010
0000
1000
0100
1000
0000
0001
0000
0100
0000
0100
0000
0010
0000
,
1010
0000
0000
0000
1001
0000
0000
0000
0001
0010
0001
0000
1000
0000
0001
0010
,
0001
0100
0010
1000
0100
0010
0001
0000
,
0011
0000
0000
0000
1001
0000
0000
0000
1000
0100
1000
0000
0010
0000
0100
0001
,
0100
0000
0010
0000
1000
0100
1000
0000
0001
0000
0010
0000
0100
0000
1000
0000
,
0001
0100
1000
0100
0002
0000
1003
0010
,
1010
0101
0011
1100
,
0001
0000
1000
0000
0001
0000
0000
0100
0000
0100
0010
0000
1000
0000
0100
0000
,
0010
0000
0001
0000
1000
0000
0000
0010
0000
1000
0001
0000
0000
0100
0001
0000
,
1000
0000
0001
0000
1000
0000
0000
0010
0000
0010
0100
0000
0001
0000
0010
0000
,
0100
0000
1000
0000
0001
0000
0000
0000
0100
0000
0010
1000
0010
0000
1000
0000
,
0001
0000
0100
0000
0001
0000
0000
1000
0000
1000
0100
0000
0010
0000
0001
0000
,
1000
0000
0001
0000
0100
0000
0000
0010
0000
1000
0001
0000
0000
0100
0001
0000
,
1000
0000
0100
0000
1100
0000
0000
0001
0100
0000
0000
0010
1000
0000
0010
0000
,
0100
0001
0000
0001
1000
0100
1000
0000
0001
0100
0001
0000
1000
0010
1000
0010
;

//---------------dance-single - ----------------
#NOTEDATA:;
#CHARTNAME:;
#STEPSTYPE:dance-single;
#DESCRIPTION:;
#CHARTSTYLE:;
#DIFFICULTY:Medium;
#METER:5;
#RADARVALUES:0.308865,0.385921,0.200455,0.064432,0.000000,265.000000,28.000000,9.000000,0.000000,0.000000,0.000000,0.000000,0.000000,0.308865,0.385921,0.200455,0.064432,0.000000,265.000000,28.000000,9.000000,0.000000,0.000000,0.000000,0.000000,0.000000;
#CREDIT:Ben Speirs;
#DISPLAYBPM:125.000000;
#NOTES:
0000
0000
0000
0000
,
0000
0000
0000
0000
,
0000
0000
0000
0000
,
0000
0000
0000
0000
,
1000
0001
0100
0100
,
0010
0000
1000
0001
,
1000
0100
0010
0010
,
0001
0000
1000
0001
,
0100
0100
0100
0000
,
0010
0000
1000
0000
,
0001
0001
0001
0000
,
0010
0000
0001
0000
,
1000
0100
0010
0000
,
0001
1000
0010
0000
,
0100
0001
1000
0000
,
0010
0010
0010
0000
,
0000
1100
0000
0101
,
0000
1010
0000
0011
,
0000
1001
0000
0110
,
0000
1001
0000
0110
,
1000
1000
0001
0001
,
0100
0010
1000
0000
,
0001
0001
1000
1000
,
0100
0010
0100
0000
0010
0100
0010
0000
,
0001
0000
1001
0000
1000
0100
0000
1000
,
0100
0000
1000
0100
1000
0000
0001
0000
,
0100
0000
1001
0000
0001
0100
0000
0001
,
0100
0010
1000
0010
,
1010
0000
1001
0000
0001
0010
0000
0001
,
0010
0000
0001
0010
0001
0000
1000
0000
,
0010
0100
0001
1000
,
1100
0011
0101
1010
,
0000
0000
0001
0000
1000
0100
1000
0000
,
0000
0000
0010
0000
0100
0001
0100
0000
,
0000
0000
0001
0000
1000
0100
1000
0000
,
0010
0010
0100
0100
,
0000
0000
0001
0000
1000
0100
1000
0000
,
0000
0000
0010
0000
0100
0001
0100
0000
,
0000
0000
0001
0000
1000
0100
1000
0000
,
0010
0010
0100
0100
,
0001
1000
0001
0000
,
1000
0100
0010
0001
,
1000
0010
1000
0000
,
0010
0010
0100
0100
,
0001
1000
0001
0000
,
1000
0100
1000
1000
,
0001
0000
1000
0000
,
0010
0100
0001
0000
,
1000
0000
1001
0000
0110
0000
1000
0010
,
1000
0001
0100
0000
,
0001
0000
0101
0000
1000
0100
1000
0000
,
0001
0010
0100
0000
,
1000
1010
0001
0000
,
0100
0101
1000
0000
,
0001
0100
0001
0000
1000
0000
0001
0000
,
1100
0011
0101
1010
,
0100
0000
1001
0000
1000
0100
0000
1000
,
0100
0000
1000
0100
1000
0000
0010
0000
,
1000
0000
0001
0000
0100
0001
0000
0100
,
0001
0000
0100
0001
0100
0000
0010
0000
,
1000
0000
0001
0000
0010
0001
0000
0010
,
0001
0000
0010
0001
0010
0000
0001
0000
,
1000
0001
0100
0000
,
0001
1000
0001
1000
0010
0100
0010
0100
,
0002
0103
0010
1000
,
0200
0310
0002
1003
,
0020
0130
0001
1000
,
0200
0000
0310
0000
0001
0010
0100
1000
,
0020
0130
0001
1000
,
0200
0310
0002
1003
,
0020
0000
0130
0000
0001
1000
0001
0000
,
1100
0000
0101
0000
1000
0100
0010
0001
;

//---------------dance-single - ----------------
#NOTEDATA:;
#CHARTNAME:;
#STEPSTYPE:dance-single;
#DESCRIPTION:;
#CHARTSTYLE:;
#DIFFICULTY:Easy;
#METER:3;
#RADARVALUES:0.181023,0.205467,0.035796,0.000000,0.000000,172.000000,5.000000,0.000000,0.000000,0.000000,0.000000,0.000000,0.000000,0.181023,0.205467,0.035796,0.000000,0.000000,172.000000,5.000000,0.000000,0.000000,0.000000,0.000000,0.000000,0.000000;
#CREDIT:Ben Speirs;
#DISPLAYBPM:125.000000;
#NOTES:
0000
0000
0000
0000
,
0000
0000
0000
0000
,
0000
0000
0000
0000
,
0000
0000
0000
0000
,
0100
0000
0010
0000
,
1000
0000
0001
0000
,
1000
0000
0100
0000
,
0010
0000
0001
0000
,
1001
0000
0000
0000
,
0010
0000
1000
0000
,
0001
0000
0000
0000
,
0100
0000
0001
0000
,
1000
0000
0000
0000
,
0100
0100
0100
0000
,
0010
0000
0001
0000
,
1000
1000
1000
0000
,
0000
0010
0000
0010
,
0000
1000
0000
1000
,
0000
0001
0000
0001
,
0000
0100
0000
0100
,
0010
0010
1000
0000
,
0100
0100
0010
0000
,
0001
0000
1000
0000
,
0010
0100
0010
0100
,
0000
1001
0000
1000
,
0001
1000
0100
0000
,
1000
0000
0001
0000
,
0100
0001
1000
0000
,
0010
0000
1000
0000
,
0001
0010
0100
0000
,
1000
0000
0001
0000
,
0100
0100
0100
0100
,
0010
0000
1000
0001
,
0100
0000
0001
1000
,
0010
0000
1000
0100
,
0010
0010
0001
0000
,
0001
1000
0100
0000
,
1000
0001
0100
0000
,
0010
0000
0010
0000
,
1000
0000
0001
0000
,
1001
0000
0100
0000
,
1000
1000
0010
0000
,
1000
0000
0001
0000
,
0100
0100
0010
0000
,
1000
0100
1000
0000
,
0001
0000
1000
0000
,
0001
0100
0001
0000
,
1000
0000
0001
0000
,
0100
0000
1001
0000
,
0010
1000
0001
0000
,
0100
0100
0001
0000
,
1000
0100
0010
0000
,
0001
0001
0100
0000
,
0001
1000
0001
0000
,
1000
1000
0100
0000
,
0010
0010
0010
0010
,
0000
1001
0000
1000
,
0100
1000
0001
0000
,
0100
0100
0010
0000
,
1000
0000
0001
0000
,
1000
0100
0010
0000
,
0001
1000
0010
0000
,
0100
0000
0100
0000
,
0001
0001
0001
0001
,
1000
0000
0010
0000
,
0100
0000
0100
0000
,
0001
0000
1000
0000
,
0100
0100
0010
0010
,
0001
0000
1000
0000
,
0010
0000
0010
0000
,
1000
0000
0001
0000
,
0100
0100
0010
0010
;

//---------------dance-single - ----------------
#NOTEDATA:;
#CHARTNAME:;
#STEPSTYPE:dance-single;
#DESCRIPTION:;
#CHARTSTYLE:;
#DIFFICULTY:Beginner;
#METER:1;
#RADARVALUES:0.112500,0.154100,0.007159,0.000000,0.000000,109.000000,1.000000,0.000000,0.000000,0.000000,0.000000,0.000000,0.000000,0.112500,0.154100,0.007159,0.000000,0.000000,109.000000,1.000000,0.000000,0.000000,0.000000,0.000000,0.000000,0.000000;
#CREDIT:Ben Speirs;
#DISPLAYBPM:125.000000;
#NOTES:
0000
0000
0000
0000
,
0000
0000
0000
0000
,
0000
0000
0000
0000
,
0000
0000
0000
0000
,
1000
0000
0000
0000
,
0001
0000
0000
0000
,
0100
0000
0000
0000
,
0010
0000
0000
0000
,
1001
0000
0000
0000
,
1000
0000
1000
0000
,
0100
0000
0000
0000
,
1000
0000
0000
0000
,
0010
0000
0000
0000
,
0100
0000
0100
0000
,
0001
0000
0000
0000
,
1000
0000
0000
0000
,
0000
0010
0000
0010
,
0000
0010
0010
0000
,
0000
1000
0000
1000
,
0000
1000
1000
0000
,
0000
0001
0000
0001
,
0000
0001
0001
0000
,
0100
0000
0100
0000
,
0010
0000
0010
0000
,
0000
0000
0000
0000
,
1000
0000
1000
0000
,
0010
0000
0000
0000
,
0100
0000
0100
0000
,
0001
0000
0000
0000
,
1000
0000
1000
0000
,
0010
0000
0000
0000
,
0100
0100
0100
0100
,
0100
0000
0000
0000
,
0010
0000
1000
0000
,
0001
0000
0000
0000
,
0010
0000
0001
0000
,
1000
0000
0000
0000
,
0100
0000
1000
0000
,
0010
0000
0000
0000
,
0100
0000
0100
0000
,
0001
0000
0000
0000
,
1000
0000
0000
0000
,
0010
0000
0000
0000
,
0100
0000
0000
0000
,
0001
0001
0000
0000
,
1000
1000
0000
0000
,
0010
0000
0010
0000
,
0100
0000
0100
0000
,
0001
0000
0000
0000
,
1000
0000
1000
0000
,
0010
0000
0000
0000
,
0100
0000
0100
0000
,
0001
0000
0000
0000
,
1000
0000
0000
0000
,
0100
0000
0100
0000
,
0010
0010
0010
0010
,
0000
0000
0000
0000
,
0001
0000
0001
0000
,
1000
0000
1000
0000
,
0010
0000
0010
0000
,
0100
0000
0000
0000
,
0001
0001
0001
0000
,
1000
0000
0000
0000
,
0010
0010
0010
0010
,
0010
0000
0000
0000
,
1000
0000
1000
0000
,
0001
0000
0000
0000
,
0100
0000
0100
0000
,
0010
0000
0000
0000
,
1000
0000
1000
0000
,
0100
0000
0000
0000
,
1000
0000
0001
0001
;

//---------------dance-double - ----------------
#NOTEDATA:;
#CHARTNAME:;
#STEPSTYPE:dance-double;
#DESCRIPTION:;
#CHARTSTYLE:;
#DIFFICULTY:Challenge;
#METER:8;
#RADARVALUES:0.492956,0.540760,0.193296,0.207614,0.193296,426.000000,27.000000,29.000000,0.000000,0.000000,0.000000,0.000000,0.000000,0.492956,0.540760,0.193296,0.207614,0.193296,426.000000,27.000000,29.000000,0.000000,0.000000,0.000000,0.000000,0.000000;
#CREDIT:Ben Speirs;
#DISPLAYBPM:125.000000;
#NOTES:
00000000
00000000
00000000
00000000
,
00000000
00000000
00000000
00000000
,
00000000
00000000
00000000
00000000
,
00000000
00000000
00000000
00000000
,
01020000
10000000
10000000
10030000
,
01000000
00100000
10000000
01000000
,
00120000
10000000
10000000
10030000
,
00010000
00100000
00001000
00010000
,
00000100
00000000
00001100
00000000
00000001
00000100
00000001
00000000
,
00001000
00000010
00000001
00000000
,
00001000
00000000
00001100
00000000
00000001
00000010
00000001
00000000
,
00001000
00000100
00010000
00000000
,
00001000
00100000
00001000
00100000
00001000
00000000
00000000
00000000
,
00010000
00100000
10000000
01000000
,
00100000
00010000
00100000
00010000
10000000
00000000
00000000
00000000
,
10100000
01010000
10000000
00010000
,
01000000
01010000
10000000
11000000
,
00010000
00110000
10000000
10100000
,
00010000
00000000
00100000
00000000
00001000
00010000
00001000
00000000
,
00010000
00000010
00001000
00000010
00000200
00000000
00000301
00000000
,
00001000
00001100
00000001
00000011
,
00001000
00000001
00001000
00000000
00000010
00000100
00000010
00000000
,
00001000
00000100
00010000
00001000
,
00100000
00010000
10000000
00100000
01000000
00010000
00100000
00001000
,
00010000
00000000
00000000
00000000
00000101
00000000
00000000
00000000
00001000
00000100
00001000
00000000
00000010
00000000
00000100
00000001
,
00000100
00000000
00000010
00000000
00001000
00000100
00001000
00000000
00000010
00000000
00000100
00000000
00000001
00000000
00001000
00000000
,
00000200
00000000
00000000
00000000
00020300
00000000
00000000
00000000
00031000
00100000
00001000
00000000
00010000
00000000
00000100
00010000
,
00000100
00010000
00001000
00100000
00020000
00000000
10030000
00100000
,
01000000
00000000
00000000
00000000
10010000
00000000
00000000
00000000
10000000
01000000
10000000
00000000
00010000
00000000
01000000
00100000
,
01000000
00000000
00010000
00000000
10000000
01000000
10000000
00000000
00100000
00000000
01000000
00000000
00010000
00000000
00000000
00000000
,
10000000
01000000
00100000
00010000
02000000
00000000
03100000
00010000
,
00002000
00003020
00000032
00002003
,
00003010
00000100
00000000
00000000
00000001
00000000
00001000
00000000
00000100
00000000
00000000
00000010
00000000
00000000
00000001
00000000
,
00001000
00000010
00000000
00000000
00000100
00000000
00000001
00000000
00001000
00000000
00000000
00000100
00000000
00000000
00010000
00000000
,
00001000
00100000
00000000
00000000
00001000
00000000
00010000
00000000
00100000
00000000
00000000
10000000
00000000
00000000
01000000
00000000
,
00100000
00010000
00000000
00000000
10000000
00000000
00100000
00000000
01000000
00000000
00010000
00000000
10000000
00000000
00000000
00000000
,
00010000
00100000
00000000
00000000
00010000
00000000
10000000
00000000
00100000
00000000
00000000
01000000
00000000
00000000
00010000
00000000
,
10000000
01000000
00000000
00000000
10000000
00000000
00100000
00000000
01000000
00000000
00000000
00010000
00000000
00000000
00100000
00000000
,
00001000
00010000
00000000
00000000
00001000
00000000
00010000
00000000
00001000
00000000
00000000
00000100
00000000
00000000
00000001
00000000
,
00001000
00000100
00000010
00000001
00001000
00000010
00010000
00001000
,
00200000
10000000
01000000
00310000
,
20000000
01000000
00100000
30010000
,
00020000
01000000
00100000
10030000
,
00100000
00000000
00000000
01000000
00000000
00000000
00010000
00000000
00010000
00000000
00000000
00100000
00000000
00000000
00001000
00000000
,
00002000
00010000
00100000
00010000
,
00023000
00001000
00000100
00001000
,
00030200
00002300
00003020
00000230
,
00000301
00000010
00000100
00001000
00000010
00000100
00000001
00001000
,
00000100
00000000
00010100
00000000
00101000
00001000
00010000
00001000
,
00100000
00010000
00100000
00000000
00010000
00000000
10000000
00000000
00100000
00000000
01000000
00000000
00010000
00000000
00000000
00000000
,
10100000
00000000
00000000
00000000
01010000
00000000
00000000
00000000
10000000
01000000
10000000
00000000
00010000
00000000
00100000
00000000
,
00010000
10000000
00010000
00000000
10000000
00000000
00100000
00000000
01000000
00000000
00010000
00000000
00100000
00000000
00000000
00000000
,
00101000
00000000
00010100
00000000
00000100
00001000
00000001
00000000
,
00001000
00000010
00000100
00000001
00000010
00000100
00001000
00000010
,
00000000
00001000
00000100
00000010
00000002
00000000
00001003
00000100
,
00010100
00011000
00010010
00101000
,
00011000
00000000
00000000
00000000
10010000
00000000
00000000
00000000
00010000
00100000
00010000
00000000
01000000
00000000
00100000
10000000
,
00100000
00000000
01000000
00000000
00010000
00100000
00010000
00000000
01000000
00000000
00100000
00000000
10000000
00000000
00010000
00000000
,
00200000
00000000
00000000
00000000
00302000
00000000
00000000
00000000
00013000
00000100
00010000
00000000
00001000
00000000
00100000
00001000
,
00100000
00001000
00010000
00000100
00002000
00000000
00003001
00000100
,
00000010
00000000
00000000
00000000
00001001
00000000
00000000
00000000
00000001
00000010
00000001
00000000
00001000
00000000
00000010
00000100
,
00000010
00000000
00001000
00000000
00000001
00000010
00000001
00000000
00000100
00000000
00000010
00000000
00001000
00000000
00000000
00000000
,
00000001
00000010
00000100
00001000
00000020
00000000
00000130
00001000
,
00020000
02030000
23000000
30020000
,
01030000
00000000
00100000
00000000
10000000
00000000
01000000
00100000
00000000
00100000
00010000
00000000
10000000
00000000
00100000
00000000
,
01000000
00000000
00010000
00000000
00100000
00000000
00000000
00001000
00000000
00010000
00001000
00000000
00000000
00010000
00001000
00000000
,
00010000
00000000
00000010
00000000
00001000
00000000
00000001
00000010
00000000
00000010
00000100
00000000
00001000
00000000
00000010
00000000
,
00000100
00000000
00000001
00000000
00001000
00000000
00000000
00000000
00000010
00001000
00000010
00000000
00001000
00000001
00001000
00000000
,
00000010
00000000
00000100
00000000
00000001
00000000
00000010
00000100
00000000
00000100
00001000
00000000
00000001
00000000
00000100
00000000
,
00000010
00000000
00001000
00000000
00000100
00000000
00000000
00010000
00000000
00001000
00010000
00000000
00000000
00001000
00010000
00000000
,
00001000
00000000
01000000
00000000
00010000
00000000
00000000
10000000
01000000
00000000
00000000
10000000
00000000
00000000
00010000
00000000
,
00000000
01000000
00100000
00000000
10000000
00000000
01000000
00000000
00100000
00010000
00100000
00000000
01000000
10000000
01000000
10000000
;

//---------------dance-single - ----------------
#NOTEDATA:;
#CHARTNAME:;
#STEPSTYPE:dance-single;
#DESCRIPTION:;
#CHARTSTYLE:;
#DIFFICULTY:Challenge;
#METER:9;
#RADARVALUES:0.669889,0.695262,0.114546,0.093069,0.608525,626.000000,16.000000,13.000000,0.000000,0.000000,0.000000,0.000000,0.000000,0.669889,0.695262,0.114546,0.093069,0.608525,626.000000,16.000000,13.000000,0.000000,0.000000,0.000000,0.000000,0.000000;
#CREDIT:Ben Speirs;
#DISPLAYBPM:125.000000;
#NOTES:
// measure 0
0000
0000
0000
0000
,  // measure 1
0000
0000
0000
0000
,  // measure 2
0000
0000
0000
0000
,  // measure 3
0000
0000
0000
0000
,  // measure 4
1010
0000
0000
0000
0010
0000
1000
0000
0100
0000
0000
1000
0000
0000
0001
0000
,  // measure 5
0100
0010
0000
0000
0100
0000
0001
0000
0010
0000
0001
1000
0000
0001
1000
0000
,  // measure 6
0010
0000
0000
0000
1000
0000
0001
0000
0100
0000
0000
0010
0000
0000
0100
0000
,  // measure 7
0001
0000
1000
0000
0001
0100
0001
0000
1000
0100
1000
0100
0010
0001
0010
0001
,  // measure 8
0100
0000
1001
0000
0001
1000
0010
0010
,  // measure 9
0100
0001
0100
0000
0000
0000
0020
0000
0000
0000
0000
0000
1030
0000
0000
0000
,  // measure 10
2010
0000
3200
0000
1300
0001
1000
0010
,  // measure 11
0100
0001
0100
0000
0000
0000
0002
0000
0000
0000
0000
0000
1003
0000
0000
0000
,  // measure 12
0001
0100
0010
0100
0200
0000
0310
0000
,  // measure 13
0100
0010
1000
0100
0100
0010
0001
1000
,  // measure 14
0000
0001
1000
0010
0200
0000
0301
1000
,  // measure 15
0020
0230
0302
1003
,  // measure 16
0010
0000
0000
0000
1010
0000
0000
0000
1000
0000
0000
1000
0100
0000
0010
0000
,  // measure 17
0000
0000
0010
0000
0001
0000
1000
0000
0010
0000
0000
0010
0100
0000
0001
0000
,  // measure 18
1000
0000
0000
0000
1100
0000
0000
0000
0001
0000
0000
0001
0100
0000
0010
0000
,  // measure 19
1000
0000
0001
0000
1000
0000
0001
0100
0001
0000
1000
0100
0000
1000
0100
0000
,  // measure 20
0010
0000
0000
0000
0011
0000
0000
0000
0001
0000
0000
1000
0010
0000
0100
0000
,  // measure 21
0001
0000
1000
0000
0001
0000
0100
0000
0010
0000
1000
0100
0000
1000
0100
0000
,  // measure 22
0010
0001
0010
0001
0010
0000
0000
0000
0001
0100
0001
0100
0001
0000
0000
0000
,  // measure 23
1000
0010
1000
0010
1000
0010
1000
0010
0100
0001
0000
0100
0001
0000
1000
0010
,  // measure 24
0100
0000
0000
0000
1001
0000
0000
0000
1000
0100
0010
0000
0100
0000
1000
0100
,  // measure 25
0010
0000
0100
0000
1000
0100
0010
0000
0001
0000
1000
0010
1000
0000
0001
0000
,  // measure 26
0100
0000
0000
0000
1001
0000
0000
0000
0001
0100
0010
0000
0100
0000
0001
0100
,  // measure 27
0010
0000
0100
0000
0001
0010
0100
1000
0001
0000
0100
0010
0000
0100
0010
0000
,  // measure 28
2000
0000
0000
0000
3001
0000
0000
0000
1000
0100
1000
0000
0010
0000
0100
0001
,  // measure 29
0100
0000
0010
0000
1000
0001
1000
0000
0001
0000
0010
0100
0000
0100
1000
0000
,  // measure 30
0001
0000
1000
0100
1000
0000
0100
0000
0010
0000
0001
0000
1000
0000
0010
0000
,  // measure 31
0100
0001
0100
0001
1000
0100
1000
0100
0010
0001
0010
0001
1000
0010
1000
0010
,  // measure 32
0100
0001
0000
0001
1000
0000
0010
0000
0100
0000
0001
1000
0000
1000
0001
0000
,  // measure 33
0100
0010
0000
0010
0100
0000
0001
0000
0010
0000
0001
0010
0100
0010
0001
0000
,  // measure 34
1000
0000
0001
0000
1000
0000
0010
0000
0100
0000
0001
1000
0000
1000
0010
0000
,  // measure 35
0100
0001
0100
0000
0010
1000
0010
0000
1000
0000
0100
0010
0100
0010
0001
0000
,  // measure 36
1000
0010
1000
0000
0001
0000
0010
0000
0001
0000
0100
0010
0000
0010
1000
0000
,  // measure 37
0001
1000
0001
0000
0100
0000
0010
0000
1000
0000
0100
1000
0000
1000
0001
0000
,  // measure 38
0100
0000
0001
1000
0001
0000
0100
0000
0010
0000
1000
0010
0000
1000
0010
0000
,  // measure 39
0100
0001
0100
0000
0010
1000
0010
0000
1000
0100
0010
0001
0010
0100
1000
0001
,  // measure 40
0200
0010
1000
0310
,  // measure 41
0110
0100
0010
1000
1010
1000
0100
0010
,  // measure 42
0012
0100
1000
0013
,  // measure 43
0011
0001
1000
1200
0000
0000
0310
0000
,  // measure 44
0100
1000
0000
1000
0010
0000
0100
0000
0001
0000
1000
0010
0000
0010
0100
0000
,  // measure 45
0001
1000
0000
1000
0001
0000
0100
0000
0010
0000
1000
0100
0000
1000
0100
0000
,  // measure 46
0010
0001
0000
0001
1000
0000
0010
0000
0100
0000
0001
1000
0000
1000
0010
0000
,  // measure 47
0100
0100
0001
1000
0010
0010
1000
0100
,  // measure 48
0010
0000
0000
0000
0011
0000
0000
0000
1000
0100
0010
0000
0001
0000
1000
0000
,  // measure 49
0010
1000
0010
0000
0100
0000
0001
0000
1000
0000
0001
0100
0000
0001
0100
0000
,  // measure 50
0010
0000
1000
0000
0100
0000
0010
0000
0001
1000
0010
0000
0100
0000
0001
0000
,  // measure 51
1000
0100
1000
0000
0010
0000
0100
0000
0001
0000
1000
0100
0000
1000
0100
0000
,  // measure 52
0010
0000
0001
1000
0001
0000
1000
0100
1000
0000
0010
0000
0100
0000
0001
0100
,  // measure 53
0001
0000
1000
0100
1000
0000
0001
0010
0001
0000
1000
0010
1000
0000
0001
0000
,  // measure 54
1000
0000
0010
0100
0010
0000
0100
0000
0001
0000
1000
0000
0010
0000
0100
0000
,  // measure 55
0001
1000
0001
1000
0010
0100
0010
0100
0001
1000
0001
1000
0010
0100
0010
0100
,  // measure 56
0001
0000
0000
0000
1010
0000
0001
0000
1000
0100
0010
0000
0001
0000
1000
0100
,  // measure 57
0010
0000
0001
0000
1000
0100
0010
0000
0001
0000
1000
0010
1000
0010
1000
0000
,  // measure 58
0001
0000
0100
0000
0010
0000
1000
0000
0100
1000
0001
0000
1000
0000
0100
1000
,  // measure 59
0001
0000
1000
0000
0100
1000
0001
0000
0100
0000
0010
1000
0010
1000
0010
0000
,  // measure 60
0100
0000
0001
0000
1000
0000
0001
0000
0010
0001
0100
0000
0001
0000
0010
0001
,  // measure 61
0100
0000
0001
0000
0010
0001
0100
0000
0001
0000
0100
0010
0100
0010
0100
0000
,  // measure 62
0001
0000
0100
0010
0100
0000
0001
0000
0010
0000
0100
0000
1000
0000
0001
0000
,  // measure 63
1000
0100
1000
0100
0010
0001
0010
0000
0001
1000
0001
1000
0010
0100
0010
0000
,  // measure 64
1010
0000
0000
0000
0001
0000
1000
0010
0000
0010
0100
0000
0001
0000
1000
0100
,  // measure 65
1000
0000
0001
0100
0001
0000
1000
0010
0000
0010
0100
0000
0001
1000
0001
0000
,  // measure 66
0100
0000
0010
0000
1000
0000
0001
0010
0000
0010
0001
0000
1000
0000
0010
0000
,  // measure 67
0100
0000
0001
0000
1000
0000
0010
0100
0000
0100
0001
0010
0100
1000
0001
0100
,  // measure 68
0010
0000
1000
0000
0001
0000
1000
0010
0000
0010
0100
0000
0001
0000
0010
0100
,  // measure 69
0010
0000
0001
0010
0001
0000
0100
0001
0000
0001
1000
0000
0010
1000
0010
0000
,  // measure 70
0100
0000
0001
0100
0001
0000
1000
0000
0010
0000
1000
0100
1000
0000
0001
0000
,  // measure 71
0010
0000
0001
0000
1000
0010
0100
0000
0001
0010
0100
1000
0010
0100
0001
1000
;
