#VERSION:0.82;
#TITLE:Hard Times;
#SUBTITLE:;
#ARTIST:Paramore;
#TITLETRANSLIT:;
#SUBTITLETRANSLIT:;
#ARTISTTRANSLIT:;
#GENRE:Pop-Rock;
#ORIGIN:;
#CREDIT:;
#BANNER:Hard Times.png;
#BACKGROUND:Hard Times-bg.png;
#PREVIEWVID:;
#JACKET:jacket.png;
#CDIMAGE:;
#DISCIMAGE:;
#LYRICSPATH:;
#CDTITLE:;
#MUSIC:Hard Times.ogg;
#OFFSET:-0.000000;
#SAMPLESTART:33.474098;
#SAMPLELENGTH:14.733999;
#SELECTABLE:YES;
#BPMS:0.000=120.000;
#STOPS:;
#DELAYS:;
#WARPS:;
#TIMESIGNATURES:0.000=4=4;
#TICKCOUNTS:0.000=4;
#COMBOS:0.000=1;
#SPEEDS:0.000=1.000=0.000=0;
#SCROLLS:0.000=1.000;
#FAKES:;
#LABELS:0.000=Song Start;
#BGCHANGES:4.000=Hard Times.avi=1.000=0=0=1=====,
99999=-nosongbg-=1.000=0=0=0 // don't automatically add -songbackground-
;
#KEYSOUNDS:;
#ATTACKS:
;

//---------------dance-single - ----------------
#NOTEDATA:;
#CHARTNAME:;
#STEPSTYPE:dance-single;
#DESCRIPTION:;
#CHARTSTYLE:;
#DIFFICULTY:Hard;
#METER:8;
#RADARVALUES:0.475125,0.491983,0.225114,0.268684,0.068987,390.000000,31.000000,37.000000,0.000000,0.000000,0.000000,0.000000,0.000000,0.475125,0.491983,0.225114,0.268684,0.068987,390.000000,31.000000,37.000000,0.000000,0.000000,0.000000,0.000000,0.000000;
#CREDIT:Ben Speirs;
#NOTES:
0000
0000
0000
0000
,
0000
0000
0000
0000
,
0000
0000
0000
0000
,
1000
0000
0000
0000
0001
0000
0000
0000
0100
0010
0100
0010
0000
0000
0000
0000
,
1000
0000
0000
0010
0000
0000
0100
0000
0000
0000
0000
0000
0101
0000
0000
0000
,
0001
0000
0000
0010
0000
0000
0100
0000
0000
0000
0000
0000
1100
0000
0000
0000
,
0001
0000
0000
1000
0000
0000
0010
0000
0000
0000
0000
0000
1010
0000
0000
0000
,
1000
0000
0000
0001
0000
0000
0010
0000
1001
0000
0000
0000
1001
0000
0000
0000
,
0000
0000
0001
0000
1000
0010
0100
0000
,
0001
0000
1000
0000
0100
0100
0010
0000
,
0000
0000
0001
0000
0010
0001
0100
0100
,
0010
1000
1010
0011
,
0000
0000
1000
0000
0010
1000
0100
0000
,
1000
0000
0010
0000
0100
0100
0010
0000
,
0000
0000
0100
0000
0001
0100
0010
0010
,
1000
0001
1100
0101
,
2000
3002
1003
1001
,
0120
0000
0000
0000
1030
0000
0010
1000
0010
0000
1000
0000
0100
0000
0010
0000
,
0001
1000
0010
0100
0001
0000
0101
0000
,
2100
0000
0000
0000
3001
0000
1000
0100
1000
0000
0010
0000
0100
0000
0001
0000
,
1000
1000
0001
0010
0001
0000
0012
0000
,
2003
0000
0000
0000
3001
0000
1000
0100
1000
0000
0010
0000
0100
0000
0001
0000
,
0010
0010
0100
0010
0001
0000
0012
0000
,
2003
0000
3010
1000
0100
0000
2100
0000
,
3002
0000
0103
0001
1000
0000
1001
0000
,
0020
0000
0030
1001
,
1000
0000
0100
0010
0200
0000
0310
0000
,
0001
0000
1000
0001
2000
0000
3010
0100
,
0002
0000
0103
0010
0200
0000
0320
0000
,
1030
0000
0000
0000
0001
0000
1000
0000
0100
0000
0000
0010
0000
0000
0001
0000
,
0100
0000
0020
0000
1030
0000
0100
0020
,
0000
0000
0031
0010
0100
1000
0001
0000
,
1000
0000
0001
1000
0010
0000
0100
0002
,
0000
0000
0000
0003
1000
0000
0001
0000
1000
0000
0000
0000
0010
0000
0000
0000
,
1000
0100
0010
0001
0100
0010
1000
0001
,
0010
0001
1000
0010
0100
0100
0100
0000
,
0001
0100
0010
1000
0100
0010
0001
1000
,
0010
0100
0001
1000
0010
0010
0010
0000
,
1000
0100
0001
0100
1000
0100
0001
0100
,
1000
0010
0100
0001
1000
1000
0001
0000
,
0001
0010
1000
0010
0001
0010
1000
0010
,
0001
0100
0010
1000
0100
0100
0100
0000
,
2000
0000
3000
1001
,
0102
0000
0000
0000
1003
0000
0010
0100
0010
0000
1000
0000
0100
0000
0010
0000
,
0001
0001
1000
0010
0100
0000
2010
0000
,
3200
0000
0000
0000
1300
0000
0001
1000
0001
0000
1000
0000
0010
0000
0010
0000
,
0100
0100
0001
0010
0100
0000
0120
0000
,
0032
0000
0000
0000
0103
0000
0010
0100
0010
0000
0100
0000
0001
0000
0010
0000
,
0100
0100
1000
0001
1000
0000
2010
0000
,
3002
0000
0013
0001
1000
0000
1020
0000
,
0230
0000
0301
1000
0010
0000
1000
0000
,
0001
1000
0010
0100
0001
0010
0100
1000
,
0010
0100
0010
1000
0100
0010
0002
0000
,
0013
0001
1000
0010
0100
0001
0010
1000
,
0010
0001
0100
1000
0100
0010
2000
0000
,
3100
1000
0010
0100
0001
1000
0100
0001
,
0100
0010
0001
1000
0010
0100
0002
0000
,
0203
0000
0310
1000
0100
0000
1100
0000
,
0102
0000
0013
0001
2000
0000
3002
0000
,
0103
0000
0010
0000
0100
0000
1000
0000
0100
0000
0010
0100
0000
0000
0010
0000
,
1000
0000
0100
0000
0010
0000
0100
0000
1000
0000
0100
1000
0000
0000
0010
0000
,
1000
0000
0100
0000
0010
0000
0001
0000
0100
0000
0001
1000
0000
0000
0010
0000
,
1000
0001
0010
0000
1001
0000
1001
0000
,
0001
0000
0100
0000
0010
0000
0100
0000
0001
0000
0100
0010
0000
0000
0100
0000
,
0001
0000
0010
0000
0100
0000
1000
0000
0100
0000
0010
0100
0000
0000
1000
0000
,
0100
0000
1000
0000
0010
0000
0100
0000
0010
0000
1000
0100
0000
0000
1000
0000
,
0010
0100
0001
0000
1010
0000
0011
0000
,
0200
0010
0310
1001
;

//---------------dance-double - ----------------
#NOTEDATA:;
#CHARTNAME:;
#STEPSTYPE:dance-double;
#DESCRIPTION:;
#CHARTSTYLE:;
#DIFFICULTY:Challenge;
#METER:8;
#RADARVALUES:0.512472,0.516582,0.268684,0.254161,0.156127,422.000000,37.000000,35.000000,0.000000,0.000000,0.000000,0.000000,0.000000,0.512472,0.516582,0.268684,0.254161,0.156127,422.000000,37.000000,35.000000,0.000000,0.000000,0.000000,0.000000,0.000000;
#CREDIT:Ben Speirs;
#NOTES:
00000000
00000000
00000000
00000000
,
00000000
00000000
00000000
00000000
,
00000000
00000000
00000000
00000000
,
00010000
00000000
00000000
00000000
00001000
00000000
00000000
00000000
00010000
00001000
00010000
00001000
00000000
00000000
00000000
00000000
,
00110000
00000000
00000000
00100000
00000000
00000000
00010000
00000000
20000000
00000000
00000000
00000000
30100000
00000000
00000000
00000000
,
10000000
00000000
00000000
01000000
00000000
00000000
00100000
00000000
00010000
00000000
00000000
10000000
02000000
00000000
00000000
00000000
,
13000000
00000000
00000000
00100000
00000000
00000000
01000000
00000000
00020000
00000000
00000000
00000000
00130000
00000000
00000000
00000000
,
00010000
00000000
00000000
00100000
00000000
00000000
00001000
00000000
00010000
00000000
00000000
00000000
00010100
00000000
00000000
00000000
,
00001001
00000000
00000000
00000000
00001000
00000000
00000010
00000000
00000100
00000010
00000100
00000000
00000001
00000000
00000000
00000000
,
00000100
00000000
00000000
00000000
00000001
00000000
00000010
00000100
00000010
00000000
00000001
00000000
00001000
00000000
00000000
00000000
,
00000100
00000000
00000000
00000000
00010000
00000000
00000000
00000000
00001000
00010000
00001000
00000000
00100000
00000000
00100000
00000000
,
00010000
01000000
10010000
10010000
,
10000000
00000000
00000000
00000000
00100000
00000000
00000000
00000000
01000000
00100000
01000000
00000000
00010000
00000000
00000000
00000000
,
01000000
00000000
00000000
00000000
00010000
00000000
10000000
01000000
10000000
00000000
00010000
00000000
00100000
00000000
00000000
00000000
,
00010000
00000000
00000000
00000000
01000000
00000000
00000000
00000000
00010000
00100000
00010000
00000000
00100000
00000000
00000000
00000000
,
00001000
00010000
00010100
00001100
,
00000001
00000100
00001000
00001010
,
00000012
00000000
00000000
00000000
00001003
00000000
00000010
00000100
00000010
00000000
00001000
00000000
00000100
00000000
00000010
00000000
,
00000001
00000001
00000100
00000010
00001000
00000000
00002010
00000000
,
00003200
00000000
00000000
00000000
00010300
00000000
00000100
00010000
00000100
00000000
00010000
00000000
00001000
00000000
00001000
00000000
,
00100000
00001000
00100000
00010000
01000000
00000000
01010000
01000000
,
00200000
00000000
00000000
00000000
10300000
00000000
00100000
10000000
00100000
00000000
10000000
00000000
01000000
00000000
00100000
00000000
,
00010000
00010000
10000000
10000000
00100000
00000000
21000000
00000000
,
30020000
00000000
01030000
00010000
10000000
00000000
10100000
00000000
,
00120000
00000000
01030000
00010000
00100000
00010000
00100000
00001000
,
00010000
00001000
00010000
00001000
00000000
00010000
00001000
00000000
00010000
00000000
00010000
00000000
00000200
00000000
00000000
00000000
,
00001300
00000000
00000000
00000010
00000000
00000000
00000100
00000000
00000002
00000000
00000000
00000000
00002003
00000000
00000000
00000000
,
00003010
00001000
00000100
00000010
00000001
00000100
00000010
00000000
,
00000100
00000000
00000000
00000001
00000000
00000000
00000010
00000000
00000200
00000000
00000000
00000000
00002300
00000000
00000000
00000000
,
00003010
00001000
00000200
00000000
00010300
00001000
00100000
00010000
,
01000000
00000000
00000000
01000000
00100000
00000000
10000000
00000000
01000000
00000000
00000000
00000000
10000000
00000000
00200000
00000000
,
00000000
00000000
01300000
00000000
00100000
10000000
01000000
00000000
,
00100000
00000000
00000000
00100000
00010000
00000000
01000000
00000000
00000000
00000000
00010000
00000000
00100000
00000000
00002000
00000000
,
00000000
00000000
00013000
00000100
00001000
00000000
00001010
00000000
,
00000001
00000010
00000100
00001000
00000010
00000100
00000010
00001000
,
00000200
00000000
00020300
00000000
00031000
00100000
00010000
00000000
,
10000000
01000000
00100000
00010000
01000000
00100000
10000000
00010000
,
02000000
00000000
03100000
01000000
00010000
00000000
10000000
00000000
,
00010000
00100000
00001000
00010000
00000100
00001000
00000020
00000000
,
00001030
00001100
00000001
00000101
,
00001000
00000100
00010000
00001000
00100000
00010000
02000000
00000000
,
03100000
10000000
02000000
00000000
03100000
00010000
02000000
00000000
,
03020000
00000000
00030000
10010000
,
00012000
00000000
00000000
00000000
00013000
00000000
00001000
00010000
00001000
00000000
00010000
00000000
00000100
00000000
00000100
00000000
,
00001000
00000010
00000100
00000001
00001000
00000000
00001010
00000000
,
00000012
00000000
00000000
00000000
00000103
00000000
00000001
00001000
00000001
00000000
00000100
00000000
00000010
00000000
00001000
00000000
,
00000100
00000100
00020000
00000000
00031000
00000000
00101000
00000000
,
00120000
00000000
00000000
00000000
10030000
00000000
00100000
01000000
00100000
00000000
10000000
00000000
01000000
00000000
00100000
00000000
,
00010000
01000000
00010000
00100000
00001000
00000000
00101000
00000000
,
00120000
00000000
10030000
00010000
01000000
00000000
01010000
00000000
,
20100000
00000000
30010000
10000000
01000000
00000000
10010000
00000000
,
10000000
01000000
00100000
00010000
01000000
00100000
00010000
00001000
,
00010000
00001000
00000010
00000001
00001000
00000000
00001010
00000000
,
00000011
00000000
00000001
00000100
00000010
00001000
00000100
00010000
,
00001000
00010000
00100000
00010000
00001000
00000010
00000001
00001000
,
00000020
00000000
00000000
00000000
00000130
00000000
00000010
00000100
00000010
00000000
00001000
00000000
00000100
00000000
00010000
00000000
,
00001000
00010000
00100000
10000000
01000000
00000000
11000000
00000000
,
00020000
00000000
00000000
00000000
10030000
00000000
00100000
01000000
00100000
00000000
00000000
00000000
10100000
00000000
00000000
00000000
,
20000000
00000000
31000000
10000000
11000000
00000000
01010000
00000000
,
10000000
00000000
00100000
00000000
01000000
00000000
00010000
00000000
00100000
00000000
01000000
10000000
00000000
10000000
00010000
00000000
,
00100000
00000000
00010000
00000000
01000000
00000000
00100000
00000000
00010000
00000000
00001000
00010000
00000000
00010000
00001000
00000000
,
00010000
00000000
00000100
00000000
00001000
00000000
00000010
00000000
00000100
00000000
00000001
00001000
00000000
00001000
00000001
00000000
,
00000010
00000001
00001000
00000010
00001010
00000000
00001100
00000000
,
00000001
00000000
00001000
00000000
00000010
00000000
00000100
00000000
00000001
00000000
00000010
00000100
00000000
00001000
00000100
00000000
,
00001000
00000000
00000010
00000000
00000100
00000000
00001000
00000000
00010000
00000000
00001000
00010000
00000000
00001000
00100000
00000000
,
00010000
00000000
00100000
00000000
01000000
00000000
00100000
00000000
00010000
00000000
01000000
00100000
00000000
10000000
01000000
00000000
,
10000000
00100000
01000000
00010000
00100000
00100000
00100000
00000000
,
00010000
00100000
00010000
00100000
00000000
00001000
00010000
00000000
00001000
00000000
00010000
00000000
00011000
00000000
00000000
00000000
;

//---------------dance-single - ----------------
#NOTEDATA:;
#CHARTNAME:;
#STEPSTYPE:dance-single;
#DESCRIPTION:;
#CHARTSTYLE:;
#DIFFICULTY:Challenge;
#METER:9;
#RADARVALUES:0.605837,0.614979,0.188805,0.203329,0.352195,530.000000,26.000000,28.000000,0.000000,0.000000,0.000000,0.000000,0.000000,0.605837,0.614979,0.188805,0.203329,0.352195,530.000000,26.000000,28.000000,0.000000,0.000000,0.000000,0.000000,0.000000;
#CREDIT:Ben Speirs;
#NOTES:
// measure 0
0000
0000
0000
0000
,  // measure 1
0000
0000
0000
0000
,  // measure 2
0000
0000
0000
0000
,  // measure 3
1000
0000
0000
0000
0001
0000
0000
0000
0100
0010
0100
0010
2000
0000
0000
0000
,  // measure 4
3100
0000
1000
0010
0000
0010
0100
0000
0000
0000
0000
0000
1010
0000
0000
0000
,  // measure 5
0010
0000
1000
0001
0000
0001
0010
0000
0000
0000
0000
0000
0011
0000
0000
0000
,  // measure 6
0001
0000
1000
0010
0000
0010
0100
0000
0000
0000
0000
0000
0101
0000
0000
0000
,  // measure 7
0001
0000
0100
0010
0000
0010
1000
0000
1100
0000
0000
0000
0101
0000
0000
0000
,  // measure 8
1000
0000
0001
0000
0100
0000
0010
0000
1000
0100
1000
0000
0001
0000
0000
0000
,  // measure 9
1000
0000
0100
0000
0010
0000
0001
1000
0001
0000
0100
0000
0010
0000
0000
0000
,  // measure 10
0100
0000
0001
0000
0010
0000
0001
0000
1000
0100
1000
0000
0001
0000
0001
0000
,  // measure 11
0100
0010
0100
0001
1001
0000
1100
0000
,  // measure 12
0001
0000
0010
0001
0000
0000
0100
0000
0100
0000
0010
0000
1000
0000
0000
0000
,  // measure 13
0100
0000
1000
0010
0000
0000
1000
0000
0100
0000
0100
0000
0010
0000
0000
0000
,  // measure 14
0001
0000
1000
0001
0000
0000
0100
0000
0010
0000
0010
0000
1000
0000
1000
0000
,  // measure 15
0001
0000
0010
0001
0000
1000
0010
0000
1010
0000
0000
0000
0011
0000
0000
0000
,  // measure 16
2000
3200
0302
0013
,  // measure 17
1001
0000
0000
0000
1000
0000
0010
0100
0010
0000
0100
0000
0001
0000
0010
0000
,  // measure 18
0100
0000
1000
0000
0001
0000
1000
0000
0010
0000
0000
0100
0002
0000
0000
0000
,  // measure 19
2003
0000
0000
0000
3010
0000
1000
0100
1000
0000
0010
0000
0100
0000
0001
0000
,  // measure 20
1000
0000
1000
0000
0100
0000
0010
0000
0001
0000
0000
0000
1000
0100
1000
0100
,  // measure 21
0020
0000
0000
0000
0031
0000
1000
0001
1000
0000
0001
0000
0100
0000
0010
0000
,  // measure 22
1000
0000
1000
0000
0010
0000
0100
0000
0001
0000
0000
1000
0200
0000
0000
0000
,  // measure 23
0320
0000
0000
0000
0031
0000
0010
0100
0010
0000
0001
0000
0200
0000
0000
0000
,  // measure 24
0320
0000
0000
0000
1030
0000
0010
0100
0010
0000
1000
0000
0001
0000
0001
0000
,  // measure 25
1000
0100
0010
0001
0000
0100
0010
0000
1000
0000
1000
0000
0101
0000
0000
0000
,  // measure 26
1010
0000
0010
0100
0000
0000
0001
0000
0000
0000
1000
0100
1000
0000
0001
0000
,  // measure 27
0100
0000
0010
0000
1000
0000
0010
0000
0000
0000
0100
0000
0001
0000
0010
0001
,  // measure 28
1000
0000
0100
1000
0100
0000
1000
0000
0010
0000
0100
0010
0100
0000
0002
0000
,  // measure 29
0000
0000
0000
0000
1003
0000
0010
0000
0100
0000
0001
0000
0010
0100
0000
0010
,  // measure 30
0100
0000
0010
0001
0010
0000
0100
0000
0000
0000
0100
0010
0100
0000
0010
0000
,  // measure 31
0001
0000
0100
0000
0010
0000
1000
0000
0000
0000
0001
0000
1000
0000
0010
0100
,  // measure 32
0001
1000
0000
1000
0001
0000
0100
0000
0000
0000
0001
1000
0001
0000
2000
0000
,  // measure 33
0000
0000
0000
0000
3010
0000
1000
0000
0100
0000
0010
0000
0001
0100
0000
0000
,  // measure 34
1010
0010
1000
1000
0010
0010
1000
1000
,  // measure 35
0010
0000
0100
0000
0001
0000
0010
0000
0100
0000
1000
0010
0100
0000
0001
0000
,  // measure 36
0011
0010
0001
0001
0010
0010
0001
0001
,  // measure 37
0010
0000
0001
0000
0100
0000
0010
1000
0010
1000
0000
0001
1000
0000
0001
0000
,  // measure 38
0200
0001
0302
0100
0203
0001
0302
0100
,  // measure 39
0103
0000
0010
0000
1000
0000
0100
0000
1000
0000
0001
1000
0001
0000
0100
0000
,  // measure 40
0020
1000
2030
0010
3020
1000
2030
0010
,  // measure 41
3010
0000
0100
0000
0010
0000
1000
0100
1000
0000
0001
1000
0001
0000
0100
0001
,  // measure 42
0200
0000
0000
0000
0310
0000
0000
0000
0010
0100
0010
0100
0010
0100
0010
0100
,  // measure 43
0001
0000
0000
0000
0101
0000
1000
0100
1000
0000
0001
0000
0010
0000
0001
0000
,  // measure 44
0100
0100
0010
1000
0001
0010
0011
0001
,  // measure 45
1001
0000
0000
0000
1000
0000
0100
1000
0100
0000
1000
0000
0010
0000
0100
0000
,  // measure 46
0010
0000
0010
0000
0100
0000
0001
0000
1000
0000
0010
0000
1000
0100
0010
0001
,  // measure 47
0100
0000
0000
0000
1001
0000
1000
0100
1000
0000
0001
0000
0100
0000
0010
0000
,  // measure 48
0100
0000
0100
0000
0001
0000
0010
0000
0100
0000
1000
0001
1000
0000
0100
0000
,  // measure 49
1100
0000
0000
0000
0001
0000
1000
0010
1000
0000
0001
0000
0011
0000
0000
0000
,  // measure 50
1001
0000
0000
0000
1000
0000
0010
0100
0010
0000
0100
0000
0001
1000
0001
1000
,  // measure 51
0020
0000
0000
0000
0130
0000
0001
0100
0010
0000
1000
0000
0001
0000
0010
0000
,  // measure 52
0100
0000
0100
0000
0010
0000
0001
0000
1000
0000
0010
0100
0010
0000
0100
0000
,  // measure 53
0002
0000
0000
0000
1003
0000
0010
1000
0100
0000
1000
0000
0001
0000
0010
0000
,  // measure 54
0001
0000
0001
0000
0100
0000
0010
0000
1000
0000
0001
0000
0100
0001
0010
0100
,  // measure 55
2000
0000
0000
0000
3001
0000
1000
0010
0100
0000
0001
0000
1000
0000
0001
0000
,  // measure 56
0010
0000
0010
0000
0001
0000
1000
0000
0010
0000
0100
0010
0100
0000
0001
0000
,  // measure 57
0201
0000
0000
0000
0310
0000
0100
0001
0100
0000
0010
0000
0120
0000
0000
0000
,  // measure 58
1030
0100
1000
0100
0010
0001
0010
0001
0100
0000
0000
0000
1001
0000
0000
0000
,  // measure 59
0001
0000
0100
0000
0010
0000
0100
0000
0001
0000
0010
0100
0000
0100
1000
0000
,  // measure 60
0010
0000
1000
0000
0100
0000
1000
0000
0010
0000
0100
0010
0000
0010
1000
0000
,  // measure 61
0001
0000
0010
0000
0001
0000
1000
0000
0010
0000
1000
0001
0000
0001
0100
0000
,  // measure 62
0001
0100
0001
0100
0010
1000
0010
1000
0001
0000
0000
0000
1001
0000
0000
0000
,  // measure 63
1000
0000
0100
0000
0010
0000
0001
0000
1000
0000
0010
0100
0000
0001
1000
0000
,  // measure 64
0010
0000
1000
0000
0100
0000
0010
0000
0001
0000
1000
0100
0000
0010
0001
0000
,  // measure 65
0100
0000
0010
0000
1000
0000
0001
0000
0010
0000
0001
0100
0000
0010
1000
0000
,  // measure 66
0001
0010
0100
1000
0010
0010
0020
0000
,  // measure 67
1030
0100
1000
0001
0000
0100
0010
0000
1000
0000
0100
0000
1001
0000
0000
0000
;

//---------------dance-single - ----------------
#NOTEDATA:;
#CHARTNAME:;
#STEPSTYPE:dance-single;
#DESCRIPTION:;
#CHARTSTYLE:;
#DIFFICULTY:Medium;
#METER:5;
#RADARVALUES:0.361012,0.418186,0.290470,0.341302,0.000000,261.000000,40.000000,47.000000,0.000000,0.000000,0.000000,0.000000,0.000000,0.361012,0.418186,0.290470,0.341302,0.000000,261.000000,40.000000,47.000000,0.000000,0.000000,0.000000,0.000000,0.000000;
#CREDIT:Ben Speirs;
#NOTES:
0000
0000
0000
0000
,
0000
0000
0000
0000
,
0000
0000
0000
0000
,
0001
1000
0020
0030
,
1000
0100
0000
1100
,
0001
0100
0000
0101
,
1000
0010
0000
1010
,
1000
0001
0010
0010
,
0002
0000
0003
0000
0010
0100
0010
0000
,
0200
0000
0300
0000
1000
1000
0001
0000
,
2000
0000
3000
0000
0010
1000
0010
0000
,
0200
0300
0110
1001
,
0002
0000
0003
0000
1000
0100
1000
0000
,
0020
0000
0030
0000
0100
0100
0010
0000
,
2000
0000
3000
0000
0001
0100
0001
0000
,
2000
3000
1010
0011
,
0100
0100
0100
1001
,
2002
0000
3003
0000
0001
0010
0100
0000
,
1000
0010
0100
0000
0001
0000
0101
0000
,
2020
0000
3030
0000
0001
1000
0010
0000
,
1000
0100
0010
0000
0100
0000
1100
0000
,
0022
0000
0033
0000
0001
0010
0100
0000
,
0010
0001
0100
0000
0001
0000
0101
0000
,
2020
3030
1000
1100
,
0022
0033
1000
0001
,
0200
0000
0300
1001
,
2000
3000
0010
0010
,
0000
0100
0001
0010
,
0100
0100
1000
1000
,
0000
0001
1000
0001
,
0200
0300
0010
0020
,
0030
1000
0100
0010
,
0001
0100
0010
0020
,
0030
0100
0001
1000
,
0010
0010
0010
0010
,
1000
0100
0010
0010
,
0001
0001
0001
0001
,
0010
0001
0100
0010
,
1000
0100
1000
0100
1000
0100
1000
0100
,
2000
3000
0100
0010
,
0001
0100
0001
0100
0001
0100
0001
0100
,
0002
0003
0100
0010
,
1000
0001
0010
1001
,
2002
0000
3003
0000
1000
0100
0010
0000
,
0001
1000
0010
0000
0100
0000
0101
0000
,
2020
0000
3030
0000
0010
1000
0100
0000
,
1000
0001
0010
0000
0001
0000
0011
0000
,
2200
0000
3300
0000
0100
1000
0001
0000
,
0100
0001
1000
0000
0010
0000
0110
0000
,
2002
3003
0001
0101
,
2200
3300
1000
0001
,
2002
0000
3003
0000
0001
0010
0100
1000
,
0001
0100
0100
1010
,
2020
0000
3030
0000
1000
0100
0010
0001
,
0100
0100
0001
1001
,
2002
0000
3003
0000
1000
0100
0010
0001
,
0100
0100
0001
1010
,
2020
3030
0001
0011
,
0022
0033
1000
0001
,
1000
0000
0100
0000
0010
0100
0010
0000
,
0001
0000
0100
0000
0001
0100
0001
0000
,
0100
0000
0010
0000
1000
0100
1000
0000
,
0010
0100
0110
1001
,
0001
0000
1000
0000
0010
1000
0010
0000
,
1000
0000
0001
0000
0010
0001
0010
0000
,
0001
0000
0100
0000
0010
1000
0100
0000
,
0010
0001
0100
0000
0010
0010
0010
0000
,
0200
0000
0300
1001
;

//---------------dance-single - ----------------
#NOTEDATA:;
#CHARTNAME:;
#STEPSTYPE:dance-single;
#DESCRIPTION:;
#CHARTSTYLE:;
#DIFFICULTY:Easy;
#METER:3;
#RADARVALUES:0.213703,0.270591,0.101664,0.174282,0.000000,168.000000,14.000000,24.000000,0.000000,0.000000,0.000000,0.000000,0.000000,0.213703,0.270591,0.101664,0.174282,0.000000,168.000000,14.000000,24.000000,0.000000,0.000000,0.000000,0.000000,0.000000;
#CREDIT:Ben Speirs;
#NOTES:
0000
0000
0000
0000
,
0000
0000
0000
0000
,
0000
0000
0000
0000
,
1000
1000
0000
0000
,
0001
0100
0000
0001
,
1000
0100
0000
1000
,
0010
0100
0000
0010
,
1000
0001
0010
0010
,
0001
0000
1000
0100
,
0000
0000
1000
0001
,
0000
0000
0001
0100
,
0000
0000
0001
0001
,
1000
0000
0010
1000
,
0000
0000
0001
0010
,
0000
0000
0001
0100
,
0000
0000
0010
0010
,
0000
0000
0000
1001
,
1001
0000
1000
0000
,
0010
1000
0100
0000
,
1000
0000
0001
0000
,
1000
0001
0100
0010
,
0010
0000
0100
0000
,
0001
1000
0000
1001
,
1001
0000
0000
1001
,
1001
0000
0000
0000
,
1000
1000
1000
0110
,
0001
0000
1000
0000
,
0000
0010
1000
0100
,
0000
1000
0000
0001
,
0000
0100
0100
0000
,
0001
1000
0010
0000
,
0000
1000
0100
0000
,
1000
0001
0100
0100
,
0000
0001
1000
0000
,
0002
0003
0002
0003
,
0002
0003
0100
0100
,
0020
0030
0020
0030
,
0020
0030
0100
0010
,
2000
3000
2000
3000
,
2000
3000
0100
1000
,
0002
0003
0002
0003
,
0002
0003
0100
0100
,
0010
0000
0000
1001
,
2002
3003
1000
0000
,
0010
1000
0100
0000
,
2000
3000
0100
0000
,
1000
0001
0010
0001
,
0002
0003
0100
0000
,
0001
0100
0010
0100
,
0200
0300
0000
0001
,
0002
0003
0000
1001
,
2002
3003
0001
0000
,
0100
0001
1000
0010
,
0020
0030
1000
0000
,
0100
1000
0010
0100
,
0200
0300
0001
0000
,
0100
0001
1000
0010
,
0020
0030
0000
0100
,
0200
0300
0000
0000
,
0001
0010
0100
0000
,
1000
0010
0100
0000
,
0010
1000
0001
0000
,
0010
0000
1001
1001
,
1000
0000
0001
0000
,
0100
0100
0010
0010
,
1000
0000
0001
0000
,
1000
0100
0010
0000
,
0001
0001
0001
0110
;

//---------------dance-single - ----------------
#NOTEDATA:;
#CHARTNAME:;
#STEPSTYPE:dance-single;
#DESCRIPTION:;
#CHARTSTYLE:;
#DIFFICULTY:Beginner;
#METER:1;
#RADARVALUES:0.102702,0.147595,0.021785,0.000000,0.000000,96.000000,3.000000,0.000000,0.000000,0.000000,0.000000,0.000000,0.000000,0.102702,0.147595,0.021785,0.000000,0.000000,96.000000,3.000000,0.000000,0.000000,0.000000,0.000000,0.000000,0.000000;
#CREDIT:Ben Speirs;
#NOTES:
0000
0000
0000
0000
,
0000
0000
0000
0000
,
0000
0000
0000
0000
,
0000
0000
0000
0000
,
1000
1000
0000
0000
,
0001
0001
0000
0000
,
0100
0100
0000
0000
,
0010
0010
0000
0000
,
1000
0000
0000
0000
,
0100
0000
0100
0000
,
0100
0000
0000
0000
,
0000
0000
0010
0010
,
0000
0000
0000
0000
,
0001
0000
0001
0000
,
0001
0000
0000
0000
,
0000
0000
0100
0100
,
0000
0000
0000
0010
,
0010
0000
0000
0000
,
1000
0000
0000
0001
,
0001
0000
0000
0000
,
1000
0000
0000
0100
,
0100
0000
0000
0000
,
0010
0000
0000
0001
,
0001
0000
0000
1000
,
1000
0000
0000
0000
,
0010
0000
0000
1001
,
0000
0000
0000
0000
,
1000
0000
0000
0000
,
0001
0000
0000
0000
,
0100
0000
0100
0000
,
0100
0000
0000
0000
,
0001
0000
0000
0000
,
1000
0000
0000
0000
,
0010
0000
0010
0000
,
0010
0000
0000
0000
,
0100
0100
0000
0000
,
0001
0000
0000
0000
,
1000
1000
0000
0000
,
0010
0010
0010
0010
,
0000
0000
0000
0000
,
0100
0100
0100
0100
,
0000
0000
0000
0000
,
0001
0000
0000
1000
,
1000
0000
0000
0000
,
0001
0000
0000
0100
,
0100
0000
0000
0000
,
0010
0000
0000
1000
,
1000
0000
0000
0000
,
0100
0000
0000
1000
,
1000
0000
0000
0001
,
0001
0000
0000
0100
,
0100
0000
0000
0000
,
0010
0000
0000
1000
,
1000
0000
0000
0000
,
0001
0000
0000
0001
,
0001
0000
0000
0000
,
0100
0000
0000
0010
,
0010
0000
0000
1000
,
1000
0000
0000
0000
,
1001
0000
0000
0000
,
0100
0000
0000
0000
,
0010
0000
0000
0000
,
1000
0000
0001
0000
,
0100
0000
0000
0000
,
0001
0000
0000
0000
,
1000
0000
0000
0000
,
0010
0000
1000
0000
,
0001
0000
0000
1001
;
