#VERSION:0.82;
#TITLE:I Bet My Life;
#SUBTITLE:;
#ARTIST:Imagine Dragons;
#TITLETRANSLIT:;
#SUBTITLETRANSLIT:;
#ARTISTTRANSLIT:;
#GENRE:Anthemic Folk;
#ORIGIN:;
#CREDIT:;
#BANNER:I Bet My Life.png;
#BACKGROUND:I Bet My Life-bg.png;
#PREVIEWVID:;
#JACKET:jacket.png;
#CDIMAGE:;
#DISCIMAGE:;
#LYRICSPATH:;
#CDTITLE:;
#MUSIC:I Bet My Life.ogg;
#OFFSET:-0.000000;
#SAMPLESTART:90.713997;
#SAMPLELENGTH:13.714000;
#SELECTABLE:YES;
#BPMS:0.000=108.000;
#STOPS:;
#DELAYS:;
#WARPS:;
#TIMESIGNATURES:0.000=4=4;
#TICKCOUNTS:0.000=4;
#COMBOS:0.000=1;
#SPEEDS:0.000=1.000=0.000=0;
#SCROLLS:0.000=1.000;
#FAKES:;
#LABELS:0.000=Song Start;
#BGCHANGES:4.000=I Bet My Life.mp4=1.000=1=0=1===CrossFade==,
99999=-nosongbg-=1.000=0=0=0 // don't automatically add -songbackground-
;
#KEYSOUNDS:;
#ATTACKS:
;

//---------------dance-single - ----------------
#NOTEDATA:;
#CHARTNAME:;
#STEPSTYPE:dance-single;
#DESCRIPTION:;
#CHARTSTYLE:;
#DIFFICULTY:Hard;
#METER:8;
#RADARVALUES:0.503898,0.676726,0.391068,0.115020,0.299052,394.000000,51.000000,15.000000,0.000000,0.000000,0.000000,0.000000,0.000000,0.503898,0.676726,0.391068,0.115020,0.299052,394.000000,51.000000,15.000000,0.000000,0.000000,0.000000,0.000000,0.000000;
#CREDIT:Ben Speirs;
#NOTES:
0000
0000
0000
0000
,
0000
0000
0000
0000
,
0000
0000
0000
0000
,
0000
0000
0000
0000
,
1000
0000
0100
0000
1000
0001
1000
0000
,
0010
0100
0001
0000
0010
0100
1000
0000
,
0001
0000
0010
0000
0001
1000
0001
0000
,
0200
0000
0300
0000
0010
0100
0001
1000
,
1100
0000
0000
0100
0000
0000
0010
0000
0000
0000
0001
0000
0000
0000
1000
0000
,
0010
0000
0000
0010
0000
0000
0100
0000
0000
0000
0001
0000
0000
0000
0010
0000
,
0011
0000
0000
0010
0000
0000
0100
0000
0000
0000
1000
0000
0000
0000
0001
0000
,
0100
0000
0000
0100
0010
0000
1000
0000
0100
0000
0010
0000
0001
0000
1000
0000
,
0001
0000
0001
0100
0000
0000
0010
0000
0100
0000
0001
0000
0010
0000
0100
0000
,
1000
0000
1000
0010
0000
0000
1000
0000
0100
0000
0010
0000
0001
0000
1000
0000
,
0001
0000
0001
0100
0000
0000
0001
0000
0100
0000
0010
0000
1000
0000
0100
0000
,
1001
0000
0000
0000
,
0000
0000
0000
0000
0000
0000
0000
0010
,
2002
0000
0000
3003
0000
0000
1010
0000
0010
0000
0100
0000
1001
0000
0001
0000
,
0010
0100
1000
1100
0100
0010
1001
1000
,
0100
0010
0001
0011
0010
0100
1001
0100
,
1001
0000
0000
0000
0001
0000
1000
0010
1000
0000
0001
0010
0001
0010
0100
1000
,
2002
0000
0000
3003
0000
0000
0101
0000
0100
0000
0010
0000
1001
0000
1000
0000
,
0100
0010
0001
0011
0010
0100
1001
0001
,
0010
0100
1000
1100
0100
0010
1001
0010
,
1001
0000
0000
0000
1000
0000
0001
0100
0001
0000
1000
0100
1000
0100
0010
0001
,
1000
0000
0000
0100
0000
0100
0000
0000
0010
0000
0001
0000
1000
0000
0000
0000
,
0001
0000
0000
0100
0000
0100
0000
0000
0010
0000
1000
0000
0100
0000
0000
0000
,
1000
0001
0100
0000
0001
1000
0010
0000
,
1000
0000
0000
0100
0000
0000
0100
0000
0010
0000
0010
0000
0001
0000
1000
0000
,
0010
0000
0000
0010
0100
0000
0000
0000
0010
0000
0100
0000
0001
0000
0010
0000
,
0100
0000
0000
0100
1000
0000
0000
0000
0100
0000
1000
0000
0010
0000
0100
0000
,
0001
0000
0000
0001
1000
0000
0000
0000
0001
0000
0010
0000
0100
0000
1000
0000
,
1000
0000
0000
1000
0001
0000
0000
0000
1000
0000
0100
0000
0010
0000
0001
0000
,
0100
0000
0000
0010
0000
0000
1000
0000
0100
0000
0000
0010
0000
0000
0001
0000
,
1000
0000
0000
0010
0000
0000
1000
0000
0001
0000
0000
0010
0000
0000
0001
0000
,
1000
0100
1000
0100
0010
0001
1000
0000
,
0001
0100
0001
0100
0010
1000
0100
0000
,
2000
0100
0010
0001
,
3002
0000
0000
0000
,
0003
0000
0020
0030
,
0200
0000
0300
0000
0000
0000
0000
0010
,
1001
0000
1000
0100
0010
0000
0011
0000
0110
0000
1100
0000
1001
0000
0001
0010
,
0100
0000
1000
0010
0100
0000
0101
0000
0110
0000
1010
0000
1001
0000
1000
0100
,
0010
0000
0001
0100
0010
0000
1010
0000
0110
0000
0101
0000
1001
0000
1100
0000
,
1002
0000
0000
0000
0103
0000
0001
0100
0001
0000
1000
0100
1000
0100
0010
0001
,
1001
0000
0001
0010
0100
0000
1100
0000
0110
0000
0011
0000
1001
0000
1000
0100
,
0010
0000
0001
0100
0010
0000
1010
0000
0110
0000
0101
0000
1001
0000
0001
0010
,
0100
0000
1000
0010
0100
0000
0101
0000
0110
0000
1010
0000
1001
0000
0011
0000
,
2001
0000
0000
0000
3010
0000
1000
0010
1000
0000
0001
0010
0001
0010
0100
1000
,
0010
0000
0100
0010
0000
0100
0010
0000
0100
0001
0010
0000
0100
1000
0001
0000
,
1000
0000
0202
0000
0300
0000
1003
0000
0100
0010
0001
0000
1000
0010
0100
0001
,
0010
0000
2200
0000
0300
0000
3001
0000
0100
0010
1000
0000
0100
0010
0100
0010
,
0001
0000
0001
1000
0000
1000
0010
0000
0010
0100
0000
0100
0001
0000
1000
0000
,
0001
0100
0001
0100
0001
0100
0001
0000
0100
0000
0001
0000
0001
0000
0001
0000
,
1000
0100
1000
0100
1000
0100
1000
0000
0010
0000
0100
0000
0100
0000
0100
0000
,
0001
1000
0001
1000
0001
1000
0001
0000
0100
0010
0100
0000
0001
0000
1000
0000
,
0001
0100
0001
1000
0100
1000
0001
0010
0001
1000
0010
1000
0001
0010
0100
1000
;

//---------------dance-single - ----------------
#NOTEDATA:;
#CHARTNAME:;
#STEPSTYPE:dance-single;
#DESCRIPTION:;
#CHARTSTYLE:;
#DIFFICULTY:Medium;
#METER:5;
#RADARVALUES:0.294671,0.392506,0.092016,0.260712,0.000000,223.000000,12.000000,34.000000,0.000000,0.000000,0.000000,0.000000,0.000000,0.294671,0.392506,0.092016,0.260712,0.000000,223.000000,12.000000,34.000000,0.000000,0.000000,0.000000,0.000000,0.000000;
#CREDIT:Ben Speirs;
#NOTES:
0000
0000
0000
0000
,
0000
0000
0000
0000
,
0000
0000
0000
0000
,
0000
0000
0000
0000
,
0000
1000
0000
1000
0000
0001
0000
0001
,
0000
0010
0000
0010
0000
0100
0000
0100
,
0000
1000
0000
0001
0000
0100
0000
0010
,
0000
1000
0000
0100
0000
1000
0000
0001
,
0001
0000
1000
0100
0000
0000
1000
0000
,
0010
0000
0100
0001
0000
0000
1000
0000
,
0100
0000
0010
0001
0000
0000
1000
0000
,
0010
0000
0100
0001
1000
0001
0100
0000
,
0010
0000
0100
0001
0000
0000
1000
0000
,
0001
0000
0010
0100
0000
0000
1000
0000
,
0010
0000
1000
0001
0000
0000
0100
0000
,
0010
0000
0000
0000
,
0000
0000
0000
0000
,
2002
0000
3003
1000
0100
0010
0002
0000
,
1000
0000
1003
0001
0010
0100
2000
0000
,
0001
0000
3001
1000
0100
0010
0001
1000
,
0001
0000
0000
0100
0100
0010
0010
0000
,
2002
0000
3003
0001
0010
0100
2000
0000
,
0001
0000
3001
1000
0100
0010
0002
0000
,
1000
0000
1003
0001
0010
0100
1000
0001
,
1000
0000
0000
0010
0010
0100
0100
0000
,
0002
0000
0103
0000
,
0020
0000
1030
0000
,
0200
0300
0020
0030
,
0002
0000
1003
0000
,
1000
0000
0000
0000
0100
1000
0001
0000
,
0100
0000
0000
0000
0001
1000
0010
0000
,
0100
0000
0000
0000
0010
1000
0100
0000
,
0010
0000
0001
1000
,
0202
0000
0303
0000
0100
0001
1000
0000
,
2200
0000
3300
0000
0100
1000
0010
0000
,
2020
0000
3030
0000
0010
1000
0001
0000
,
2002
3003
0001
1000
,
0020
0100
0100
0130
,
0002
0000
0000
0000
,
0003
0000
0020
0030
,
0200
0300
0000
0000
,
1001
0000
0000
0010
0010
0010
0010
0000
,
0100
0000
0001
0010
0010
0010
0010
0000
,
0100
0000
1000
0010
0010
0010
0010
0100
,
0001
0000
0000
1000
1000
0001
0001
0000
,
1001
0000
0000
0100
0100
0100
0100
0000
,
0010
0000
1000
0100
0100
0100
0100
0000
,
0010
0000
0001
0100
0100
0100
0100
0010
,
1000
0000
0000
0001
0001
1000
1000
0000
,
0020
0000
0230
0000
0301
1000
0100
0000
,
2000
0000
3002
0000
0103
0001
1000
0000
,
0020
0000
2030
0000
3100
0010
0001
0000
,
1100
0101
0011
1010
,
0001
0000
1000
0000
0000
0010
0100
0010
,
1000
0000
0001
0000
0000
0010
0100
0010
,
0001
0000
1000
0000
0000
0010
0100
0010
,
2000
0000
3200
0000
0320
0000
0031
1000
;

//---------------dance-single - ----------------
#NOTEDATA:;
#CHARTNAME:;
#STEPSTYPE:dance-single;
#DESCRIPTION:;
#CHARTSTYLE:;
#DIFFICULTY:Easy;
#METER:4;
#RADARVALUES:0.181841,0.217580,0.069012,0.130356,0.000000,140.000000,9.000000,17.000000,0.000000,0.000000,0.000000,0.000000,0.000000,0.181841,0.217580,0.069012,0.130356,0.000000,140.000000,9.000000,17.000000,0.000000,0.000000,0.000000,0.000000,0.000000;
#CREDIT:Ben Speirs;
#NOTES:
0000
0000
0000
0000
,
0000
0000
0000
0000
,
0000
0000
0000
0000
,
0000
0000
0000
0000
,
1000
0000
0001
0000
,
0010
0100
1000
0000
,
0010
0000
0100
0000
,
0002
0003
0000
0000
,
1000
0001
1000
0000
,
0100
0010
0001
0000
,
1000
0001
1000
0000
,
0010
0100
0001
0000
,
0010
0010
0001
1000
,
0010
0000
0100
0000
,
0001
0001
1000
1000
,
0100
0000
0000
0000
,
0000
0000
0000
0000
,
1001
0000
0000
0000
0100
0100
0100
0000
,
0000
0000
0000
0000
1000
1000
1000
0000
,
0000
0000
0000
0000
0010
0010
0010
0000
,
0100
0000
0001
1000
,
1001
0000
0000
0000
0100
0100
0100
0000
,
0000
0000
0000
0000
0010
0010
0010
0000
,
0000
0000
0000
0000
0001
0001
0001
0000
,
1000
0000
0010
0100
,
0001
0000
2000
3000
,
0100
0000
0020
0030
,
0002
0003
2000
3000
,
0020
0030
0200
0300
,
0001
0000
0100
0010
,
1000
0000
0100
0010
,
0001
0000
1000
0000
,
0001
0000
0100
0000
,
0020
0030
0010
0010
,
2000
3000
1000
1000
,
0200
0300
0100
0100
,
0020
0030
0010
0010
,
0001
1000
0000
0010
,
0020
0000
0000
0000
,
0030
0000
2000
3000
,
0002
0003
0000
0000
,
1001
0000
0000
0000
0010
0010
0010
0000
,
0000
0000
0000
0000
1000
1000
1000
0000
,
0000
0000
0000
0000
0100
0100
0100
0000
,
0010
0000
0001
1000
,
1001
0000
0000
0000
0100
0100
0100
0000
,
0000
0000
0000
0000
0001
0001
0001
0000
,
0000
0000
0000
0000
1000
1000
1000
0000
,
0010
0000
1000
0100
,
1000
0000
0020
0130
,
0100
0000
0002
1003
,
1000
0000
0200
0310
,
0010
0000
0001
0000
,
1000
0000
0000
1001
,
1001
0000
0000
0110
,
0110
0000
0000
1001
,
1000
0100
0010
0001
;

//---------------dance-single - ----------------
#NOTEDATA:;
#CHARTNAME:;
#STEPSTYPE:dance-single;
#DESCRIPTION:;
#CHARTSTYLE:;
#DIFFICULTY:Beginner;
#METER:2;
#RADARVALUES:0.113925,0.152306,0.046008,0.000000,0.000000,98.000000,6.000000,0.000000,0.000000,0.000000,0.000000,0.000000,0.000000,0.113925,0.152306,0.046008,0.000000,0.000000,98.000000,6.000000,0.000000,0.000000,0.000000,0.000000,0.000000,0.000000;
#CREDIT:Ben Speirs;
#NOTES:
0000
0000
0000
0000
,
0000
0000
0000
0000
,
0000
0000
0000
0000
,
0000
0000
0000
0000
,
1000
0000
0000
0000
,
0001
0000
0000
0000
,
0010
0000
0000
0000
,
0100
0000
0000
0000
,
1000
1000
0000
0000
,
0001
0001
0000
0000
,
0100
0100
0000
0000
,
0010
0000
0000
0000
,
1000
0000
1000
0000
,
0100
0000
0100
0000
,
0010
0000
0010
0000
,
0001
0000
0000
0000
,
0000
0000
0000
0000
,
1001
0000
0100
0100
,
0000
0000
0010
0010
,
0000
0000
0001
0001
,
0001
0000
1000
0000
,
1001
0000
1000
1000
,
0000
0000
0010
0010
,
0000
0000
0100
0100
,
0100
0000
0001
0000
,
1000
0000
0000
0000
,
0001
0000
0000
0000
,
0100
0000
0100
0000
,
0100
0000
0000
0000
,
1001
0000
1000
0000
,
0100
0000
0010
0000
,
0001
0000
0100
0000
,
0010
0000
0000
0000
,
1000
0000
0100
0100
,
0100
0000
1000
1000
,
1000
0000
0001
0000
,
0100
0000
0000
0000
,
0001
0000
1000
0000
,
0100
0000
0000
0000
,
0000
0000
1000
0000
,
0001
0000
0000
0000
,
0110
0000
1000
1000
,
0000
0000
0001
0001
,
0000
0000
0100
0100
,
0100
0000
0001
0000
,
0110
0000
1000
1000
,
0000
0000
0001
0001
,
0000
0000
0010
0010
,
0010
0000
0100
0000
,
1001
0000
1000
1000
,
0000
0000
0001
0001
,
0000
0000
0100
0100
,
0100
0000
0010
0000
,
1000
0000
0000
0100
,
0100
0000
0000
0010
,
0010
0000
0000
0001
,
0001
0000
1000
1000
;

//---------------dance-double - ----------------
#NOTEDATA:;
#CHARTNAME:;
#STEPSTYPE:dance-double;
#DESCRIPTION:;
#CHARTSTYLE:;
#DIFFICULTY:Challenge;
#METER:8;
#RADARVALUES:0.498420,0.676726,0.352728,0.322056,0.222372,367.000000,46.000000,42.000000,0.000000,0.000000,0.000000,0.000000,0.000000,0.498420,0.676726,0.352728,0.322056,0.222372,367.000000,46.000000,42.000000,0.000000,0.000000,0.000000,0.000000,0.000000;
#CREDIT:Ben Speirs;
#NOTES:
00000000
00000000
00000000
00000000
,
00000000
00000000
00000000
00000000
,
00000000
00000000
00000000
00000000
,
00000000
00000000
00000000
00000000
,
10000000
00000000
01000000
00000000
00100000
00010000
01000000
00000000
,
00100000
01000000
00010000
00000000
10000000
01000000
10000000
00000000
,
00010000
00000000
00100000
00000000
00001000
00000000
00010000
00000010
,
00001000
00000000
00000001
00000000
00001000
00000100
00000010
00000001
,
00000100
00000000
00000100
00000010
00000000
00000000
00000100
00000000
00000000
00000000
00000001
00000000
00000000
00000000
00000010
00000000
,
00000001
00000000
00000001
00001000
00000000
00000000
00000100
00000000
00000000
00000000
00010000
00000000
00000000
00000000
00001000
00000000
,
00100000
00000000
00100000
00010000
00000000
00000000
01000000
00000000
00000000
00000000
00100000
00000000
00000000
00000000
10000000
00000000
,
01000000
00000000
01000000
00100000
00010000
00000000
00010000
00000000
10000000
00000000
10000000
00000000
00100000
00000000
00100000
00000000
,
10000000
01000000
10000000
01000000
00010000
01000000
00010000
01000000
,
00010000
00001000
00010000
00001000
00000100
00001000
00000100
00001000
,
00000100
00000001
00000010
00000100
00001000
00000010
00000100
00000001
,
00001000
00000000
00000000
00000000
,
00000000
00000000
00000000
00000000
00000000
00000000
00000000
00000100
,
00022000
00000000
00033000
00010100
00010000
00001000
00012000
00000000
,
00010000
00000000
00013000
00101000
00001000
00010000
00021000
00000000
,
00001000
00000000
00031000
00010010
00000010
00001000
00000001
00000010
,
00000200
00000000
00000000
00000000
00001300
00000000
00000010
00000100
00000010
00000000
00001000
00000100
00001000
00000100
00010000
00001000
,
00022000
00000000
00033000
00101000
00001000
00010000
00021000
00000000
,
00001000
00000000
00031000
00010100
00010000
00001000
00012000
00000000
,
00010000
00000000
00013000
01001000
01000000
00010000
10000000
01000000
,
00200000
00000000
00000000
00000000
00310000
00000000
01000000
00100000
01000000
00000000
00010000
00100000
00010000
00100000
00001000
00010000
,
00000200
00000000
00001300
00000000
00000100
00001000
00000001
00000000
,
00000020
00000000
00000031
00000000
00000010
00000001
00001000
00000000
,
00002010
00003010
00021000
00031000
,
00210000
00310000
20100000
30100000
,
20020000
00000000
30030000
00000000
10000000
01000000
00100000
00010000
,
02000000
00000000
03100000
00000000
01000000
00010000
00100000
01000000
,
20000000
00000000
30020000
00000000
00130000
01000000
00100000
00010000
,
02000000
00000000
03001000
00000000
00010000
00000100
00000010
00000000
,
00002002
00000000
00003003
00000000
00000001
00000010
00000100
00001000
,
00000020
00000000
00000130
00000000
00000010
00001000
00000100
00000010
,
00000002
00000000
00002003
00000000
00003100
00000010
00000100
00001000
,
00000020
00000000
00010030
00000000
00001000
00010000
00001000
00010000
,
02000000
23000000
30200000
00320000
,
00031000
00000000
00000000
00000000
,
00000000
00000000
00100000
00000000
,
00000010
00000000
00000000
00000000
00000000
00000000
00000000
00011000
,
00110000
00000000
00100000
00010000
10000000
00000000
10100000
00000000
01100000
00000000
01010000
00000000
10010000
00000000
10000000
01000000
,
00100000
00000000
00010000
10000000
00010000
00000000
01010000
00000000
00011000
00000000
00001010
00000000
00001001
00000000
00000001
00000010
,
00000100
00000000
00001000
00000001
00001000
00000000
00001010
00000000
00011000
00000000
00110000
00000000
01000000
00000000
10000000
00000000
,
00200000
00000000
00000000
00000000
10300000
00000000
10000000
00010000
10000000
00000000
00010000
01000000
00010000
01000000
00000100
00001000
,
00001100
00000000
00000100
00001000
00000001
00000000
00000101
00000000
00000110
00000000
00001010
00000000
00001001
00000000
00000001
00000010
,
00000100
00000000
00001000
00000001
00001000
00000000
00001010
00000000
00011000
00000000
01010000
00000000
10010000
00000000
10000000
01000000
,
00100000
00000000
00010000
10000000
00010000
00000000
01010000
00000000
00011000
00000000
00001100
00000000
00000010
00000000
00000001
00000000
,
00000200
00000000
00000000
00000000
00000301
00000000
00001000
00000001
00001000
00000000
00000001
00000010
00000100
00001000
00000010
00000100
,
00000001
00000000
00000001
00001000
00000000
00001000
00000100
00000000
00010000
00000100
00010000
00000000
00001000
00010000
00001000
00010000
,
01000000
00000000
10000000
00000000
00100000
00000000
01000000
00000000
00010000
01000000
00100000
00000000
10000000
01000000
00100000
00010000
,
10000000
00000000
10000000
00100000
00000000
00100000
01000000
00000000
00020000
00000000
20030000
00000000
31000000
00100000
00010000
01000000
,
00001000
00000000
00001000
00010000
00000000
00010000
00100000
00000000
00100000
00010000
00000000
00010000
00001000
00000000
00010000
00000000
,
00002200
00000000
00003300
00000000
00000100
00000000
00001000
00000000
00000010
00000000
00001000
00000001
00001000
00000001
00001000
00000000
,
00000202
00000000
00000303
00000000
00000001
00000000
00001000
00000000
00000010
00000000
00001000
00000100
00001000
00000100
00001000
00000000
,
00020200
00000000
00030300
00000000
00010000
00000000
00001000
00000000
01000000
00000000
00010000
00100000
00010000
00100000
00010000
00000000
,
10000000
00000000
10000000
00100000
00000000
00100000
00010000
00000000
00010000
00001000
00000000
00001000
00100000
00010000
00100000
00010000
;
