#VERSION:0.82;
#TITLE:Stitches;
#SUBTITLE:;
#ARTIST:Shawn Mendes;
#TITLETRANSLIT:;
#SUBTITLETRANSLIT:;
#ARTISTTRANSLIT:;
#GENRE:A&E;
#ORIGIN:;
#CREDIT:;
#BANNER:Stitches.png;
#BACKGROUND:Stitches-bg.png;
#PREVIEWVID:;
#JACKET:jacket.png;
#CDIMAGE:;
#DISCIMAGE:;
#LYRICSPATH:;
#CDTITLE:;
#MUSIC:Stitches.ogg;
#OFFSET:-0.108000;
#SAMPLESTART:89.686516;
#SAMPLELENGTH:13.714000;
#SELECTABLE:YES;
#BPMS:0.000=150.000;
#STOPS:;
#DELAYS:;
#WARPS:;
#TIMESIGNATURES:0.000=4=4;
#TICKCOUNTS:0.000=4;
#COMBOS:0.000=1;
#SPEEDS:0.000=1.000=0.000=0;
#SCROLLS:0.000=1.000;
#FAKES:;
#LABELS:0.000=Song Start;
#BGCHANGES:8.000=Stitches.avi=1.000=0=0=1=====,
99999=-nosongbg-=1.000=0=0=0 // don't automatically add -songbackground-
;
#KEYSOUNDS:;
#ATTACKS:
;

//---------------dance-single - ----------------
#NOTEDATA:;
#CHARTNAME:;
#STEPSTYPE:dance-single;
#DESCRIPTION:;
#CHARTSTYLE:;
#DIFFICULTY:Hard;
#METER:8;
#RADARVALUES:0.565209,0.554196,0.341342,0.356857,0.000000,420.000000,44.000000,46.000000,0.000000,0.000000,0.000000,0.000000,0.000000,0.565209,0.554196,0.341342,0.356857,0.000000,420.000000,44.000000,46.000000,0.000000,0.000000,0.000000,0.000000,0.000000;
#CREDIT:Ben Speirs;
#NOTES:
0000
0000
0000
0000
,
0000
0000
0000
0000
,
0000
0000
0000
0000
,
0000
0000
0000
0000
,
1000
0100
0010
0001
,
1000
0000
0010
0000
0100
0000
0001
1000
,
0002
0000
0003
0000
,
2000
0000
3000
0000
,
1010
0000
0001
0001
1000
1000
0010
0100
,
0002
2003
3200
0310
,
0011
0000
0001
0001
1000
1000
0001
0010
,
0200
0000
2300
0000
3020
0000
0130
0001
,
2000
0100
3100
1100
,
0002
0100
0103
0101
,
1001
0000
0010
1000
0010
1000
0002
0000
,
0103
0101
0110
1010
,
0001
0001
1000
0001
0002
0000
0103
0000
,
0001
0010
0100
1000
0010
0100
0001
0000
,
1000
1000
0001
1000
2000
0000
3100
0000
,
1000
0010
0100
0001
1000
0100
0010
0000
,
0001
1000
0010
0100
0001
0010
0100
2000
,
0000
3100
0010
0002
0000
1003
0010
0000
,
1000
0010
0100
0001
0010
0100
1000
0002
,
0000
0103
0010
2000
0000
3100
0010
0000
,
0001
0001
0010
0010
0001
0010
0100
0000
,
1000
0010
0100
0001
0101
0000
1100
0000
,
0100
0100
1000
0100
0100
1000
0010
0000
,
1000
0010
0100
0001
0101
0000
1010
0000
,
0001
0010
0100
1000
0010
0100
0001
2000
,
0000
3100
0010
0002
0000
1003
0010
0000
,
0100
0001
0010
0100
1000
0010
0100
0002
,
0000
1003
0100
0020
0000
0031
1000
0000
,
0010
2010
3001
0012
,
1003
0000
2100
0000
3001
0000
1000
0010
,
0100
0000
0001
1000
0000
0000
1001
0000
,
0010
0000
1000
0001
0000
0000
1001
0000
,
0010
0000
1000
0100
0010
0000
0001
0100
,
0010
0000
1000
0100
0010
0000
0001
1000
,
0002
0103
0000
0101
,
2000
3100
0000
1100
,
0001
1010
1001
0011
,
1000
0001
1000
0000
0010
0100
0001
0000
,
1000
0000
0100
0010
0000
0010
0001
0000
,
1000
0000
0010
0100
0001
0100
0010
1000
,
0000
0001
0000
1001
0000
0102
0000
0000
,
1003
0000
0010
1000
0100
0010
0001
1000
,
0000
2100
0000
3001
0000
0102
0000
0000
,
0103
0000
0010
1000
0000
1000
0001
0000
,
1010
0000
0010
0100
0010
0100
0010
0100
,
0002
0000
2003
0000
3100
0010
0002
0000
,
1003
0000
0100
1000
0100
1000
0100
1000
,
0010
0000
2010
0000
3001
0000
0010
0010
,
0001
0000
1000
0100
0010
0001
0100
0010
,
2000
0000
3002
0000
0013
0100
0020
0000
,
0031
0000
1000
0200
0000
0310
0002
0000
,
1003
1010
1001
0101
,
1000
1000
0001
0100
0100
0000
2001
0000
,
3010
0000
1000
0100
0010
0001
1000
0000
,
0010
0010
0100
0010
0010
0000
2010
0000
,
3001
0000
1000
0100
0010
0001
1000
0000
,
0010
0100
0001
0010
0100
1000
0010
0200
,
0000
0301
1000
0020
0000
0100
0130
0000
,
0001
0100
0010
1000
0100
0010
0001
2000
,
0000
3100
0010
0002
0000
1003
1000
0000
,
0001
0001
0100
0010
0010
1000
0001
0000
,
1000
0100
0010
0001
0011
0000
1100
0000
,
0001
0001
1000
0010
0010
0100
0001
0000
,
1000
0100
0010
0001
0011
0000
1010
0000
,
0001
1000
0010
0100
0001
0010
0100
1000
,
0010
0100
0010
1000
0100
0010
0001
0000
,
1000
0010
1000
0001
0010
0100
1000
0001
,
0100
0001
1000
0100
0010
0001
1000
0000
,
0101
0000
0010
1000
0000
1000
0100
0000
,
1100
0000
0001
0010
0000
0010
0100
0000
,
1001
0000
1000
0010
0000
0010
0100
0000
,
1001
0000
0001
0100
0100
0010
1000
0000
,
0101
0000
0010
1000
0000
1000
0001
0000
,
1100
0000
0001
0010
0000
0010
0100
1000
,
0010
0100
0000
0001
0000
1000
0000
2020
,
0000
0030
0000
3001
0000
0000
0000
0000
;

//---------------dance-single - ----------------
#NOTEDATA:;
#CHARTNAME:;
#STEPSTYPE:dance-single;
#DESCRIPTION:;
#CHARTSTYLE:;
#DIFFICULTY:Medium;
#METER:6;
#RADARVALUES:0.392322,0.431041,0.294795,0.162913,0.000000,295.000000,38.000000,21.000000,0.000000,0.000000,0.000000,0.000000,0.000000,0.392322,0.431041,0.294795,0.162913,0.000000,295.000000,38.000000,21.000000,0.000000,0.000000,0.000000,0.000000,0.000000;
#CREDIT:Ben Speirs;
#NOTES:
0000
0000
0000
0000
,
0000
0000
0000
0000
,
0000
0000
0000
0000
,
0000
0000
0000
0000
,
1000
0001
0100
0000
,
0010
1000
0001
0000
,
0020
0000
0030
0000
,
0200
0000
0300
0000
,
1001
0100
0000
1000
,
0000
0010
0000
0100
,
0101
0010
0000
1000
,
0001
0000
1000
0000
0100
0000
0010
0001
,
1000
1100
0000
0101
,
0000
1010
0000
0011
,
1000
0000
0001
1000
0001
0000
0100
0000
,
0000
0110
1001
0110
,
1000
0000
0001
0100
0000
0000
0101
0000
,
0001
0000
1000
0100
0000
0000
1100
0000
,
0001
0000
0010
0001
0000
0000
0011
0000
,
1000
0000
0010
1000
0000
0000
1010
0000
,
0001
1000
0010
0100
,
0002
1003
0200
0310
,
0001
1000
0010
0100
,
0002
0013
0200
1300
,
0001
0100
0001
0000
0101
0000
0101
0000
,
0000
0000
0010
0000
1000
0001
1000
0000
,
0100
1000
0100
0000
1100
0000
1100
0000
,
0000
0000
0010
0000
1000
0001
1000
0000
,
0010
0100
0001
1000
,
0200
0310
0002
1003
,
0010
0100
0001
1000
,
0200
0310
0002
1003
,
0010
0100
0100
0001
,
0001
1000
0100
0010
,
0001
0000
1000
0001
0000
0000
0100
0000
,
0010
0000
1000
0001
0000
0000
0010
0000
,
0001
0010
0001
0000
1000
0000
0001
0000
,
1000
0100
1000
0000
0010
0000
1000
0000
,
0001
0000
0100
0001
0000
0000
1000
0000
,
0001
0000
1000
0100
0000
0000
1001
0000
,
0100
1100
0001
0101
,
1000
1010
0001
0011
,
2000
3100
0000
1100
,
0002
0103
0000
0101
,
1000
0000
0100
0000
0010
0001
1000
0000
,
0000
0010
1000
0001
,
0100
0000
0010
0000
1000
0001
0010
0000
,
0000
0011
0000
1100
,
0000
0000
0001
0100
0001
0100
0001
0000
,
1000
1000
0001
0001
,
0000
0000
1000
0100
1000
0100
1000
0000
,
0001
1000
0010
0100
,
0001
0000
1000
0100
1000
0000
0010
0000
,
0100
0100
0001
0001
,
1000
0000
0001
0000
,
0000
0110
1001
0110
,
1000
1000
0100
1000
1000
0000
1100
0000
,
0000
0000
0010
0010
,
0100
0100
0001
0100
0100
0000
0101
0000
,
0000
0000
1000
0001
,
0010
0100
1000
0001
,
0200
0310
2000
3100
,
0010
0001
1000
0010
,
0200
0301
2000
3100
,
0010
0010
0001
0010
0010
0000
0011
0000
,
0000
0001
1000
1000
,
0010
0010
0100
0010
0010
0000
0110
0000
,
0000
1000
0100
0100
,
1000
0001
0010
0100
,
2000
3010
0200
0301
,
1000
0100
0010
0001
,
2000
3010
0200
0301
,
1000
0000
0100
0100
0000
0000
1100
0000
,
0001
0000
0100
0100
0000
0000
0101
0000
,
1000
0000
0010
0010
0000
0000
1010
0000
,
0001
0000
0010
0010
0001
0010
0100
0000
,
1000
1000
0100
1000
0000
0000
1100
0000
,
0001
0001
0100
0001
0000
0000
0101
0000
,
1000
0000
0100
0000
0010
0000
0001
2000
,
0000
0000
0000
3010
0000
0000
0000
0000
;

//---------------dance-single - ----------------
#NOTEDATA:;
#CHARTNAME:;
#STEPSTYPE:dance-single;
#DESCRIPTION:;
#CHARTSTYLE:;
#DIFFICULTY:Easy;
#METER:4;
#RADARVALUES:0.182862,0.214502,0.015516,0.000000,0.000000,163.000000,2.000000,0.000000,0.000000,0.000000,0.000000,0.000000,0.000000,0.182862,0.214502,0.015516,0.000000,0.000000,163.000000,2.000000,0.000000,0.000000,0.000000,0.000000,0.000000,0.000000;
#CREDIT:Ben Speirs;
#NOTES:
0000
0000
0000
0000
,
0000
0000
0000
0000
,
0000
0000
0000
0000
,
0000
0000
0000
0000
,
1000
0000
0000
0000
,
0001
0000
0000
0000
,
0100
0000
0000
0000
,
0100
0000
0000
0000
,
0000
0010
0000
0010
,
0000
1000
0000
1000
,
0100
0010
0000
0010
,
0000
0001
0000
0001
,
1000
0100
0000
0100
,
0000
1000
0000
1000
,
0001
0000
0100
0000
,
0000
0010
0010
0010
,
1000
0000
0000
0001
0000
0000
0000
0000
,
0100
0000
0000
0100
0000
0000
0000
0000
,
0001
0000
0000
1000
0000
0000
0000
0000
,
0100
0000
0000
0100
0000
0000
0000
0000
,
1000
0000
0010
0000
,
0100
0001
1000
0000
,
0100
0000
0010
0000
,
0001
1000
0010
0000
,
0100
0000
0000
0001
0000
0000
0000
0000
,
1000
0000
0000
1000
0000
0000
0000
0000
,
0010
0000
0000
1000
0000
0000
0000
0000
,
0001
0000
0000
0001
0000
0000
0000
0000
,
1000
0000
0001
0000
,
0100
0001
1000
0000
,
0010
0000
1000
0000
,
0100
0010
0001
0000
,
0000
1000
1000
0000
,
0001
0000
0100
0000
,
0010
0000
0000
0010
0000
0000
0000
0000
,
1000
0000
0001
0000
,
0100
0000
0010
0000
,
1000
0000
0001
0000
,
0010
0000
0000
0010
0000
0000
0000
0000
,
0001
0000
1000
0000
,
1001
0000
0100
0000
,
1000
0000
0010
0100
,
0001
0000
0000
0000
,
1000
0000
0000
0000
,
0100
0100
0100
0000
,
0100
0000
0000
0000
,
1000
1000
1000
0000
,
1000
0000
0000
0000
,
1001
0000
0000
0000
,
0100
0010
1000
1000
,
0001
0000
0000
0000
,
1000
0100
0010
0000
,
0001
0000
0000
0000
,
1000
0001
0100
0100
,
0010
0000
1000
0000
,
0000
0100
0100
0100
,
1000
0000
0000
1000
0000
0000
0000
0000
,
0001
0000
0000
0001
0000
0000
0000
0000
,
0100
0000
0000
0100
0000
0000
0000
0000
,
0010
0000
0000
0010
0000
0000
0000
0000
,
1000
0000
0100
0010
,
0001
0000
1000
0000
,
0001
0000
0100
0010
,
1000
0000
0001
0000
,
0010
0000
0000
0010
0000
0000
0000
0000
,
0001
0000
0000
0001
0000
0000
0000
0000
,
1000
0000
0000
1000
0000
0000
0000
0000
,
0100
0000
0000
0100
0000
0000
0000
0000
,
1000
0000
0001
0100
,
0010
0000
1000
0000
,
0001
0000
1000
0100
,
0010
0000
0001
0000
,
1000
0010
0100
0001
,
1000
0000
0000
0000
,
0001
0010
0100
1000
,
0001
0000
0000
0000
,
1000
0010
0100
0001
,
1000
0000
0000
0000
,
0100
0000
1000
0000
,
0010
0000
0000
0000
;

//---------------dance-single - ----------------
#NOTEDATA:;
#CHARTNAME:;
#STEPSTYPE:dance-single;
#DESCRIPTION:;
#CHARTSTYLE:;
#DIFFICULTY:Beginner;
#METER:2;
#RADARVALUES:0.131882,0.183277,0.015516,0.000000,0.000000,117.000000,2.000000,0.000000,0.000000,0.000000,0.000000,0.000000,0.000000,0.131882,0.183277,0.015516,0.000000,0.000000,117.000000,2.000000,0.000000,0.000000,0.000000,0.000000,0.000000,0.000000;
#CREDIT:Ben Speirs;
#NOTES:
0000
0000
0000
0000
,
0000
0000
0000
0000
,
0000
0000
0000
0000
,
0000
0000
0000
0000
,
1000
0000
0000
0000
,
0001
0000
0000
0000
,
0010
0000
0000
0000
,
0000
0000
0000
0000
,
0001
0001
0000
0000
,
1000
0000
0000
0000
,
0010
0010
0000
0000
,
0100
0000
0100
0000
,
0001
0001
0000
0000
,
0010
0000
0000
0000
,
0100
0100
0000
0000
,
1000
0000
0000
0000
,
0010
0000
0010
0010
,
0000
0000
1000
0000
,
0001
0000
0001
0001
,
0000
0000
0100
0000
,
0010
0000
0010
0000
,
1000
0000
0000
0000
,
0100
0000
0100
0000
,
0010
0000
0000
0000
,
0001
0000
0001
0001
,
0000
0000
1000
0000
,
0010
0000
0010
0010
,
0000
0000
0100
0000
,
0100
0000
0001
0000
,
1000
0000
0000
0000
,
0100
0000
1000
0000
,
0010
0000
0000
0000
,
1000
0000
0000
0000
,
0001
0000
0000
0000
,
0100
0100
0000
0000
,
0010
0010
0000
0000
,
1000
0000
0000
0000
,
0001
0000
0000
0000
,
0010
0010
0000
0000
,
0100
0100
0000
0000
,
1000
0000
1000
0000
,
0001
0000
0001
0000
,
0100
0000
0000
0000
,
0010
0000
0000
0000
,
1000
0000
0001
0000
,
0100
0000
0000
0000
,
0001
0000
1000
0000
,
0100
0000
0000
0000
,
1001
0000
0000
0000
,
0010
0010
0010
0000
,
0010
0000
0000
0000
,
1000
0000
0001
0000
,
0100
0000
0000
0000
,
0001
0001
0001
0000
,
1000
0000
0000
0000
,
0000
0100
0100
0000
,
1001
0000
0000
0000
,
1000
0000
0000
0000
,
0010
0000
0010
0010
,
0000
0000
0000
0000
,
0100
0000
0100
0000
,
0001
0000
0000
0000
,
1000
0000
1000
0000
,
0100
0000
0000
0000
,
1000
0000
0010
0010
,
0000
0000
0100
0000
,
0001
0000
1000
1000
,
0000
0000
0100
0000
,
0010
0000
0001
0000
,
1000
0000
0000
0000
,
0010
0000
0100
0000
,
0001
0000
0000
0000
,
1000
0000
0000
0000
,
0001
0000
0000
0000
,
0100
0000
0000
0000
,
0010
0000
0000
0000
,
0000
1000
0000
1000
,
0000
0001
0000
0001
,
0000
0100
0000
0100
;

//---------------dance-double - ----------------
#NOTEDATA:;
#CHARTNAME:;
#STEPSTYPE:dance-double;
#DESCRIPTION:;
#CHARTSTYLE:;
#DIFFICULTY:Challenge;
#METER:8;
#RADARVALUES:0.557451,0.554196,0.310311,0.395646,0.000000,412.000000,40.000000,51.000000,0.000000,0.000000,0.000000,0.000000,0.000000,0.557451,0.554196,0.310311,0.395646,0.000000,412.000000,40.000000,51.000000,0.000000,0.000000,0.000000,0.000000,0.000000;
#CREDIT:Ben Speirs;
#NOTES:
// measure 0
00000000
00000000
00000000
00000000
,  // measure 1
00000000
00000000
00000000
00000000
,  // measure 2
00000000
00000000
00000000
00000000
,  // measure 3
00000000
00000000
00000000
00000000
,  // measure 4
10000000
00000000
01000000
00000000
00100000
00000000
00010000
10000000
,  // measure 5
00200000
00000000
01300000
00010000
00200000
00000000
00301000
00010000
,  // measure 6
00000200
00000000
00000000
00000000
00000000
00000300
00000000
00000000
,  // measure 7
00002000
00000000
00000000
00003000
,  // measure 8
00000101
00000000
00000001
00000100
00000001
00000100
00000001
00000100
,  // measure 9
00000020
00002030
00003002
00001003
,  // measure 10
00001100
00000000
00001000
00000100
00020000
00000000
00031000
00100000
,  // measure 11
00002000
00000000
00023000
00000000
00032000
00000000
00103000
00100000
,  // measure 12
00110000
00000000
00010000
10000000
00010000
10000000
00010000
10000000
,  // measure 13
00200000
02300000
03020000
10030000
,  // measure 14
11000000
00000000
10000000
00100000
01000000
00010000
00100000
01000000
,  // measure 15
10000000
01010000
00011000
00001100
,  // measure 16
00001000
00000100
00000001
00000100
00002000
00000000
00003020
00000000
,  // measure 17
00000130
00000000
00000001
00001000
00000100
00000010
00000001
00000000
,  // measure 18
00001000
00000010
00000001
00000010
00002000
00000000
00003200
00000000
,  // measure 19
00000310
00000000
00000001
00001000
00000100
00000000
00010100
00000000
,  // measure 20
00001000
00010000
00001000
00010000
00100000
00010000
00100000
10000000
,  // measure 21
01000000
00100000
00010000
10000000
00100000
01000000
00010000
00000000
,  // measure 22
10000000
01000000
00100000
00010000
01000000
00100000
10000000
00020000
,  // measure 23
00000000
00130000
00010000
20000000
00000000
01000000
30010000
00000000
,  // measure 24
00010000
00100000
10000000
00100000
00020000
00000000
02030000
00000000
,  // measure 25
03100000
00000000
10000000
00010000
00100000
01000000
10000000
00000000
,  // measure 26
00010000
01000000
10000000
01000000
00020000
00000000
00230000
00000000
,  // measure 27
01300000
00000000
10000000
00010000
00100000
00000000
00101000
00000000
,  // measure 28
00010000
00001000
00010000
00001000
00000100
00001000
00000100
00000001
,  // measure 29
00000010
00000100
00001000
00000001
00000100
00000010
00001000
00000000
,  // measure 30
00000001
00000010
00000100
00001000
00000010
00000100
00000001
00002000
,  // measure 31
00000000
00003100
00001000
00000002
00000000
00000010
00001003
00000000
,  // measure 32
00000100
00001100
00000110
00000011
,  // measure 33
00001010
00000110
00000101
00001001
,  // measure 34
00000100
00000000
00010000
00001000
00000000
00000000
00011000
00000000
,  // measure 35
00100000
00000000
00010000
00100000
00000000
00000000
00110000
00000000
,  // measure 36
10000000
01000000
10000000
00000000
00010000
01000000
00010000
00000000
,  // measure 37
10000000
00100000
10000000
00000000
00010000
00100000
00010000
00000000
,  // measure 38
10000000
11000000
00000000
01010000
,  // measure 39
00100000
00000000
10010000
00000000
10000000
01000000
00010000
00001000
,  // measure 40
00000200
00000000
00000301
00001000
00000100
00000010
00000001
00000000
,  // measure 41
00001100
00000000
00000101
00000000
00000010
00001000
00000001
00000000
,  // measure 42
00001000
00000000
00000100
00000010
00000000
00000010
00000001
00000000
,  // measure 43
00001000
00000000
00000010
00000000
00000100
00000001
00001000
00000200
,  // measure 44
00000000
00020300
00000000
00032000
00000000
02003000
00000000
00000000
,  // measure 45
03100000
00000000
10000000
00000000
01000000
00100000
00010000
20000000
,  // measure 46
00000000
30200000
00000000
00320000
00000000
00032000
00000000
00000000
,  // measure 47
00103000
00000000
00010000
00000000
10000000
01000000
00100000
00000000
,  // measure 48
11000000
00000000
00010000
01000000
00100000
10000000
01000000
00100000
,  // measure 49
00110000
11000000
01010000
10100000
,  // measure 50
10010000
00000000
10000000
01000000
00100000
00010000
00100000
00001000
,  // measure 51
00020000
00000000
00030200
00000000
00002300
00000000
00003010
00000100
,  // measure 52
00000001
00000000
00000100
00000010
00000100
00000001
00000010
00000100
,  // measure 53
00001100
00000000
00000110
00000000
00000001
00001000
00000100
00000000
,  // measure 54
00000010
00000000
00000001
00001000
00000010
00000100
00000001
00000000
,  // measure 55
00000000
00001100
00011000
01010000
,  // measure 56
00010000
00100000
10000000
00100000
00020000
00000000
02030000
00000000
,  // measure 57
03100000
00000000
10000000
00010000
00100000
01000000
10000000
00000000
,  // measure 58
00010000
01000000
10000000
01000000
00020000
00000000
00230000
00000000
,  // measure 59
01300000
00000000
10000000
00010000
00100000
00000000
00101000
00000000
,  // measure 60
00010000
00001000
00010000
00001000
00000100
00001000
00000100
00000001
,  // measure 61
00000010
00000100
00001000
00000001
00000100
00000010
00001000
00000000
,  // measure 62
00000001
00000010
00000100
00001000
00000010
00000100
00000001
00002000
,  // measure 63
00000000
00003100
00001000
00000002
00000000
00000010
00001003
00000000
,  // measure 64
00001000
00000100
00000001
00000100
00002000
00000000
00003020
00000000
,  // measure 65
00000130
00000000
00000001
00001000
00000100
00000010
00000001
00000000
,  // measure 66
00001000
00000010
00000001
00000010
00002000
00000000
00003200
00000000
,  // measure 67
00000310
00000000
00000001
00001000
00000100
00000000
00010100
00000000
,  // measure 68
00001000
00010000
00001000
00010000
00100000
00010000
00100000
10000000
,  // measure 69
01000000
00100000
00010000
10000000
00100000
01000000
00010000
00000000
,  // measure 70
10000000
01000000
00100000
00010000
01000000
00100000
10000000
00020000
,  // measure 71
00000000
00130000
00010000
20000000
00000000
01000000
30010000
00000000
,  // measure 72
01000000
00000000
00100000
10000000
00000000
00000000
10100000
00000000
,  // measure 73
01000000
00000000
00100000
00010000
00000000
00000000
00110000
00000000
,  // measure 74
10000000
01000000
00010000
00001000
,  // measure 75
00000100
00000000
00000001
00000000
00001000
00000100
00000010
00000000
,  // measure 76
00000001
00000000
00001000
00000010
00000000
00000000
00001010
00000000
,  // measure 77
00000001
00000000
00000100
00000001
00000000
00000000
00000101
00000000
,  // measure 78
00001000
00000100
00000000
00000010
00000000
00000001
00000000
00002000
,  // measure 79
00000000
00000000
00000000
00003100
00000000
00000000
00000000
00000000
;
