#TITLE:THANK YOU FOR PLAYING;
#ARTIST:SUPER STAR -MITSURU-;
#FILE:Thank You For Playing.mp3;
#BPM:170.000;
#GAP:630;
#SAMPLESTART:62.740;
#SAMPLELENGTH:14.540;
#CHANGEBPM:1056.000=160.000,1062.000=145.000,1068.000=140.000,1072.000=128.000,1076.000=117.000,1080.000=99.000,1084.000=45.000;
#SINGLE:BEGINNER:2:
00000000
00000000
00000000
00000000
00000000
00000000
00000000
00000000
00000000
00000000
B0000000
40002000
80000000
60004000
80000000
40002000
80000000
60000000
A0000000
80004000
20000000
40006000
80000000
60004000
80000000
40000000
B0000000
20002000
20000000
40004000
40000000
60006000
60000000
B000B000
B0000000
20202020
20000000
40000000
60000000
80000000
60606060
60606060
40404040
00000000
80008000
40004000
60006000
20002000
60006000
80008000
20002000
40004000
B0000000
20202020
20000000
40000000
80004000
20008000
60004000
60606060
60000000
0000B000
B0000000
0000B000
B0000000
0000B000
B0000000
80002000
A0000000
;
#SINGLE:ANOTHER:7:
00000000
00000000
00000000
00000000
00000000
00000000
00000000
00000000
B!B0000000
000000B0
80402080
60203000
30402080
6020A000
A0402080
60207000
10020080
60028000
60204080
20642!2000
10802060
40286!6000
30802060
40248!8000
A00800A0
30001000
20408420
80604626
40208062
80206000
80604280
60408284
2!2001!40000
B040A0B0
20406028
20604286
40204082
80002060
30804060
10603080
42428282
86864646
26264242
(040060020080B000)
28460020
80407000
42860040
6020A000
62840020
80601000
30080040
10088000
20A0B000
42428686
20804000
20406020
84204240
84602620
84842424
62842862
80000000
A0003000
10000000
80402860
20000000
80206000
40060020
A0003000
1!10000100
;
#SINGLE:MANIAC:12:
00000000
00000000
00000000
00000000
00000000
00000000
00000000
00000000
B!B0000000
000000B0
20604260
40807060
30406840
2040B080
A0408420
80609040
B02480A0
30464020
A0620820
60428066
20820680
(2000408020062080)
40240482
68208648
20840280
9024B082
A!20302842
(6020400080006042)
40804628
(2060400020806082)
80608246
48208420
70030080
(A000A00064046028)
26242826
24282642
86848286
(8020406040084020)
A6040802
26022807
7!401!20A!8090
3!20A!807!40B0
1!20A0B!4010
(0404802606208!8000)
72620482
68289020
14620826
8482A040
14820628
26421080
A0030010
(B000008420004020)
(8006004000802060)
68822448
(2006004080000026)
48428628
42862428
42864826
(4240802620804640)
84286242
80000000
20601080
30000000
4060B080
A0000000
60201080
300100B0
30007000
A!A0000A00
;
#SINGLE:BASIC:5:
00000000
00000000
00000000
00000000
00000000
00000000
00000000
00000000
B!B0000000
000000B0
80804020
80604000
60608060
40602000
80802060
80204000
20204080
20008000
B0002040
80206000
20006020
80402000
10004080
40602000
80002060
40006000
70006000
40204062
60002000
60802048
40002000
40602082
80004000
B0B0A0A0
60002000
80402420
40002000
40608000
60004000
80002000
60604040
60604040
80802020
000000B0
20408020
608020A0
60408020
60402010
80406020
80406030
80406040
10003000
80402000
44208860
20804000
80406020
A0602040
80206040
24204060
28206080
B0000000
20001000
60000000
20003000
40000000
80007000
60040020
80006000
B!B0000B00
;
#SINGLE:SMANIAC:14:
00000000
00000000
00000000
00000000
00000000
00000000
00000000
00000000
A!A0000000
000000A0
32840248
26421!4070
A2640682
4628A!2030
98620826
42821!4070
7!80A640A0
(B000804280006040)
B4248268
24826268
24628268
48642428
62826428
64826264
82642864
1!4072A!2034
B08!807286!6
(4006208020608024)
2!20168248!8
(6000A06020804024)
2!20182686!6
40382642
108A0630
(1000300084046028)
2062408!82!2
0A624268
(4008002000402086)
(8000200040048020)
38040601
18033408
[206020602060206020600000]
[804080408040804080400000]
[204020402040208020802080]
(060280420620B!4000)
72684864
(2080604070206042)
48268248
(60804020A0604082)
84286482
(6080408090406026)
28428648
(2060802468086028)
(400B002060208042)
(4068602820464080)
(A0030010A0006042)
48268248
A2442288
(4040606024208280)
(6262804242806262)
(8484242464682828)
6!60B!420482
60401!4070
3!20A!840828
60401030
7!40B!640626
42409010
B08A0030
(7020604010802600)
B!B0000B00
;
