#VERSION:0.82;
#TITLE:FourFiveSeconds;
#SUBTITLE:;
#ARTIST:Rihanna, Kanye West & Paul McCartney;
#TITLETRANSLIT:;
#SUBTITLETRANSLIT:;
#ARTISTTRANSLIT:;
#GENRE:Out Of Place Paul (TM);
#ORIGIN:;
#CREDIT:;
#BANNER:FourFiveSeconds.png;
#BACKGROUND:FourFiveSeconds-bg.png;
#PREVIEWVID:;
#JACKET:jacket.png;
#CDIMAGE:;
#DISCIMAGE:;
#LYRICSPATH:;
#CDTITLE:;
#MUSIC:FourFiveSeconds.ogg;
#OFFSET:0.000000;
#SAMPLESTART:65.233986;
#SAMPLELENGTH:13.714000;
#SELECTABLE:YES;
#DISPLAYBPM:103.000000;
#BPMS:0.000=103.000,
143.000=107.000,
144.000=103.000;
#STOPS:;
#DELAYS:;
#WARPS:;
#TIMESIGNATURES:0.000=4=4;
#TICKCOUNTS:0.000=4;
#COMBOS:0.000=1;
#SPEEDS:0.000=1.000=0.000=0;
#SCROLLS:0.000=1.000;
#FAKES:;
#LABELS:0.000=Song Start;
#BGCHANGES:8.000=FourFiveSeconds.avi=1.000=0=0=1=====,
99999=-nosongbg-=1.000=0=0=0 // don't automatically add -songbackground-
;
#KEYSOUNDS:;
#ATTACKS:
;

//---------------dance-single - ----------------
#NOTEDATA:;
#CHARTNAME:;
#STEPSTYPE:dance-single;
#DESCRIPTION:;
#CHARTSTYLE:;
#DIFFICULTY:Hard;
#METER:7;
#RADARVALUES:0.419077,0.404603,0.137510,0.267380,0.007639,331.000000,18.000000,35.000000,0.000000,0.000000,0.000000,0.000000,0.000000,0.419077,0.404603,0.137510,0.267380,0.007639,331.000000,18.000000,35.000000,0.000000,0.000000,0.000000,0.000000,0.000000;
#CREDIT:Ben Speirs;
#DISPLAYBPM:103.000000;
#NOTES:
0000
0000
0000
0000
,
0000
0000
0000
0000
,
0000
0000
0000
0000
,
0000
0000
0000
0000
,
1000
0000
0001
0000
0100
0100
0010
1000
,
1000
0001
0001
0000
0100
0000
0001
0010
,
0100
0000
1000
0000
0010
0100
0100
0001
,
1000
0001
0100
0000
0010
0000
1000
0100
,
0010
0000
0001
0000
1000
0100
1000
0002
,
0000
0100
0103
0000
0001
0100
0010
1000
,
0001
0000
1000
0000
0001
0010
0001
2000
,
0000
0000
0010
0000
3010
0000
0000
0000
1000
0000
0001
0000
0100
0010
0000
0000
,
2001
0000
3020
0000
1030
0100
0001
0010
,
0100
0010
0100
0000
1000
0100
0010
0001
,
1002
0000
0203
0000
0301
0010
1000
0100
,
0010
0100
0010
0000
0001
0001
1000
1000
,
0010
0100
2001
0000
3200
0000
0310
0001
,
1000
0001
0000
1000
0001
1000
0010
0100
,
0100
0001
0010
0100
1000
1000
0001
0010
,
0010
0000
0001
0010
1000
0100
0001
0000
,
2000
0000
0100
0000
3001
0010
0010
0001
,
1000
0001
1000
0000
0010
0000
1000
0000
,
0002
0000
0103
1000
1000
0100
0100
0010
,
0001
1000
0001
0000
0000
0100
0100
0010
,
2000
0000
3100
0010
0010
0001
0001
1000
,
0010
0100
0010
0000
0100
0100
0001
1000
,
0001
1000
0000
0102
0000
1003
1000
0100
,
0010
0001
1000
0000
0010
2000
0000
3001
,
0102
0000
1003
0000
0100
0100
1000
0010
,
0100
0010
0100
0000
0010
0100
0001
1000
,
2010
0000
3001
0000
0010
0010
0001
0100
,
0010
0100
0010
0000
1000
0010
0100
0001
,
1000
1000
1100
0000
0101
0000
1000
0002
,
0000
0013
0001
2000
0000
3010
1000
0100
,
0100
0010
0001
1000
0010
0010
0100
0001
,
1000
0000
0001
0100
1000
0010
0001
0000
,
1000
0100
1000
0100
0010
0010
0001
2000
,
0000
0001
3001
0000
1000
0001
1000
0000
,
0001
0010
0001
0010
0100
0100
1000
0002
,
0000
0000
1000
0000
1003
0000
0000
0000
0001
0000
1000
0000
0010
0100
0000
0000
,
0102
0000
2003
0000
3100
0100
0010
0020
,
0000
0031
1000
0000
0001
1000
0001
1000
,
2010
0000
3002
0000
0013
0010
0100
0200
,
0000
1300
0001
0000
1000
0100
0010
0001
,
1000
0010
2000
0000
3002
0000
0103
0120
,
0000
0130
0010
0210
0000
0310
0100
0001
,
0010
1000
0001
0100
1000
0010
0100
0001
,
1000
0000
0001
0010
1000
0100
0001
0000
,
1100
0100
0110
0000
1001
0001
0100
0020
,
0000
1030
1000
0000
0100
1000
0001
0000
,
0011
0010
0110
0000
1001
1000
0010
0200
,
0000
0301
0001
0000
0010
0001
1000
0010
,
0100
0001
2000
0000
3002
0000
0013
0200
,
0000
1300
0010
0200
0000
0301
0010
0100
,
0100
1000
1000
0001
0100
0100
0010
1000
,
0001
0000
1000
0100
0001
0010
1000
0000
;

//---------------dance-single - ----------------
#NOTEDATA:;
#CHARTNAME:;
#STEPSTYPE:dance-single;
#DESCRIPTION:;
#CHARTSTYLE:;
#DIFFICULTY:Medium;
#METER:5;
#RADARVALUES:0.284841,0.362013,0.145149,0.145149,0.000000,223.000000,19.000000,19.000000,0.000000,0.000000,0.000000,0.000000,0.000000,0.284841,0.362013,0.145149,0.145149,0.000000,223.000000,19.000000,19.000000,0.000000,0.000000,0.000000,0.000000,0.000000;
#CREDIT:Ben Speirs;
#DISPLAYBPM:103.000000;
#NOTES:
0000
0000
0000
0000
,
0000
0000
0000
0000
,
0000
0000
0000
0000
,
0000
0000
0000
0000
,
0100
0000
0001
0000
1000
0000
0000
0001
,
0010
0100
0000
0000
1000
0000
0001
0000
,
0100
0000
0000
0000
0010
0000
0000
1000
,
0001
0100
0000
0000
0001
0000
1000
0000
,
0100
0000
0000
0000
1000
0000
0010
0010
,
0000
0100
0100
0000
0001
0000
1000
0000
,
0100
0000
0000
0000
0010
0000
0001
0001
,
0000
1000
1000
0000
0010
0000
0100
0000
,
1001
0000
0001
0000
1000
0000
0100
0100
,
0000
0010
0000
0000
0001
0000
1000
0000
,
0010
0000
1000
0000
0001
0000
0100
0100
,
0000
0010
0000
0000
1000
0100
1000
0000
,
0001
0001
0100
0000
0010
0000
1000
0200
,
0000
0310
0000
0002
0000
0103
0000
0000
,
1001
0000
0000
0100
1000
0000
0010
0100
,
0000
0001
0010
0000
0001
1000
0001
0000
,
0200
0000
0300
0000
0000
0010
0010
0000
,
0100
0001
1000
0000
0100
0000
1000
0000
,
0020
0000
0030
0000
1000
1000
0100
0000
,
0010
0010
0001
0000
1000
0000
0001
0000
,
0200
0000
0300
0000
0001
0001
1000
1000
,
0010
0100
0010
0000
1000
0000
0001
0000
,
0100
0000
0001
1000
,
0100
0100
0100
0000
0000
0000
1001
0000
,
0110
0000
1001
0000
1000
0000
0100
0100
,
0000
0010
0000
0000
0001
0000
1000
0000
,
1001
0000
0110
0000
1001
0000
0100
0100
,
0000
0010
0000
0000
0000
1000
1000
0001
,
0001
0000
0100
0000
0010
0000
1000
0200
,
0000
0310
0000
0002
0000
1003
0000
0000
,
1010
0000
0000
0001
0100
0000
0001
1000
,
0000
0000
1000
0100
0010
0001
1000
0000
,
0010
0000
0000
0000
0100
0000
0001
0001
,
0000
1000
1000
0000
0100
0000
0010
0000
,
0001
0000
0000
0000
1000
0000
0010
0010
,
0000
0100
0100
0000
0000
0000
0001
1000
,
0200
0000
0320
0000
0031
0000
1000
1000
,
0000
0202
0000
0303
0000
0000
0001
0000
,
0200
0000
0320
0000
1030
0100
0010
0001
,
0000
2200
0000
3300
0000
0001
0001
1000
,
1000
0000
0010
0000
0100
0000
0001
0020
,
0000
0130
0000
2000
0000
3010
0000
0000
,
1001
0000
0000
0001
0100
0000
0010
1000
,
0000
0100
0010
0000
0001
1000
0001
0000
,
1100
0000
0110
0000
0011
0000
0000
1000
,
0001
1000
0001
0000
0000
1000
1000
0000
,
0101
0000
0110
0000
1010
0000
0000
1000
,
0001
1000
0001
0000
0000
1000
0001
0000
,
0100
0100
0010
0000
1000
0000
0000
0200
,
0000
0310
0000
0002
0000
1003
0000
0000
,
1001
0000
0000
1000
0010
0000
0100
0001
,
0000
1000
0100
0000
0010
0001
1000
0000
;

//---------------dance-single - ----------------
#NOTEDATA:;
#CHARTNAME:;
#STEPSTYPE:dance-single;
#DESCRIPTION:;
#CHARTSTYLE:;
#DIFFICULTY:Easy;
#METER:2;
#RADARVALUES:0.149514,0.170359,0.007639,0.015279,0.000000,134.000000,1.000000,2.000000,0.000000,0.000000,0.000000,0.000000,0.000000,0.149514,0.170359,0.007639,0.015279,0.000000,134.000000,1.000000,2.000000,0.000000,0.000000,0.000000,0.000000,0.000000;
#CREDIT:Ben Speirs;
#DISPLAYBPM:103.000000;
#NOTES:
0000
0000
0000
0000
,
0000
0000
0000
0000
,
0000
0000
0000
0000
,
0000
0000
0000
0000
,
0100
0000
0001
1000
,
0100
0100
0000
0000
,
1000
0000
0010
1000
,
0001
0001
0000
0000
,
0010
0000
0001
1000
,
0001
0000
0100
0000
,
0010
0000
1000
0001
,
1000
0000
0100
0000
,
1000
1000
1000
0000
,
0010
0000
1000
0000
,
0001
0001
0001
0000
,
0010
0000
0001
0000
,
0100
0100
0100
0000
,
0010
0000
1000
0000
,
0001
1000
0100
0010
,
0001
0000
1000
1000
,
0010
0000
0000
1000
,
0100
1000
0000
0000
,
0010
0000
0100
0001
,
0100
0001
0000
0000
,
1000
0000
0001
0010
,
0001
0010
0000
0000
,
0001
0000
1000
0100
,
1000
0100
0000
0000
,
1000
1000
1000
0000
,
0010
0000
1000
0000
,
0001
0001
0001
0000
,
0010
0000
0001
0000
,
0100
0100
0100
0000
,
0010
0000
1000
0000
,
0100
1000
0010
0100
,
0001
0000
1000
0000
,
0020
0030
0010
0000
,
1000
0000
0100
0000
,
0200
0300
0100
0000
,
0010
0000
0001
0000
,
1000
0001
1000
0000
,
0010
0010
0100
0000
,
0001
1000
0001
0000
,
0010
0010
0100
0000
,
1000
0000
0001
0000
,
1000
0000
0010
0000
,
0100
0010
1000
0100
,
0010
0000
0001
0000
,
1000
0001
1000
0000
,
0010
0100
0000
0000
,
0001
1000
0001
0000
,
0010
0100
0000
0000
,
1000
0100
1000
0000
,
0001
0000
0001
0000
,
0100
0010
1000
0100
,
0010
0000
0001
1001
;

//---------------dance-single - ----------------
#NOTEDATA:;
#CHARTNAME:;
#STEPSTYPE:dance-single;
#DESCRIPTION:;
#CHARTSTYLE:;
#DIFFICULTY:Beginner;
#METER:1;
#RADARVALUES:0.106952,0.149064,0.007639,0.000000,0.000000,97.000000,1.000000,0.000000,0.000000,0.000000,0.000000,0.000000,0.000000,0.106952,0.149064,0.007639,0.000000,0.000000,97.000000,1.000000,0.000000,0.000000,0.000000,0.000000,0.000000,0.000000;
#CREDIT:Ben Speirs;
#DISPLAYBPM:103.000000;
#NOTES:
0000
0000
0000
0000
,
0000
0000
0000
0000
,
0000
0000
0000
0000
,
0000
0000
0000
0000
,
1000
0000
0001
0000
,
0010
0000
0000
0000
,
0001
0000
1000
0000
,
0100
0000
0000
0000
,
1000
0000
0010
0000
,
0010
0000
0000
0000
,
0100
0000
0001
0000
,
0001
0000
0000
0000
,
1000
1000
1000
0000
,
1000
0000
0000
0000
,
0001
0001
0001
0000
,
0001
0000
0000
0000
,
0010
0010
0010
0000
,
0010
0000
0100
0000
,
1001
0000
0000
0000
,
1000
0000
0010
0010
,
0010
0000
0000
0000
,
1000
1000
0000
0000
,
0100
0000
0000
0000
,
0010
0010
0000
0000
,
0001
0000
0000
0000
,
1000
1000
0000
0000
,
0010
0000
0000
0000
,
0100
0100
0000
0000
,
0001
0001
0001
0000
,
0001
0000
0000
0000
,
0010
0010
0010
0000
,
0010
0000
0000
0000
,
0100
0100
0100
0000
,
0100
0000
1000
0000
,
0010
0000
0000
0000
,
1000
0000
0001
0001
,
0001
0000
0000
0000
,
1000
1000
0000
0000
,
0010
0000
0000
0000
,
0100
0100
0000
0000
,
0010
0010
0010
0000
,
0010
0000
0000
0000
,
1000
1000
1000
0000
,
1000
0000
0000
0000
,
0100
0100
0100
0000
,
0100
0000
0010
0000
,
0001
0000
0000
0000
,
1000
0000
0010
0000
,
0100
0100
0100
0000
,
0100
0000
0000
0000
,
0001
0001
0001
0000
,
0001
0000
0000
0000
,
1000
1000
1000
0000
,
1000
0000
0010
0000
,
0100
0000
0000
0000
,
0001
0000
1000
1000
;

//---------------dance-double - ----------------
#NOTEDATA:;
#CHARTNAME:;
#STEPSTYPE:dance-double;
#DESCRIPTION:;
#CHARTSTYLE:;
#DIFFICULTY:Challenge;
#METER:7;
#RADARVALUES:0.402707,0.383308,0.099312,0.290298,0.000000,318.000000,13.000000,38.000000,0.000000,0.000000,0.000000,0.000000,0.000000,0.402707,0.383308,0.099312,0.290298,0.000000,318.000000,13.000000,38.000000,0.000000,0.000000,0.000000,0.000000,0.000000;
#CREDIT:Ben Speirs;
#DISPLAYBPM:103.000000;
#NOTES:
// measure 0
00000000
00000000
00000000
00000000
,  // measure 1
00000000
00000000
00000000
00000000
,  // measure 2
00000000
00000000
00000000
00000000
,  // measure 3
00000000
00000000
00000000
00000000
,  // measure 4
10000000
00000000
00010000
00000000
01000000
01000000
00010000
10000000
,  // measure 5
10000000
01000000
00100000
00000000
00010000
00000000
01000000
00000000
,  // measure 6
00001000
00000000
00010000
00000000
00001000
00001000
00010000
01000000
,  // measure 7
01000000
01000000
10000000
00000000
00010000
00000000
01000000
00100000
,  // measure 8
20000000
00000000
30010000
00000000
00100000
00010000
00100000
00020000
,  // measure 9
00000000
01000000
01030000
00000000
00100000
10000000
00010000
00000000
,  // measure 10
00200000
00000000
00301000
00000000
00001000
00010000
00001000
00020000
,  // measure 11
00000000
00000100
00030100
00000000
00001000
00000100
00000010
00000001
,  // measure 12
00000011
00000000
00001010
00000000
00001000
00000010
00000100
00000002
,  // measure 13
00000000
00001003
00001000
00000000
00000001
00000100
00000010
00001000
,  // measure 14
00001010
00000000
00000011
00000000
00001000
00000100
00000010
00000002
,  // measure 15
00000000
00001003
00001000
00000000
00000010
00000100
00000001
00000100
,  // measure 16
00000010
00000010
00002000
00000000
00003200
00000000
00010300
00002000
,  // measure 17
00000000
00103000
00000000
00002000
00000000
00013000
00000100
00000020
,  // measure 18
00000000
00000031
00000001
00001000
00001000
00000010
00000100
00000001
,  // measure 19
00001000
00000000
00000100
00010000
00001000
01000000
00010000
00000000
,  // measure 20
20000000
00000000
31000000
00000000
10000000
01000000
10000000
00010000
,  // measure 21
01000000
01000000
00100000
00000000
10000000
00000000
00010000
00000000
,  // measure 22
00200000
00000000
00310000
00100000
00100000
00010000
00010000
00100000
,  // measure 23
00010000
10000000
00100000
00000000
01000000
00000000
00001000
00000000
,  // measure 24
00020000
00000000
00031000
00010000
00010000
00001000
00001000
00000100
,  // measure 25
00000001
00001000
00000001
00000000
00001000
00000100
00000010
00000001
,  // measure 26
00000200
00000000
00000310
00001000
00001000
00000100
00000100
00010000
,  // measure 27
00001000
01000000
00010000
00000000
00010000
00100000
01000000
10000000
,  // measure 28
11000000
00000000
01010000
00000000
00010000
01000000
00100000
20000000
,  // measure 29
00000000
30010000
00010000
00000000
10000000
00100000
01000000
00010000
,  // measure 30
01010000
00000000
11000000
00000000
00010000
00100000
01000000
20000000
,  // measure 31
00000000
30010000
00010000
00000000
01000000
00100000
10000000
00100000
,  // measure 32
01000000
01000000
00020000
00000000
00230000
00000000
00301000
00020000
,  // measure 33
00000000
00030100
00000000
00020000
00000000
00031000
00100000
02000000
,  // measure 34
00000000
13000000
10000000
00010000
00010000
01000000
00100000
10000000
,  // measure 35
00010000
00000000
00100000
00001000
00010000
00000010
00001000
00000000
,  // measure 36
00000201
00000010
00001000
00000010
,  // measure 37
00000301
00001000
00000001
00000000
00001000
00000100
00001000
00000000
,  // measure 38
00000021
00000001
00000100
00001000
,  // measure 39
00000031
00001000
00000001
00000000
00001000
00000010
00000100
00000001
,  // measure 40
00002000
00000000
00003002
00000000
00001003
00000100
00000001
00000010
,  // measure 41
00000100
00000010
00000100
00000000
00000010
00000001
00000100
00000001
,  // measure 42
00000002
00000000
00002003
00000000
00003001
00000100
00001000
00000010
,  // measure 43
00000100
00000010
00000100
00000000
00000001
00000001
00001000
00001000
,  // measure 44
00000100
00010000
00010000
00000000
00012000
00000000
01003000
01000000
,  // measure 45
00010000
10000000
01000000
02000000
00000000
03100000
00010000
20000000
,  // measure 46
00000000
30100000
00100000
01000000
00010000
00010000
10000000
01000000
,  // measure 47
10000000
00000000
00010000
00100000
10000000
01000000
00010000
00000000
,  // measure 48
01020000
00000000
20030000
00000000
30010000
00100000
10000000
01000000
,  // measure 49
00100000
01000000
00100000
00000000
01000000
10000000
00100000
10000000
,  // measure 50
20000000
00000000
30020000
00000000
10030000
00100000
00010000
01000000
,  // measure 51
00100000
01000000
00100000
00000000
10000000
10000000
00010000
00010000
,  // measure 52
00100000
00001000
00001000
00000000
00021000
00000000
00030010
00000010
,  // measure 53
00001000
00000001
00000010
00000020
00000000
00000130
00001000
00000002
,  // measure 54
00000000
00000103
00000100
00000010
00001000
00001000
00000001
00000010
,  // measure 55
00000001
00000000
00001000
00000100
00000001
00000010
00001000
00000000
;
