#VERSION:0.82;
#TITLE:On My Mind;
#SUBTITLE:;
#ARTIST:Ellie Goulding;
#TITLETRANSLIT:;
#SUBTITLETRANSLIT:;
#ARTISTTRANSLIT:;
#GENRE:Don't Mess With E;
#ORIGIN:;
#CREDIT:;
#BANNER:On My Mind.png;
#BACKGROUND:On My Mind-bg.png;
#PREVIEWVID:;
#JACKET:jacket.png;
#CDIMAGE:;
#DISCIMAGE:;
#LYRICSPATH:;
#CDTITLE:;
#MUSIC:On My Mind.ogg;
#OFFSET:-0.009000;
#SAMPLESTART:105.264908;
#SAMPLELENGTH:13.714000;
#SELECTABLE:YES;
#BPMS:0.000=155.000;
#STOPS:;
#DELAYS:;
#WARPS:;
#TIMESIGNATURES:0.000=4=4;
#TICKCOUNTS:0.000=4;
#COMBOS:0.000=1;
#SPEEDS:0.000=1.000=0.000=0;
#SCROLLS:0.000=1.000;
#FAKES:;
#LABELS:0.000=Song Start;
#BGCHANGES:8.000=On My Mind.avi=1.000=0=0=1=====,
99999=-nosongbg-=1.000=0=0=0 // don't automatically add -songbackground-
;
#KEYSOUNDS:;
#ATTACKS:
;

//---------------dance-single - ----------------
#NOTEDATA:;
#CHARTNAME:;
#STEPSTYPE:dance-single;
#DESCRIPTION:;
#CHARTSTYLE:;
#DIFFICULTY:Challenge;
#METER:9;
#RADARVALUES:0.689664,0.857788,0.221008,0.531801,0.155396,590.000000,32.000000,77.000000,0.000000,0.000000,0.000000,0.000000,0.000000,0.689664,0.857788,0.221008,0.531801,0.155396,590.000000,32.000000,77.000000,0.000000,0.000000,0.000000,0.000000,0.000000;
#CREDIT:Ben Speirs;
#NOTES:
0000
0000
0000
0000
,
0000
0000
0000
0000
,
0000
0000
0000
0000
,
0000
0000
0000
0000
,
1000
0001
0100
0010
0020
0000
2030
0000
,
3001
0100
0001
0100
0000
0000
0000
0000
,
0001
1000
0100
0010
0000
0010
0001
1000
,
0000
1000
0001
0100
0000
0100
0010
2010
,
0000
3001
0001
0100
0001
0001
0010
0100
,
2000
0000
3002
0000
1003
0100
0010
0012
,
0000
1003
1000
0010
1000
1000
0100
0010
,
0002
0000
2003
0000
3001
0010
0100
1002
,
0000
0103
0100
1000
0100
0100
0010
0100
,
0002
0000
2003
0000
3100
0010
0000
0001
,
1000
0100
1000
0001
0100
0001
1000
0010
,
1000
0000
0001
0000
0010
0000
0001
0000
1000
0000
0010
0000
0100
0000
0100
0001
,
2000
0000
3100
0010
0100
1000
0010
0100
,
0002
0000
2003
0000
3010
1000
0001
0100
,
0020
0000
1030
0100
1000
0001
0010
0100
,
2000
0000
3002
0000
0103
0010
0100
0001
,
2000
0000
3100
0010
0001
1000
0010
0100
,
0002
0000
2003
0000
3001
0010
0100
1000
,
0001
0000
0101
0100
0000
1010
0010
0000
,
0011
0000
0010
0000
0000
0000
1100
0000
0100
0000
0000
0000
1001
0000
1000
0001
,
0100
0010
0000
1000
0000
0100
0000
1100
,
0000
0011
0000
0000
0000
0010
0001
0000
,
0200
0010
0000
0310
0000
0010
1000
0200
,
0000
0010
0010
0310
0000
0010
0001
1000
,
0010
0100
0000
0001
0000
0010
0000
0011
,
0000
1100
0000
0000
0000
0100
1000
0000
,
0020
0100
0000
0130
0000
0100
0001
0020
,
0000
0100
0100
0100
0100
0100
0100
0130
,
1100
0100
1000
0010
0200
0000
0302
0000
,
1003
0010
0001
0010
0001
0010
0001
0010
,
1000
0100
0010
0001
2000
0000
3002
0000
,
0103
0010
0001
0010
0001
0010
0001
0010
,
0100
0001
0010
0100
2000
0000
3002
0000
,
1003
0100
0001
0100
0001
0100
0001
0100
,
2000
0010
3010
0200
0001
0301
0020
0100
,
0100
0001
0001
0001
0001
0001
0001
0031
,
0011
0010
0001
0100
0020
0000
2030
0000
,
3001
0100
1000
0100
1000
0100
1000
0100
,
0001
0010
0100
1000
0002
0000
2003
0000
,
3010
0100
1000
0100
1000
0100
1000
0100
,
0010
1000
0100
0010
0002
0000
2003
0000
,
3001
0010
1000
0010
1000
0010
1000
0010
,
0001
0000
1000
0100
1000
0000
0010
0000
0100
0001
0100
0000
0010
0000
1000
0001
,
1000
0000
0100
0000
0010
0001
0010
0000
0100
0000
1000
0000
0010
0000
0000
0000
,
0202
0000
0000
0303
0000
0100
0002
2000
,
0000
0000
0000
3003
0000
0100
2000
0020
,
0000
0000
0000
3030
0000
0010
2000
0002
,
0000
0000
0000
3003
0000
1000
0200
0020
,
0000
0000
0000
0330
0000
0010
0002
0200
,
0000
0000
0000
0303
0000
0100
0020
2000
,
0000
0000
0000
3030
0000
1000
0002
0020
,
0000
0000
0000
0033
0000
0001
0010
0100
,
1000
1000
0000
0001
0001
0000
0100
0100
,
0000
0000
0010
0000
0010
0000
0000
0000
1000
0000
1000
0000
0001
0000
0100
0010
,
0100
0100
0000
0001
0001
0000
1000
1000
,
0000
0000
0100
0000
0100
0000
0000
0000
0010
0000
0010
0000
0001
0000
1000
0001
,
1000
0010
0100
0001
0010
0100
1000
0010
,
0100
0000
0001
0000
0010
0000
0100
0000
1000
0000
0010
0000
0100
0000
0001
1000
,
0001
0100
0010
1000
0100
0010
0001
1000
,
0010
0000
0100
0000
0001
0000
1000
0000
0100
0000
0010
0000
0001
1000
0001
1000
,
0010
0100
0010
0001
0010
0100
0010
1000
,
0010
0000
0001
0000
0010
0000
1000
0000
0010
0100
0010
0100
0010
0100
0010
0100
,
0000
0000
0000
0000
,
0000
0000
2002
3003
,
1100
0000
0100
1000
0100
1000
0100
1000
0002
0000
0000
0000
2003
0000
0000
0000
,
3010
1000
0001
1000
0001
1000
0001
0100
,
0101
0000
0100
0001
0100
0001
0100
0001
2000
0000
0000
0000
3002
0000
0000
0000
,
0013
0001
1000
0001
1000
0001
1000
0010
,
1010
0000
1000
0010
1000
0010
1000
0010
2000
0000
0000
0000
3002
0000
0000
0000
,
1003
0010
0100
0010
0100
0010
0100
0001
,
1000
0000
0010
0100
0010
0000
1000
0000
0100
0010
0100
0000
1000
0000
0001
0010
,
0001
0000
1000
0100
1000
0100
1000
0100
1000
0000
0100
0000
0010
0000
0001
0000
,
0011
0000
0010
0001
1000
0001
0010
0001
2000
0000
0000
0000
3002
0000
0000
0000
,
0103
0001
1000
0001
0100
0001
1000
0010
,
1010
0000
0010
1000
0001
1000
0010
1000
0002
0000
0000
0000
2003
0000
0000
0000
,
3100
1000
0001
1000
0010
1000
0001
0100
,
0101
0000
0001
0100
0010
0100
0001
0100
0002
0000
0000
0000
2003
0000
0000
0000
,
3001
0100
0010
0100
0001
0100
0010
1000
,
0001
0000
0100
0010
0100
0000
0001
0000
0010
0100
0010
0000
0001
0000
1000
0100
,
1000
0000
0001
0010
0001
0010
0001
0010
0001
0000
0010
0000
0100
0000
1000
0000
,
1001
0001
0100
0010
0200
0000
0302
0000
,
2003
0000
0000
0100
3100
1000
0010
0000
,
1001
1000
0010
0100
0020
0000
2030
0000
,
3002
0000
0000
0010
0013
0001
0100
0000
,
0001
0010
0100
1000
1001
0000
1100
0000
,
0102
0000
0000
1000
1003
0001
0100
0100
,
0110
0010
1000
1100
1000
0001
0101
1000
,
0010
1010
1000
0001
0012
0000
0000
0000
,
1003
0000
0000
0000
;

//---------------dance-single - ----------------
#NOTEDATA:;
#CHARTNAME:;
#STEPSTYPE:dance-single;
#DESCRIPTION:;
#CHARTSTYLE:;
#DIFFICULTY:Hard;
#METER:7;
#RADARVALUES:0.483455,0.635399,0.221008,0.386764,0.000000,402.000000,32.000000,56.000000,0.000000,0.000000,0.000000,0.000000,0.000000,0.483455,0.635399,0.221008,0.386764,0.000000,402.000000,32.000000,56.000000,0.000000,0.000000,0.000000,0.000000,0.000000;
#CREDIT:Ben Speirs;
#NOTES:
0000
0000
0000
0000
,
0000
0000
0000
0000
,
0000
0000
0000
0000
,
0000
0000
0000
0000
,
2000
0000
0000
3100
0100
0000
0010
0000
,
0001
1000
0000
1001
0000
0000
0000
0000
,
0001
0100
0000
0001
0000
0000
0000
0000
,
1000
0100
0000
1000
0000
0000
0000
0000
,
0001
0010
0001
0000
1000
0100
1000
0000
,
0001
0000
1000
0000
0010
0010
0000
0000
,
1000
0100
1000
0000
0001
0100
0001
0000
,
1000
0000
0001
0000
0010
0010
0000
0000
,
0001
0100
0001
0000
1000
0100
1000
0000
,
0001
0000
1000
0000
0100
0100
0000
0000
,
1000
0100
0000
0100
0010
0000
0010
0001
,
0000
0001
1000
0000
0001
0000
1001
0000
,
1000
0100
0010
0001
0010
0100
1000
0000
,
0101
0000
1100
0000
1001
1000
0000
0000
,
0001
0100
0010
1000
0010
0100
0001
0000
,
0101
0000
1010
0000
1001
0001
0000
0000
,
1000
0010
0100
0010
1000
0001
1000
0000
,
0101
0000
1010
0000
1001
0001
0000
0000
,
1000
0000
1100
0100
0000
0011
0001
0000
,
1001
1000
0000
0110
0010
0000
1001
0000
,
0001
0100
0000
0010
0000
1000
0000
0100
,
0010
0001
0000
0000
0000
1000
0100
1000
,
0000
1100
0000
1100
0000
0001
0100
0001
,
0000
0100
0100
0100
0000
0001
1000
0010
,
0000
0100
0000
0001
0000
1000
0000
0100
,
0000
0100
0000
0000
0000
1000
0100
0010
,
0000
0001
0000
1000
0000
0010
0000
0100
,
0000
0001
1000
0001
1000
0001
1000
0001
,
0000
1000
0100
1000
0200
0000
0320
0000
,
0032
0000
0000
1003
0000
0000
0000
0000
,
0000
0001
0100
0001
0200
0000
0320
0000
,
2030
0000
0000
3001
0000
0000
0000
0000
,
1000
0100
0010
0001
2000
0000
3020
0000
,
0230
0000
0000
0301
0000
0000
0000
0000
,
0100
0001
0000
1000
0100
0000
0010
0001
,
0000
1000
0001
1000
0001
1000
0001
1000
,
0000
0001
0010
0001
0020
0000
0230
0000
,
2300
0000
0000
3001
0000
0000
0000
0000
,
0000
1000
0010
1000
0020
0000
0230
0000
,
0302
0000
0000
1003
0000
0000
0000
0000
,
0001
0010
0100
1000
0002
0000
0203
0000
,
0320
0000
0000
1030
0000
0000
0000
0000
,
0010
1000
0000
0001
0010
0000
0100
1000
,
0000
0001
0010
0000
0001
1000
0001
0000
,
2200
0000
0000
3300
,
0002
0000
0000
0003
,
0202
0000
0000
0303
,
2000
0000
0000
3000
,
2020
0000
0000
3030
,
0002
0000
0000
0003
,
0022
0000
0000
0033
,
2000
0000
0000
3000
,
0010
0000
0000
1000
0000
0000
0001
0000
,
0000
0100
0000
0000
0001
0000
1000
0100
,
0010
0000
0000
0001
0000
0000
1000
0000
,
0000
0010
0000
0000
0100
0000
0001
0010
,
0100
1000
0001
0100
,
0010
0000
1000
0000
0001
0000
1000
0100
,
0010
0000
0010
0001
1000
0000
1000
0001
,
0100
0000
0100
0010
1000
0000
1000
0000
,
0001
0100
0001
0100
0010
1000
0010
1000
,
0001
0010
0001
0010
0100
1000
0001
0100
,
0000
0000
0000
0000
,
0000
0000
1001
0000
,
0001
0100
1000
0100
0002
0000
2003
0000
,
3200
0000
0310
0001
1000
0000
0001
0000
,
1000
0010
0001
0010
2000
0000
3200
0000
,
0320
0000
0031
1000
0010
0000
0100
0000
,
0001
0100
1000
0100
0002
0000
2003
0000
,
3200
0000
0310
0001
1000
0000
0010
0000
,
0100
0100
0000
0001
1000
0000
0100
0100
,
0000
0010
0001
0010
0001
0010
0001
1000
,
1000
0010
0001
0010
2000
0000
3002
0000
,
0023
0000
0130
1000
0001
0000
1000
0000
,
0001
0100
1000
0100
0002
0000
0023
0000
,
0230
0000
1300
0001
0100
0000
0010
0000
,
1000
0010
0001
0010
2000
0000
3002
0000
,
0023
0000
0130
1000
0001
0000
0100
0000
,
0010
0010
0000
1000
0001
0000
0010
0010
,
0000
0100
1000
0100
1000
0100
1000
0100
,
1000
0001
0100
0010
1010
0000
0101
0000
,
2002
0000
3003
0000
0001
1000
0001
1000
,
0001
0010
0100
1000
1100
0000
0011
0000
,
2002
0000
3003
0000
1000
0001
1000
0001
,
1000
0010
0100
0001
1010
0000
0101
0000
,
2200
0000
3300
0000
0001
0010
0100
1000
,
0010
0100
0100
0001
1000
1000
0100
0010
,
0010
0001
1000
1000
0020
0000
0000
0000
,
0130
0000
0000
0000
;

//---------------dance-single - ----------------
#NOTEDATA:;
#CHARTNAME:;
#STEPSTYPE:dance-single;
#DESCRIPTION:;
#CHARTSTYLE:;
#DIFFICULTY:Medium;
#METER:5;
#RADARVALUES:0.330526,0.444779,0.269354,0.131224,0.000000,277.000000,39.000000,19.000000,0.000000,0.000000,0.000000,0.000000,0.000000,0.330526,0.444779,0.269354,0.131224,0.000000,277.000000,39.000000,19.000000,0.000000,0.000000,0.000000,0.000000,0.000000;
#CREDIT:Ben Speirs;
#NOTES:
0000
0000
0000
0000
,
0000
0000
0000
0000
,
0000
0000
0000
0000
,
0000
0000
0000
0000
,
0100
0000
0001
1000
,
0010
0100
0000
0010
0000
0000
0000
0000
,
1000
0000
0100
0010
,
0001
1000
0010
0000
,
1000
0001
1000
0000
,
0110
0110
0110
0000
,
0001
1000
0001
0000
,
0110
0110
0110
0000
,
1000
0001
1000
0000
,
0110
0110
0110
0000
,
0001
0000
0000
0100
0000
0000
0010
0000
,
0000
1000
0000
0000
0100
0000
0000
0000
,
1000
0001
0100
0010
,
1010
0110
0101
0000
,
0001
1000
0100
0010
,
0011
0110
1100
0000
,
0100
1000
0010
0100
,
0110
0101
1001
0000
,
0001
0000
0000
1000
0000
0000
0100
0000
,
0000
0010
0000
0000
0001
0000
0000
0000
,
1000
0100
0010
0001
,
1000
0001
1000
0000
0000
0000
0000
0000
,
0001
0100
0100
0010
,
1000
1000
0100
0000
,
1000
0100
0010
0001
,
0100
0010
0100
0000
0000
0000
0000
0000
,
0001
0001
1000
0010
,
0100
0100
0010
0000
,
1000
0000
0100
0010
0100
0000
0010
0000
,
0001
0001
0000
0001
0000
0000
0000
0000
,
0010
0000
0001
0100
0001
0000
1000
0000
,
0010
0010
0000
0010
0000
0000
0000
0000
,
0100
0000
0001
1000
0001
0000
0010
0000
,
0100
0100
0000
0100
0000
0000
0000
0000
,
1000
0000
0000
1000
0000
0000
0100
0000
,
0000
0100
0000
0000
1000
0001
1000
0000
,
0010
1000
0100
0010
,
0002
0000
0000
1003
0000
0000
0000
0000
,
0001
0100
0010
0010
,
2000
0000
0000
3100
0000
0000
0000
0000
,
1000
0100
0010
0010
,
0002
0000
0000
0103
0000
0000
0000
0000
,
0001
0000
0000
0001
0000
0000
0010
0000
,
0000
0010
0000
0000
0100
0000
0000
0000
,
2000
0000
0000
3000
,
0002
0000
0000
0003
,
0200
0000
0000
0300
,
0020
0000
0000
0030
,
2000
0000
0000
3000
,
0002
0000
0000
0003
,
0200
0000
0000
0300
,
0002
0000
0000
0003
,
1000
0100
0010
0001
,
1000
1001
0000
0000
,
0001
0100
0010
1000
,
1010
0110
0101
0000
,
1000
0100
0010
0001
,
1000
1001
0000
0000
,
0010
0100
0010
0100
,
0001
1000
0001
1000
,
0100
0010
0001
1000
,
0010
0000
0100
0000
0001
1000
0001
1000
,
0000
0000
0000
0000
,
0000
0000
1001
0000
,
1000
0000
0001
0100
0001
0000
1000
0000
,
0200
0000
0000
0310
0000
0000
0000
0000
,
0001
0000
1000
0100
1000
0000
0010
0000
,
0200
0000
0000
0301
0000
0000
0000
0000
,
0001
0000
1000
0100
1000
0000
0001
0000
,
0020
0000
0000
0130
0000
0000
0000
0000
,
1100
0000
0000
0101
0000
0000
1100
0000
,
0000
0001
1000
0001
1000
0001
1000
0001
,
0000
1000
1100
0001
,
0200
0000
0000
0310
0000
0000
0000
0000
,
0100
0001
0101
0001
,
2000
0000
0000
3100
0000
0000
0000
0000
,
1000
0010
1010
0010
,
0200
0000
0000
0301
0000
0000
0000
0000
,
0101
0000
0000
1100
0000
0000
0011
0000
,
0000
1000
0001
1000
0001
1000
0001
1000
,
0010
0100
0001
1000
,
0100
0010
0100
0010
0000
0000
0000
0000
,
0001
0010
0100
1000
,
0001
0100
0001
0100
0000
0000
0000
0000
,
0010
1000
0001
0010
,
0100
1000
0100
1000
0000
0000
0000
0000
,
1100
0000
0000
0011
0000
0000
0101
0000
,
0000
1010
0000
0000
2002
0000
3003
0000
,
0110
0000
0000
0000
;

//---------------dance-single - ----------------
#NOTEDATA:;
#CHARTNAME:;
#STEPSTYPE:dance-single;
#DESCRIPTION:;
#CHARTSTYLE:;
#DIFFICULTY:Easy;
#METER:3;
#RADARVALUES:0.221995,0.317699,0.062159,0.207195,0.000000,186.000000,9.000000,30.000000,0.000000,0.000000,0.000000,0.000000,0.000000,0.221995,0.317699,0.062159,0.207195,0.000000,186.000000,9.000000,30.000000,0.000000,0.000000,0.000000,0.000000,0.000000;
#CREDIT:Ben Speirs;
#NOTES:
0000
0000
0000
0000
,
0000
0000
0000
0000
,
0000
0000
0000
0000
,
0000
0000
0000
0000
,
0100
0000
0010
0000
,
1000
0000
0000
0000
,
0100
0000
0010
0000
,
0001
0000
0000
0000
,
1000
0000
0001
0000
,
0100
0010
1000
0000
,
0100
0000
0010
0000
,
0001
1000
0010
0000
,
1000
0000
0100
0000
,
0010
0001
1000
0000
,
0010
0010
0010
0100
,
0001
0001
0001
0000
,
1000
0000
0001
0000
,
0010
0001
1000
0000
,
0100
0000
1000
0000
,
0010
0100
0001
0000
,
0010
0000
0001
0000
,
1000
0100
0010
0000
,
0001
0001
0001
1000
,
0100
0100
0100
0000
,
1000
0000
0010
0000
,
0200
0300
0000
0000
,
0010
0000
1000
0000
,
0001
0000
0001
0000
,
0010
0000
0100
0000
,
2000
3000
0000
0000
,
0100
0000
1000
0000
,
0020
0000
0000
0030
,
1001
0000
1000
0100
,
0010
0000
0010
0000
,
0001
0000
0100
0001
,
1000
0000
1000
0000
,
0100
0000
1000
0001
,
0010
0000
0010
0000
,
0002
0003
2000
3000
,
0020
0030
0200
0300
,
1001
0000
1000
0100
,
0010
0000
0001
0000
,
1000
0000
0010
1000
,
0100
0000
0010
0000
,
0001
0000
1000
0001
,
0100
0000
0010
0000
,
0200
0300
0002
0003
,
2000
3000
0200
0300
,
2000
0000
0000
3000
,
0002
0000
0000
0003
,
0020
0000
0000
0030
,
0200
0000
0000
0300
,
2000
0000
0000
3000
,
0002
0000
0000
0003
,
0200
0000
0000
0300
,
0020
0000
0000
0030
,
1000
0000
0001
0000
,
0100
0000
0100
0000
,
0001
0000
1000
0000
,
0010
0000
0010
0000
,
1000
0000
0100
0000
,
0010
0000
0010
0000
,
0001
0000
1000
0000
,
0010
0000
0010
0000
,
0100
0000
0100
0000
,
0001
1000
0001
1000
,
0000
0000
0000
0000
,
0000
0000
1001
0000
,
0110
0000
1000
0010
,
0100
0000
0100
0000
,
0001
0000
1000
0001
,
0010
0000
0010
0000
,
0001
0000
1000
0100
,
0010
0000
0010
0000
,
0002
0003
2000
3000
,
0020
0030
0200
0300
,
1001
0000
1000
0100
,
0010
0000
0001
0000
,
1000
0000
0010
0100
,
0001
0000
1000
0000
,
0001
0000
0010
0100
,
1000
0000
0001
0000
,
0200
0300
0020
0030
,
2000
3000
0002
0003
,
1001
0000
0100
0100
,
0200
0300
0000
0000
,
1001
0000
0010
0010
,
0020
0030
0000
0000
,
1001
0000
1000
1000
,
2000
3000
0000
0000
,
0010
0000
0000
1000
,
0000
0000
0100
0000
,
1001
0000
0000
0000
;

//---------------dance-single - ----------------
#NOTEDATA:;
#CHARTNAME:;
#STEPSTYPE:dance-single;
#DESCRIPTION:;
#CHARTSTYLE:;
#DIFFICULTY:Beginner;
#METER:2;
#RADARVALUES:0.135170,0.190620,0.048346,0.000000,0.000000,130.000000,7.000000,0.000000,0.000000,0.000000,0.000000,0.000000,0.000000,0.135170,0.190620,0.048346,0.000000,0.000000,130.000000,7.000000,0.000000,0.000000,0.000000,0.000000,0.000000,0.000000;
#CREDIT:Ben Speirs;
#NOTES:
0000
0000
0000
0000
,
0000
0000
0000
0000
,
0000
0000
0000
0000
,
0000
0000
0000
0000
,
0010
0000
0000
0000
,
1000
0000
0000
0000
,
0001
0000
0000
0000
,
0001
0000
0000
0000
,
1000
0000
0000
0000
,
0100
0100
0100
0000
,
0100
0000
0000
0000
,
1000
1000
1000
0000
,
1000
0000
0000
0000
,
0001
0001
0001
0000
,
0001
0000
0000
0000
,
1000
0000
0000
0000
,
0010
0000
0000
0000
,
0010
0000
0100
0000
,
0001
0000
0000
0000
,
0001
0000
1000
0000
,
0100
0000
0000
0000
,
0100
0000
1000
0000
,
0010
0000
0000
0000
,
0100
0000
0000
0000
,
0001
0000
0001
0000
,
0001
0000
0000
0000
,
1000
0000
1000
0000
,
1000
0000
0000
0000
,
0100
0000
0100
0000
,
0100
0000
0000
0000
,
0010
0000
0000
0000
,
0010
0000
0000
0000
,
1001
0000
0000
0000
,
0100
0000
0100
0000
,
0010
0000
0000
0000
,
0001
0000
0001
0000
,
1000
0000
0000
0000
,
0010
0000
0010
0000
,
0100
0000
0100
0000
,
0100
0000
0100
0000
,
0110
0000
0000
0000
,
1000
0000
1000
0000
,
0001
0000
0000
0000
,
0001
0000
0001
0000
,
0100
0000
0000
0000
,
0100
0000
0100
0000
,
0010
0000
0010
0000
,
0010
0000
0010
0000
,
1001
0000
0000
0000
,
0000
0000
0000
0000
,
0100
0000
0000
0000
,
0000
0000
0000
0000
,
0010
0000
0000
0000
,
0000
0000
0000
0000
,
1000
0000
0000
0000
,
0000
0000
0000
0000
,
0100
0000
0100
0000
,
0100
0000
0000
0000
,
0010
0000
0010
0000
,
0010
0000
0000
0000
,
0001
0000
0001
0000
,
0001
0000
0000
0000
,
1000
0000
1000
0000
,
1000
0000
0000
0000
,
0010
0000
0010
0000
,
0010
0000
0010
0010
,
0000
0000
0000
0000
,
0000
0000
1001
0000
,
1001
0000
0000
0000
,
0100
0000
1000
0000
,
0010
0000
0000
0000
,
1000
0000
0001
0000
,
0100
0000
0000
0000
,
0001
0000
0010
0000
,
0100
0000
0100
0000
,
0100
0000
0100
0000
,
1001
0000
0000
0000
,
1000
0000
0001
0000
,
0010
0000
0000
0000
,
0001
0000
1000
0000
,
0010
0000
0000
0000
,
1000
0000
0001
0000
,
0100
0000
0100
0000
,
0100
0000
0100
0000
,
1001
0000
0000
0000
,
0010
0000
0010
0010
,
0010
0000
0000
0000
,
1000
0000
1000
1000
,
1000
0000
0000
0000
,
0100
0000
0100
0100
,
0100
0000
0000
0010
,
0000
0000
0001
0000
,
1000
0000
0000
0000
;

//---------------dance-double - ----------------
#NOTEDATA:;
#CHARTNAME:;
#STEPSTYPE:dance-double;
#DESCRIPTION:;
#CHARTSTYLE:;
#DIFFICULTY:Challenge;
#METER:9;
#RADARVALUES:0.640332,0.762478,0.372951,0.331512,0.103598,547.000000,54.000000,48.000000,0.000000,0.000000,0.000000,0.000000,0.000000,0.640332,0.762478,0.372951,0.331512,0.103598,547.000000,54.000000,48.000000,0.000000,0.000000,0.000000,0.000000,0.000000;
#CREDIT:Ben Speirs;
#NOTES:
// measure 0
00000000
00000000
00000000
00000000
,  // measure 1
00000000
00000000
00000000
00000000
,  // measure 2
00000000
00000000
00000000
00000000
,  // measure 3
00000000
00000000
00000000
00000000
,  // measure 4
10000000
01000000
00100000
00010000
00020000
00000000
20030000
00000000
,  // measure 5
30100000
01000000
00010000
01000000
00000000
00000000
00000000
00000000
,  // measure 6
00010000
01000000
00001000
00010000
00000000
00001000
00010000
00000100
,  // measure 7
00000000
00000100
00001000
00000001
00000000
00000001
00000100
00000020
,  // measure 8
00000000
00001030
00001000
00000010
00001000
00001000
00000010
00000100
,  // measure 9
00000110
00000000
00001010
00000000
00001000
00000100
00000010
00000002
,  // measure 10
00000000
00000013
00000010
00000001
00000010
00000010
00000100
00001000
,  // measure 11
00001100
00000000
00011000
00000000
00010000
00001000
00100000
00020000
,  // measure 12
00000000
10030000
10000000
00010000
10000000
10000000
00100000
01000000
,  // measure 13
01010000
00000000
11000000
00000000
10000000
01000000
00100000
00000000
,  // measure 14
00110000
00000000
00000000
11000000
00000000
00000000
10100000
00000000
,  // measure 15
00000000
00000000
01010000
00000000
00000000
00000000
00000000
00000000
01100000
00000000
00000000
00000000
10010000
00000000
01000000
00100000
,  // measure 16
01000000
00010000
00010000
01000000
00010000
00010000
01000000
00100000
,  // measure 17
01100000
00000000
01010000
00000000
00010000
00100000
01000000
20000000
,  // measure 18
00000000
31000000
01000000
10000000
01000000
01000000
00100000
00010000
,  // measure 19
00110000
00000000
00011000
00000000
00001000
00010000
00000100
00002000
,  // measure 20
00000000
00003001
00000001
00001000
00000001
00000001
00000100
00000010
,  // measure 21
00001010
00000000
00000011
00000000
00000001
00000010
00000100
00000000
,  // measure 22
00001000
00000000
00001100
00000100
00000000
00000011
00000010
00000000
,  // measure 23
00001001
00000000
00000001
00000000
00000000
00000000
00001001
00000000
00001000
00000000
00000000
00000000
00000110
00000000
00000001
00001000
,  // measure 24
00000001
00000010
00000000
00000100
00000000
00001000
00000000
00001000
,  // measure 25
00000100
00010000
00000000
00000000
00000000
00001000
00001000
00010000
,  // measure 26
00000000
00011000
00000000
00110000
00000000
00100000
00010000
01000000
,  // measure 27
00000000
01000000
00100000
10000000
00000000
10000000
01000000
00100000
,  // measure 28
00000000
00010000
00000000
10000000
00000000
00100000
00000000
01000000
,  // measure 29
00010000
10000000
00000000
00000000
00000000
01000000
00100000
00010000
,  // measure 30
00000000
00100000
00000000
00001000
00000000
00010000
00000000
00011000
,  // measure 31
00000000
00001000
00010000
00001000
00010000
00001000
00010000
00001000
,  // measure 32
00010000
00100000
10000000
01000000
02000000
00000000
03100000
00000000
,  // measure 33
00100000
00010000
10000000
01000000
10000000
01000000
10000000
01000000
,  // measure 34
10000000
00100000
00010000
00100000
02000000
00000000
03010000
00000000
,  // measure 35
00010000
00100000
01000000
10000000
00100000
01000000
00010000
10000000
,  // measure 36
01000000
01000000
00100000
00010000
00020000
00000000
20030000
00000000
,  // measure 37
30100000
01000000
00100000
01000000
01010000
00000000
10000000
00000000
,  // measure 38
11000000
01000000
00000000
01010000
00010000
00000000
00011000
00010000
,  // measure 39
00001000
00010000
00001000
00010000
00001000
00010000
00001000
00010000
,  // measure 40
00001000
00000100
00000001
00000010
00000020
00000000
00000130
00000000
,  // measure 41
00000100
00001000
00000001
00000010
00000001
00000010
00000001
00000010
,  // measure 42
00000001
00000100
00001000
00000100
00000020
00000000
00001030
00000000
,  // measure 43
00001000
00000100
00000010
00000001
00000100
00000010
00001000
00000001
,  // measure 44
00000010
00000010
00000100
00001000
00002000
00000000
00003002
00000000
,  // measure 45
00000103
00000010
00000100
00000010
00001010
00000000
00000001
00000000
,  // measure 46
00001000
00000000
00001010
00000010
00000000
00000101
00000001
00000000
,  // measure 47
00001100
00000000
00001000
00000000
00000000
00000000
00000011
00000000
00000001
00000000
00000000
00000000
00000110
00000000
00001000
00000001
,  // measure 48
00002000
00000000
00000000
00003000
00000000
00000100
00002000
00000020
,  // measure 49
00000000
00000000
00000000
00003030
00000000
00000010
00000200
00000002
,  // measure 50
00000000
00000000
00000000
00000303
00000000
00000001
00002000
00000200
,  // measure 51
00000000
00000000
00000000
00003300
00000000
00001000
00000200
00020000
,  // measure 52
00000000
00000000
00000000
00030300
00000000
00010000
00002000
00200000
,  // measure 53
00000000
00000000
00000000
00303000
00000000
00100000
00020000
02000000
,  // measure 54
00000000
00000000
00000000
03030000
00000000
01000000
00200000
20000000
,  // measure 55
00000000
00000000
00000000
30300000
00000000
10000000
01000000
10000000
,  // measure 56
00100000
00100000
00000000
01000000
01000000
00000000
00010000
00010000
,  // measure 57
00000000
00000000
10000000
00000000
10000000
00000000
00000000
00000000
01000000
00000000
00100000
00000000
01000000
00000000
00100000
00010000
,  // measure 58
00100000
00100000
00000000
00010000
00010000
00000000
10000000
10000000
,  // measure 59
00000000
00000000
00100000
00000000
00100000
00000000
00000000
00000000
10000000
00000000
00010000
00000000
10000000
00000000
00010000
01000000
,  // measure 60
00010000
10000000
01000000
00100000
00010000
10000000
00100000
01000000
,  // measure 61
00010000
00100000
00001000
00010000
00001000
00000100
00000001
00001000
,  // measure 62
00001100
00000100
00000010
00000001
00001000
00000010
00000100
00000001
,  // measure 63
00000010
00000100
00001000
00000100
00010000
00001000
00100000
00010000
,  // measure 64
01000000
01000000
00100000
10000000
01000000
00100000
00010000
00100000
,  // measure 65
00001000
00000000
00001000
00000000
00010000
00000000
00000100
00000000
00010000
00001000
00010000
00001000
00010000
00001000
00010000
00001000
,  // measure 66
00000000
00000000
00000000
00000000
,  // measure 67
00000000
00000000
00022000
00033000
,  // measure 68
00001000
00000100
00000001
00000010
00000020
00000000
00000130
00000000
,  // measure 69
00000100
00000000
00001000
00000000
00000001
00000000
00000010
00000001
00000010
00000001
00000010
00000001
00000010
00000001
00000010
00000000
,  // measure 70
00000001
00000100
00001000
00000100
00000020
00000000
00001030
00000000
,  // measure 71
00001000
00000100
00000010
00000001
00000100
00000010
00001000
00000001
,  // measure 72
00000010
00000010
00000100
00001000
00002000
00000000
00003002
00000000
,  // measure 73
00000103
00000010
00000100
00000010
00001010
00000000
00000001
00000000
,  // measure 74
00000011
00000010
00000000
00001010
00001000
00000000
00011000
00001000
,  // measure 75
00010000
00000000
00001000
00010000
00001000
00010000
00001000
00010000
00001000
00010000
00001000
00010000
00001000
00010000
00001000
00000000
,  // measure 76
00010000
00100000
10000000
01000000
02000000
00000000
03100000
00000000
,  // measure 77
00100000
00000000
00010000
00000000
10000000
00000000
01000000
10000000
01000000
10000000
01000000
10000000
01000000
10000000
01000000
00000000
,  // measure 78
10000000
00100000
00010000
00100000
02000000
00000000
03010000
00000000
,  // measure 79
00010000
00100000
01000000
10000000
00100000
01000000
00010000
10000000
,  // measure 80
01000000
01000000
00100000
00010000
00020000
00000000
20030000
00000000
,  // measure 81
30100000
01000000
00100000
01000000
01010000
00000000
10000000
00000000
,  // measure 82
00010000
00000000
01010000
01000000
00000000
10100000
10000000
00000000
,  // measure 83
00110000
00000000
00010000
00000000
00000000
00000000
11000000
00000000
10000000
00000000
00000000
00000000
01100000
00000000
00010000
10000000
,  // measure 84
00010000
01000000
00001000
00010000
00000200
00000000
00002300
00000000
,  // measure 85
00003001
00000100
00000100
00000000
00000001
00001000
00000001
00001000
,  // measure 86
00000010
00000100
00000001
00001000
00002000
00000000
00003200
00000000
,  // measure 87
00010300
00000000
00001000
00010000
00001000
00010000
00001000
00010000
00001000
00010000
00001000
00010000
00001000
00010000
00001000
00000000
,  // measure 88
00010000
01000000
10000000
00100000
02000000
00000000
03020000
00000000
,  // measure 89
10030000
01000000
01000000
00000000
10000000
00010000
10000000
00010000
,  // measure 90
01010000
01000000
00000000
00011000
00010000
00000000
00001100
00001000
,  // measure 91
00000000
00001001
00000001
00000000
00000220
00000000
00000330
00000000
,  // measure 92
00001001
00000000
00000000
00000000
;
