#VERSION:0.82;
#TITLE:Ain't Nobody;
#SUBTITLE:(Loves Me Better);
#ARTIST:Felix Jaehn feat. Jasmine Thompson;
#TITLETRANSLIT:;
#SUBTITLETRANSLIT:;
#ARTISTTRANSLIT:;
#GENRE:Chaka Khan;
#ORIGIN:;
#CREDIT:;
#BANNER:Ain't Nobody (Loves Me Better).png;
#BACKGROUND:Ain't Nobody (Loves Me Better)-bg.png;
#PREVIEWVID:;
#JACKET:jacket.png;
#CDIMAGE:;
#DISCIMAGE:;
#LYRICSPATH:;
#CDTITLE:;
#MUSIC:Ain't Nobody (Loves Me Better).ogg;
#OFFSET:0.010000;
#SAMPLESTART:89.503952;
#SAMPLELENGTH:13.714000;
#SELECTABLE:YES;
#BPMS:0.000=118.000;
#STOPS:;
#DELAYS:;
#WARPS:;
#TIMESIGNATURES:0.000=4=4;
#TICKCOUNTS:0.000=4;
#COMBOS:0.000=1;
#SPEEDS:0.000=1.000=0.000=0;
#SCROLLS:0.000=1.000;
#FAKES:;
#LABELS:0.000=Song Start;
#BGCHANGES:8.000=Ain't Nobody (Loves Me Better).avi=1.000=0=0=1=====,
99999=-nosongbg-=1.000=0=0=0 // don't automatically add -songbackground-
;
#KEYSOUNDS:;
#ATTACKS:
;

//---------------dance-single - ----------------
#NOTEDATA:;
#CHARTNAME:;
#STEPSTYPE:dance-single;
#DESCRIPTION:;
#CHARTSTYLE:;
#DIFFICULTY:Hard;
#METER:6;
#RADARVALUES:0.359830,0.378614,0.190099,0.308911,0.000000,255.000000,24.000000,39.000000,0.000000,0.000000,0.000000,0.000000,0.000000,0.359830,0.378614,0.190099,0.308911,0.000000,255.000000,24.000000,39.000000,0.000000,0.000000,0.000000,0.000000,0.000000;
#CREDIT:Ben Speirs;
#NOTES:
0000
0000
0000
0000
,
0000
0000
0000
0000
,
0000
0000
0000
0000
,
0000
0000
0000
0000
,
0001
0000
0100
0010
1000
0000
0001
0000
,
1000
0000
0100
0010
0001
0000
1000
0000
,
0010
0000
0100
0010
1000
0000
0100
0100
,
0100
0000
0010
0001
1000
0000
1001
0000
,
0020
0130
0002
0013
,
0200
0000
1300
0000
0010
1000
0001
0000
,
0200
0310
2000
3100
,
0020
0000
0031
0000
0100
0001
1000
0000
,
2001
0100
0100
3100
,
1002
0100
0100
0103
,
1000
0001
0100
0010
,
1000
0100
1000
0100
0010
0001
0010
0000
,
0001
0000
1100
0000
0001
0000
1000
0010
,
0100
0000
0101
0000
1000
0000
0001
0010
,
0100
0000
0110
0000
0001
0000
0010
0001
,
1000
0000
1010
0000
0001
1000
0010
0100
,
0001
0000
1100
0000
0001
0000
0010
0001
,
1000
0000
0101
0000
1000
0000
0010
1000
,
0200
0010
0310
0000
,
0002
1000
1003
0000
,
0020
0000
0000
0130
0100
0000
0001
0000
,
2000
0000
0000
0100
3100
0000
0010
0000
,
0002
0000
0000
1000
1003
0000
0010
0000
,
0200
0000
0000
0001
0301
0000
0101
0000
,
2000
0000
0000
0100
3100
0000
0010
0000
,
0002
0000
0000
1000
1003
0000
0010
0000
,
0200
0000
0000
0010
0310
0000
0100
0000
,
0002
0000
0000
1000
1003
0000
1001
0000
,
0100
0000
1000
0100
0020
0000
0031
0000
,
1000
0000
0001
0100
0020
0000
1030
0000
,
0001
0000
0100
0001
2000
0000
3200
0000
,
0310
0000
0001
1000
0020
0000
0130
0000
,
1001
0000
0010
0000
0001
0010
0200
0000
,
1300
0000
0001
0000
1000
0010
0200
0000
,
0301
0000
1000
0000
0010
1000
0002
0000
,
0023
0000
0130
0000
1000
0001
0100
0010
,
2010
0100
0100
3100
,
0012
0100
0100
0103
,
2001
0100
0010
3001
,
1002
0010
0100
1003
,
1100
0000
0010
1000
0001
0000
1000
0000
,
0101
0000
1000
0100
0010
0000
0001
0000
,
0110
0000
0001
0010
0100
0000
1000
0000
,
1001
0000
0010
1000
0100
0010
0001
1000
,
0010
0000
0100
0001
2000
0000
3100
0000
,
0010
0000
0001
1000
0020
0000
0130
0000
,
0002
0010
0013
0001
,
2000
0010
3010
1000
,
0200
0000
0000
0000
0310
0001
1000
0000
,
0020
0000
0000
0000
0130
0001
1000
0000
,
0002
0000
0000
0000
0103
0010
1000
0000
,
0200
0000
0000
0000
0310
0001
1000
0010
,
0100
0101
0000
1100
,
0000
0011
0000
1010
,
0000
0000
0001
1000
0010
0000
0100
0000
,
0000
0000
0010
1000
0100
0010
0010
0000
;

//---------------dance-single - ----------------
#NOTEDATA:;
#CHARTNAME:;
#STEPSTYPE:dance-single;
#DESCRIPTION:;
#CHARTSTYLE:;
#DIFFICULTY:Challenge;
#METER:8;
#RADARVALUES:0.431117,0.449604,0.166337,0.000000,0.320792,360.000000,21.000000,0.000000,0.000000,0.000000,0.000000,0.000000,0.000000,0.431117,0.449604,0.166337,0.000000,0.320792,360.000000,21.000000,0.000000,0.000000,0.000000,0.000000,0.000000,0.000000;
#CREDIT:Ben Speirs;
#NOTES:
// measure 0
0000
0000
0000
0000
,  // measure 1
0000
0000
0000
0000
,  // measure 2
0000
0000
0000
0000
,  // measure 3
0000
0000
0000
0000
,  // measure 4
0100
0000
0000
0000
0001
0000
1000
0000
0100
0000
0000
1000
0000
0000
0001
0000
,  // measure 5
0100
0000
0000
0000
0010
0000
0100
0000
0001
0000
0000
0010
0000
0000
0100
0000
,  // measure 6
1000
0000
0000
0000
0010
0000
1000
0000
0001
0000
0000
0100
0000
0001
0000
1000
,  // measure 7
0000
0000
0000
0000
0100
0000
0010
0000
0001
0000
0000
1000
0000
0000
0010
0000
,  // measure 8
0010
0000
0000
0000
0100
0000
0001
0000
1000
0000
0000
0100
1000
0000
0001
0000
,  // measure 9
0100
0000
0000
0000
0010
0000
0100
0000
0001
0000
0000
0010
0100
0000
0010
0000
,  // measure 10
0001
0000
0000
0000
1000
0000
0001
0000
0100
0000
0000
0010
1000
0000
0100
0000
,  // measure 11
0010
0000
0000
0000
0001
0000
1000
0000
0010
0000
0000
0100
0010
0000
1000
0000
,  // measure 12
0001
0000
1000
0100
0010
0001
1000
0000
,  // measure 13
0010
0000
0100
0001
0010
0100
1000
0000
,  // measure 14
0001
0000
0100
0010
0100
0001
1000
0000
,  // measure 15
1100
0011
0101
1010
,  // measure 16
0100
0000
0001
0000
1000
0000
0100
0000
0010
0000
0000
0010
0000
0000
0001
0000
,  // measure 17
0010
0000
0100
0000
0010
0000
0001
0000
1000
0000
0000
1000
0000
0000
0010
0000
,  // measure 18
1000
0000
0001
0000
0100
0000
0001
0000
1000
0000
0000
1000
0000
0000
0100
0000
,  // measure 19
1000
0000
0010
0000
0100
0000
0001
0000
0010
0000
0010
0100
0000
0100
1000
0000
,  // measure 20
0001
0000
0000
0000
1000
0000
0100
0000
1000
0000
0000
0010
0000
0000
0100
0000
,  // measure 21
0001
0000
0010
0000
0100
0000
0010
0000
0001
0000
0000
1000
0000
0000
0010
0000
,  // measure 22
0100
0000
0000
0000
0001
0000
0100
0000
0010
0000
0000
0010
1000
0000
0000
0000
,  // measure 23
0001
0000
0000
0000
1000
0000
0100
0000
0010
0000
0000
0010
0001
0000
0000
0000
,  // measure 24
1100
0000
0000
0000
0001
0000
1000
0000
0010
0000
0000
1000
0000
0001
0000
0100
,  // measure 25
0000
0010
0000
0000
0100
0000
0001
0000
1000
0000
0000
0100
0000
0010
0000
0001
,  // measure 26
0000
0000
0000
0000
1000
0000
0001
0000
0100
0000
0000
0010
0000
1000
0000
0001
,  // measure 27
0000
0100
0000
0000
0010
0000
1000
0000
0100
0000
0000
0010
0000
0001
0000
1000
,  // measure 28
0100
0000
0000
0000
1000
0000
0001
0000
0100
0000
0000
0010
0000
0100
0000
0001
,  // measure 29
0000
1000
0000
0000
0100
0000
1000
0000
0001
0000
0000
0010
0000
0100
0000
1000
,  // measure 30
0000
0000
0000
0000
0010
0000
1000
0000
0001
0000
0000
1000
0000
0010
0000
0100
,  // measure 31
0000
0001
0000
0000
1000
0000
0100
0000
0010
0000
0000
0001
0000
0000
1000
0000
,  // measure 32
0010
0000
0000
0000
0100
0000
0000
0001
0000
0000
0000
0000
1000
0000
1000
0100
,  // measure 33
0000
0000
0010
0000
0010
0000
0000
0001
0000
0000
0000
0000
0100
0000
0100
0010
,  // measure 34
0000
0000
0000
0000
1000
0000
0000
0100
0000
0000
0000
0000
0010
0000
0010
0001
,  // measure 35
0000
0001
0000
0000
1000
0000
0000
0010
0000
0000
0000
0000
0100
0000
0010
0000
,  // measure 36
0100
0000
0000
0000
0010
0000
0000
1000
0000
0000
0000
0000
0001
0000
0001
0010
,  // measure 37
0000
0000
0100
0000
0100
0000
0000
1000
0000
0000
0000
0000
0010
0000
0010
0100
,  // measure 38
0000
0000
0000
0000
0001
0000
0000
0010
0000
0000
0000
0000
0100
0000
0100
1000
,  // measure 39
0000
1000
0000
0000
0001
0000
0000
0100
0000
0000
0000
0000
0010
0000
0100
0000
,  // measure 40
0101
0000
0001
0100
0010
1000
0100
0000
,  // measure 41
1100
0000
0100
1000
0010
0100
0001
0000
,  // measure 42
1001
0110
0001
0010
,  // measure 43
1100
0011
0101
1010
,  // measure 44
0001
0000
1000
0000
0010
0000
1000
0000
0100
0000
0100
0010
0000
0000
0001
0000
,  // measure 45
0010
0000
0100
0000
0010
0000
0001
0000
1000
0000
1000
0010
0000
0000
0100
0000
,  // measure 46
0001
0000
0100
0000
0010
0000
1000
0000
0100
0000
0100
0010
0000
0000
0001
0000
,  // measure 47
0010
0000
0100
0000
1000
0000
0010
0000
0100
0000
0100
0001
0000
0001
1000
0000
,  // measure 48
0100
0000
0000
0000
1000
0000
0001
0000
0100
0000
0100
0010
0000
0000
0100
0000
,  // measure 49
0001
0000
0010
0000
0100
0000
0010
0000
0001
0000
0001
1000
0000
0000
0010
0000
,  // measure 50
1000
0000
0100
0000
1000
0000
0010
0000
0100
0000
0100
0001
0000
1000
0000
0100
,  // measure 51
0000
0000
1000
0000
0100
0000
1000
0000
0001
0000
0100
0010
0000
1000
0000
0001
,  // measure 52
0010
0000
1100
0100
0010
0000
1001
0000
,  // measure 53
0100
0000
0101
0100
0010
0000
1001
0000
,  // measure 54
0100
0000
0000
0000
0010
0000
1000
0000
0100
0000
0000
0010
0000
0001
0000
1000
,  // measure 55
0000
0010
0000
0000
1000
0000
0001
0000
0100
0000
0000
0010
0000
0010
0000
0010
,  // measure 56
0100
0000
0001
0100
0010
0000
0110
0000
,  // measure 57
1000
0000
0100
1000
0010
0000
0110
0000
,  // measure 58
1000
0100
1000
0001
0010
0100
1000
0010
,  // measure 59
1000
0001
0100
0010
1000
1001
1001
0000
;

//---------------dance-single - ----------------
#NOTEDATA:;
#CHARTNAME:;
#STEPSTYPE:dance-single;
#DESCRIPTION:;
#CHARTSTYLE:;
#DIFFICULTY:Medium;
#METER:4;
#RADARVALUES:0.202546,0.236634,0.063366,0.063366,0.000000,163.000000,8.000000,8.000000,0.000000,0.000000,0.000000,0.000000,0.000000,0.202546,0.236634,0.063366,0.063366,0.000000,163.000000,8.000000,8.000000,0.000000,0.000000,0.000000,0.000000,0.000000;
#CREDIT:Ben Speirs;
#NOTES:
0000
0000
0000
0000
,
0000
0000
0000
0000
,
0000
0000
0000
0000
,
0000
0000
0000
0000
,
0100
0000
0001
0000
,
1000
0000
0100
0000
,
0010
0000
0001
0000
,
1000
0000
0010
0000
,
0100
0001
1000
0100
,
1000
0010
0100
0001
,
0010
0100
1000
0010
,
0100
0001
1000
0100
,
0020
0000
0030
0000
,
0002
0000
0003
0000
,
2000
0000
3000
0000
,
0010
0010
0100
0110
,
0000
0001
0100
0001
,
0000
1000
0100
1000
,
0000
0001
0010
0001
,
0000
1000
0010
0100
,
0001
1000
0100
1000
,
0000
0001
0100
0001
,
2000
0000
3100
0000
,
0002
0000
0103
0000
,
0010
1000
0001
1000
,
0010
0000
1000
0000
0001
0000
0100
0100
,
0100
0001
0010
0001
,
1000
0000
0001
0000
0100
0000
0010
0010
,
0010
1000
0001
1000
,
0100
0000
1000
0000
0001
0000
0010
0010
,
0010
0001
1000
0010
,
1000
0000
0001
0000
0010
0000
0100
0100
,
0100
0000
1000
0000
,
0001
0000
0100
0000
,
0010
0000
0010
0000
,
1000
0000
0000
0000
0100
0010
0001
0000
,
1000
0000
0010
0000
,
0100
0000
0001
0000
,
0010
0000
0100
0000
,
0010
0000
0000
0000
0001
1000
0010
0000
,
0200
0000
0300
0000
,
0002
0000
0003
0000
,
2000
0000
3000
0000
,
0100
0110
0010
1001
,
0000
0101
0100
0010
,
0000
0000
1000
0100
0010
0000
0001
0000
,
0000
1100
1000
0001
,
0000
0000
0100
0010
1000
0000
0001
0000
,
0000
0110
0000
1001
,
0000
0100
0001
1000
,
0010
0000
0010
0000
,
1000
0000
0001
0000
,
0110
0000
0000
0000
0001
0000
0100
0100
,
0100
0000
0010
1000
,
0001
0000
0000
0000
1000
0000
0100
0100
,
0100
0000
0010
0001
,
1000
0000
0010
0000
,
0100
0000
0001
0000
,
1000
0000
1000
0000
,
0001
0000
0000
0000
0000
0100
0100
0000
;

//---------------dance-single - ----------------
#NOTEDATA:;
#CHARTNAME:;
#STEPSTYPE:dance-single;
#DESCRIPTION:;
#CHARTSTYLE:;
#DIFFICULTY:Easy;
#METER:3;
#RADARVALUES:0.200283,0.283960,0.047525,0.530693,0.000000,104.000000,6.000000,67.000000,0.000000,0.000000,0.000000,0.000000,0.000000,0.200283,0.283960,0.047525,0.530693,0.000000,104.000000,6.000000,67.000000,0.000000,0.000000,0.000000,0.000000,0.000000;
#CREDIT:Ben Speirs;
#NOTES:
0000
0000
0000
0000
,
0000
0000
0000
0000
,
0000
0000
0000
0000
,
0000
0000
0000
0000
,
0200
0300
0002
0003
,
2000
3000
0200
0300
,
0020
0030
0002
0003
,
2000
3000
0020
0030
,
2000
3000
0002
0003
,
0020
0030
0200
0300
,
2000
3000
0002
0003
,
0200
0300
0020
0030
,
2002
0000
0000
3003
,
0220
0000
0000
0330
,
2002
0000
0000
3003
,
1000
1000
0001
0001
,
0000
0200
0300
0000
,
0000
0002
0003
0000
,
0000
2000
3000
0000
,
0000
0010
0010
0010
,
0000
0200
0300
0000
,
0000
0002
0003
0000
,
0000
2000
3000
0000
,
0000
0100
0100
0100
,
0000
1000
0000
1000
,
0000
0001
0000
0001
,
0000
0100
0000
0100
,
0000
0010
0000
0010
,
0000
1000
0000
1000
,
0000
0100
0000
0100
,
0000
0010
0000
0010
,
0000
0001
0000
0001
,
0200
0300
0020
0030
,
2000
3000
0200
0300
,
0020
0030
0002
0003
,
2000
3000
0002
0003
,
0200
0300
0020
0030
,
2000
3000
0002
0003
,
2000
3000
0200
0300
,
0020
0030
0002
0003
,
2002
0000
0000
3003
,
0220
0000
0000
0330
,
2002
0000
0000
3003
,
0001
1000
0001
1000
,
0000
0020
0030
1000
,
0000
0200
0300
0010
,
0000
0002
0003
0100
,
0000
0010
1000
0001
,
0000
2000
3000
0100
,
0000
0020
0030
0001
,
0000
0200
0300
0010
,
0000
1000
0100
0010
,
0002
0000
0000
0003
,
2000
0000
0000
3000
,
0020
0000
0000
0030
,
0200
0000
0000
0300
,
0002
0003
0002
0003
,
2000
3000
2000
3000
,
0020
0030
0020
0030
,
0200
0000
0000
0310
;

//---------------dance-single - ----------------
#NOTEDATA:;
#CHARTNAME:;
#STEPSTYPE:dance-single;
#DESCRIPTION:;
#CHARTSTYLE:;
#DIFFICULTY:Beginner;
#METER:1;
#RADARVALUES:0.096181,0.141980,0.023762,0.000000,0.000000,82.000000,3.000000,0.000000,0.000000,0.000000,0.000000,0.000000,0.000000,0.096181,0.141980,0.023762,0.000000,0.000000,82.000000,3.000000,0.000000,0.000000,0.000000,0.000000,0.000000,0.000000;
#CREDIT:Ben Speirs;
#NOTES:
0000
0000
0000
0000
,
0000
0000
0000
0000
,
0000
0000
0000
0000
,
0000
0000
0000
0000
,
1000
0000
0000
0000
,
0001
0000
0000
0000
,
0010
0000
0000
0000
,
0010
0000
0000
0000
,
0100
0000
0000
0000
,
1000
0000
0000
0000
,
0001
0000
0000
0000
,
0001
0000
0000
0000
,
0100
0000
0000
0000
,
0010
0000
0000
0000
,
1000
0000
0000
0000
,
0001
0000
0001
0000
,
0000
1000
1000
0000
,
0000
0001
0001
0000
,
0000
0100
0100
0000
,
0000
0010
0010
0000
,
0000
1000
1000
0000
,
0000
0100
0100
0000
,
0000
0010
0010
0000
,
0000
0001
0001
0000
,
0100
0000
0100
0000
,
0100
0000
0000
0000
,
0001
0000
0001
0000
,
0001
0000
0000
0000
,
1000
0000
1000
0000
,
1000
0000
0000
0000
,
0010
0000
0010
0000
,
0010
0000
0000
0000
,
1001
0000
0000
0000
,
0100
0000
0000
0000
,
1000
0000
0000
0000
,
0001
0000
0000
0000
,
0100
0000
0000
0000
,
0010
0000
0000
0000
,
1000
0000
0000
0000
,
0001
0000
0000
0000
,
1000
0000
0000
0000
,
0100
0000
0000
0000
,
0010
0000
0000
0000
,
0001
0000
0001
0000
,
0000
0100
0100
0000
,
0000
0001
0001
0000
,
0000
1000
1000
0000
,
0000
0010
0010
0000
,
0000
1000
1000
0000
,
0000
0001
0001
0000
,
0000
0100
0100
0000
,
0000
0010
0010
0000
,
1001
0000
0000
0000
,
0100
0000
0000
0000
,
1000
0000
0000
0000
,
0001
0000
0000
0000
,
0000
0100
0000
0100
,
0000
0100
0000
0100
,
0000
0010
0000
0010
,
0000
0010
0000
1001
;

//---------------dance-double - ----------------
#NOTEDATA:;
#CHARTNAME:;
#STEPSTYPE:dance-double;
#DESCRIPTION:;
#CHARTSTYLE:;
#DIFFICULTY:Challenge;
#METER:8;
#RADARVALUES:0.381330,0.379406,0.087129,0.063366,0.316832,318.000000,11.000000,8.000000,0.000000,0.000000,0.000000,0.000000,0.000000,0.381330,0.379406,0.087129,0.063366,0.316832,318.000000,11.000000,8.000000,0.000000,0.000000,0.000000,0.000000,0.000000;
#CREDIT:Ben Speirs;
#NOTES:
00000000
00000000
00000000
00000000
,
00000000
00000000
00000000
00000000
,
00000000
00000000
00000000
00000000
,
00000000
00000000
00000000
00000000
,
00001000
00000000
00000001
00000000
00000010
00000000
00000100
00001000
,
00000010
00000000
00000100
00000000
00000001
00000000
00001000
00000001
,
00001000
00000000
00000010
00000000
00001000
00000000
00000100
00010000
,
00000100
00000000
00010000
00000000
00001000
00000000
01000000
00001000
,
00100000
00110000
10000000
10100000
,
00010000
01010000
10000000
11000000
,
00010000
00000000
10000000
00100000
01000000
00000000
00010000
10000000
,
00010000
00000000
10000000
01000000
00100000
00000000
00010000
00000000
,
02020000
00000000
00000000
03030000
,
00022000
00000000
00000000
00033000
,
00002200
00000000
00000000
00003300
,
00001000
00000100
00000010
00000001
00001000
00000010
00000100
00000000
,
00000001
00000000
00000000
00000000
00001000
00000000
00000100
00000000
00001000
00000000
00000000
00001000
00000001
00000000
00000000
00000000
,
00001000
00000000
00000000
00000000
00000010
00000000
00000100
00000000
00000010
00000000
00000000
00000010
00001000
00000000
00000000
00000000
,
00000001
00000000
00000000
00000000
00000010
00000000
00000100
00000000
00001000
00000000
00000000
00001000
00000100
00000000
00000000
00000000
,
00001000
00000000
00000001
00000100
00001000
00010000
01000000
10000000
,
00010000
00000000
00000000
00000000
01000000
00000000
00100000
00000000
01000000
00000000
00000000
01000000
00010000
00000000
00000000
00000000
,
10000000
00000000
00000000
00000000
00100000
00000000
10000000
00000000
00100000
00000000
00000000
00100000
01000000
00000000
00010000
00000000
,
10000000
00000000
00000000
00000000
01000000
00000000
00100000
00000000
00010000
00000000
00000000
10000000
00000000
00000000
00000000
00000000
,
00100000
00000000
00000000
00000000
10000000
00000000
00010000
00000000
01000000
00000000
00000000
00100000
00000000
00000000
10000000
00000000
,
01000000
00000000
00000000
00000000
11000000
00000000
01000000
00000000
00100000
00000000
00000000
00010000
00000000
10000000
00000000
00100000
,
00000000
01000000
00000000
00000000
00010000
00000000
00100000
00000000
00001000
00000000
00000000
00100000
00000000
00010000
00000000
10000000
,
00000000
00000000
00000000
00000000
00100000
00000000
01000000
00000000
00010000
00000000
00000000
10000000
00000000
01000000
00000000
00100000
,
00000000
00010000
00000000
00000000
00100000
00000000
00001000
00000000
00010000
00000000
00000000
00001000
00000000
00000100
00000000
00000001
,
00000010
00000000
00000000
00000000
00000011
00000000
00000010
00000000
00000100
00000000
00000000
00001000
00000000
00000001
00000000
00000100
,
00000000
00000010
00000000
00000000
00001000
00000000
00000100
00000000
00010000
00000000
00000000
00000100
00000000
00001000
00000000
00000001
,
00000000
00000000
00000000
00000000
00000100
00000000
00000010
00000000
00001000
00000000
00000000
00000001
00000000
00000010
00000000
00000100
,
00000000
00001000
00000000
00000000
00000100
00000000
00010000
00000000
00001000
00000000
00000000
00010000
00000000
00100000
00000000
10000000
,
01000000
00000000
00000000
00000000
00100000
00000000
00000000
00010000
00000000
00000000
00000000
00000000
10000000
00000000
00100000
01000000
,
00000000
00000000
01000000
00000000
01000000
00000000
00000000
00010000
00000000
00000000
00000000
00000000
10000000
00000000
01000000
00100000
,
00000000
00000000
00000000
00000000
00010000
00000000
00000000
10000000
00000000
00000000
00000000
00000000
00100000
00000000
00010000
00001000
,
00000000
00001000
00000100
00000000
00000010
00000000
00000000
00001000
00000000
00000000
00000000
00000000
00000100
00000000
00000010
00000000
,
00000010
00000000
00000000
00000000
00000100
00000000
00000000
00001000
00000000
00000000
00000000
00000000
00000001
00000000
00000100
00000010
,
00000000
00000000
00000010
00000000
00000010
00000000
00000000
00001000
00000000
00000000
00000000
00000000
00000001
00000000
00000010
00000100
,
00000000
00000000
00000000
00000000
00001000
00000000
00000000
00000001
00000000
00000000
00000000
00000000
00000100
00000000
00001000
00010000
,
00000000
00010000
00100000
00000000
01000000
00000000
00000000
00010000
00000000
00000000
00000000
00000000
00100000
00000000
01000000
00000000
,
20000000
01000000
01000000
31000000
,
00020000
01000000
01000000
01030000
,
10000000
00010000
01000000
00100000
,
10000000
01000000
00010000
00001000
01000000
00010000
10000000
00100000
,
10000000
00000000
00000000
00000000
00010000
00000000
00100000
00000000
00010000
00000000
00000000
00010000
10000000
00000000
00000000
00000000
,
00010000
00000000
00000000
00000000
01000000
00000000
00100000
00000000
01000000
00000000
00000000
01000000
00010000
00000000
00000000
00000000
,
10000000
00000000
00000000
00000000
01000000
00000000
00100000
00000000
00010000
00000000
00000000
00010000
00100000
00000000
00000000
00000000
,
00010000
00000000
10000000
00100000
00010000
00001000
00000010
00000001
,
00001000
00000000
00000000
00000000
00000010
00000000
00000100
00000000
00000010
00000000
00000000
00000010
00001000
00000000
00000000
00000000
,
00000001
00000000
00000000
00000000
00000100
00000000
00000001
00000000
00000100
00000000
00000000
00000100
00000010
00000000
00001000
00000000
,
00000001
00000000
00000000
00000000
00000010
00000000
00000100
00000000
00001000
00000000
00000000
00000001
00000000
00000000
00000000
00000000
,
00000100
00000000
00000000
00000000
00000001
00000000
00001000
00000000
00000010
00000000
00000000
00000100
00000000
00000000
00000001
00000000
,
00000010
00000000
00000000
00000000
00000011
00000000
00000010
00000000
00000100
00000000
00000000
00001000
00000000
00000001
00000000
00000100
,
00000000
00000010
00000000
00000000
00001000
00000000
00000100
00000000
00010000
00000000
00000000
00000100
00000000
00001000
00000000
00000001
,
00000000
00000000
00000000
00000000
00000100
00000000
00000010
00000000
00001000
00000000
00000000
00000001
00000000
00000010
00000000
00000100
,
00000000
00001000
00000000
00000000
00000100
00000000
00010000
00000000
00001000
00000000
00000000
00010000
00000000
00100000
00000000
10000000
,
01000000
00000000
00000000
00000000
11000000
00000000
01000000
00000000
00100000
00000000
00000000
00010000
00000000
10000000
00000000
00100000
,
00000000
01000000
00000000
00000000
00010000
00000000
00100000
00000000
00001000
00000000
00000000
00100000
00000000
00010000
00000000
10000000
,
00000000
00000000
00000000
00000000
00100000
00000000
01000000
00000000
00010000
00000000
00000000
10000000
00000000
00000000
00000000
00000000
,
00000000
00000000
01000000
10000000
00010000
00100000
00100000
00001000
;
