#VERSION:0.83;
#TITLE:Heat;
#SUBTITLE:;
#ARTIST:TH3 B3AT CONDUCTOR;
#TITLETRANSLIT:;
#SUBTITLETRANSLIT:;
#ARTISTTRANSLIT:;
#GENRE:;
#ORIGIN:;
#CREDIT:;
#BANNER:Heat.png;
#BACKGROUND:Heat-bg.png;
#PREVIEWVID:;
#JACKET:jacket.png;
#CDIMAGE:;
#DISCIMAGE:;
#LYRICSPATH:;
#CDTITLE:;
#MUSIC:Heat.ogg;
#OFFSET:-0.000000;
#SAMPLESTART:44.993046;
#SAMPLELENGTH:14.694003;
#SELECTABLE:YES;
#BPMS:0.000=128.000,
192.000=64.000,
208.000=128.000;
#STOPS:;
#DELAYS:;
#WARPS:;
#TIMESIGNATURES:0.000=4=4;
#TICKCOUNTS:0.000=4;
#COMBOS:0.000=1;
#SPEEDS:0.000=1.000=0.000=0;
#SCROLLS:0.000=1.000;
#FAKES:;
#LABELS:0.000=Song Start;
#BGCHANGES:;
#KEYSOUNDS:;
#ATTACKS:
;

//---------------dance-single - ----------------
#NOTEDATA:;
#CHARTNAME:;
#STEPSTYPE:dance-single;
#DESCRIPTION:;
#CHARTSTYLE:;
#DIFFICULTY:Hard;
#METER:7;
#RADARVALUES:0.463814,0.605728,0.177680,0.347284,0.076726,402.000000,380.000000,22.000000,43.000000,0.000000,0.000000,0.000000,0.000000,0.000000,0.463814,0.605728,0.177680,0.347284,0.076726,402.000000,380.000000,22.000000,43.000000,0.000000,0.000000,0.000000,0.000000,0.000000;
#CREDIT:Ben Speirs;
#NOTES:
0000
0000
0000
0000
,
0000
0000
0000
0000
,
0000
0000
0000
0000
,
0000
0000
0000
0000
,
1000
0000
0100
0010
0100
0000
1000
0000
,
0010
0000
0000
0000
0000
0000
0100
0000
0000
0001
0000
0000
0100
0000
0000
0000
0000
0000
0001
0000
0010
0000
0100
0000
,
1000
0000
0001
0010
0100
0010
0100
0000
,
1000
0000
0000
0000
0000
0000
0100
0000
0000
1000
0000
0000
0001
0000
0000
0000
0000
0000
1000
0000
0100
0000
0010
0000
,
0001
0100
0001
1000
0001
0100
0001
1000
,
0001
0100
0001
1000
0001
0100
0010
0010
,
1000
0100
1000
0001
1000
0100
1000
0001
,
1000
0100
1000
0001
1000
0100
0010
0010
,
0001
0100
1000
0100
0001
0010
1000
0010
,
0001
1000
0100
0010
0001
0100
1000
0100
,
0010
1000
0100
1000
0001
0010
0001
0100
,
0010
1000
0100
0010
0001
0000
1001
0000
,
2200
0000
3300
0001
1000
0001
0100
0000
,
0002
0000
1003
1000
0010
0010
0100
0001
,
2000
0000
3100
1000
0001
1000
0002
0000
,
0103
0000
0001
1000
0002
0013
0200
1300
,
0020
0000
0130
0100
0001
1000
0001
0000
,
2000
0000
3100
1000
0001
1000
0010
0010
,
0200
0000
0301
0001
1000
1000
0010
0010
,
1000
0100
0010
0001
0010
0100
1000
0001
,
0100
1001
0100
1001
,
0001
0010
0100
1000
0100
0010
0001
1000
,
0010
0000
1000
0100
1000
0001
1000
0000
,
0010
0000
0100
0001
0100
0010
1000
0000
,
0010
1001
0010
1001
,
0001
0010
0100
1000
0100
0010
0001
1000
,
0010
0000
1000
0100
1000
0001
1000
0000
,
0010
1000
0101
1100
,
0002
0000
0000
0000
0200
0003
0000
0000
2300
0000
0000
0000
3200
0000
0000
0000
,
0320
2030
3200
0302
,
0203
0320
0032
0203
,
0320
2030
3002
0023
,
0031
0100
0010
1000
0100
0010
0001
0100
,
0010
1000
0010
0100
0001
0010
0001
0100
,
0010
0000
1000
0000
0100
0000
1000
0000
0010
0100
0010
0100
0010
0000
0100
0000
,
0001
1000
0100
0010
0001
0000
1001
0000
,
0201
0000
0310
1000
0200
0000
0310
0001
,
1000
0001
0100
0010
2010
0000
3100
1000
,
0002
0000
0013
0001
0200
0000
0310
1000
,
0001
1000
0100
0010
0120
0000
0032
0000
,
2003
0000
3100
0010
0011
0000
0000
1010
,
0000
1001
0001
0010
0200
0000
1300
0001
,
0020
0000
0130
1000
1010
0000
0000
1001
,
0000
0101
0100
0010
1000
0001
1000
0000
,
0200
0000
0000
0000
1300
0000
0000
0000
0100
1000
0100
1000
0001
0100
0001
0100
,
0020
0000
0000
0000
1030
0000
0000
0000
0001
0100
0001
0100
0010
1000
0010
1000
,
0002
0000
0013
0000
0100
1000
0100
0000
2000
0000
3010
0000
0100
0001
0100
0000
,
0020
0000
1030
0100
1000
0001
1000
0000
0010
0000
1000
0000
1100
0000
0101
0000
,
1000
0000
0010
0100
0010
0000
1000
0000
0100
0000
0010
0000
0002
0000
0000
0000
,
0013
0100
0010
0001
1001
0000
1100
0000
,
0001
1000
0001
0100
0100
0010
1000
0000
,
1000
0001
1000
0100
0100
0010
0001
0000
,
1000
0100
1000
0001
1000
0100
1000
0001
,
1000
0010
1000
0001
1000
0010
1000
0001
,
0010
0010
0100
0100
0010
0010
0001
1000
,
0010
0100
1000
0100
0001
1000
0200
0000
,
0300
0000
0000
0000
;

//---------------dance-double - ----------------
#NOTEDATA:;
#CHARTNAME:;
#STEPSTYPE:dance-double;
#DESCRIPTION:;
#CHARTSTYLE:;
#DIFFICULTY:Challenge;
#METER:7;
#RADARVALUES:0.475352,0.605728,0.411895,0.137298,0.064611,412.000000,361.000000,51.000000,17.000000,0.000000,0.000000,0.000000,0.000000,0.000000,0.475352,0.605728,0.411895,0.137298,0.064611,412.000000,361.000000,51.000000,17.000000,0.000000,0.000000,0.000000,0.000000,0.000000;
#CREDIT:Ben Speirs;
#NOTES:
00000000
00000000
00000000
00000000
,
00000000
00000000
00000000
00000000
,
00000000
00000000
00000000
00000000
,
00000000
00000000
00000000
00000000
,
10000000
00000000
01000000
00100000
00010000
00000000
10000000
00000000
,
00100000
00000000
00000000
10000000
00000000
00000000
01000000
00000000
00000000
00100000
00000000
00000000
00010000
00000000
00000000
00000000
00000000
00000000
01000000
00000000
00100000
00000000
01000000
00000000
,
00100000
00000000
10000000
00100000
01000000
00100000
01000000
00000000
,
00010000
00000000
00000000
00000000
00000000
00000000
00100000
00000000
00000000
00001000
00000000
00000000
00010000
00000000
00000000
00000000
00000000
00000000
00001000
00000000
00010000
00000000
00001000
00000000
,
00020000
00000000
00030100
00010000
00000100
00001000
00000100
00010000
,
00000100
00001000
00000100
00010000
00000100
00001000
00000100
00010000
,
00002000
00000000
01003000
00001000
00010000
00001000
01000000
00001000
,
00010000
00001000
01000000
00001000
00010000
00001000
01000000
00010000
,
10000000
10000000
10000000
01000000
00010000
00010000
00010000
00001000
,
00000100
00000100
00000100
00000001
00001000
00001000
00001000
00000001
,
00000010
00001000
00010000
00100000
10000000
01000000
00010000
00001000
,
00000010
00000001
00000100
00001000
00000100
00001000
00010000
00001000
,
00011000
00000000
00110000
00100000
00010000
10000000
00010000
00000000
,
11000000
00000000
10100000
00100000
10000000
00010000
10000000
00100000
,
01000000
00000000
01010000
01000000
00100000
10000000
01000000
00000000
,
10000000
10000000
00010000
00010000
00100000
00001000
00010000
00000100
,
00002000
00000000
00003010
00000100
00000010
00000100
00000002
00000000
,
00000103
00000010
00001000
00000100
00001000
00001000
00000001
00000001
,
00000020
00000000
00000031
00000010
00000100
00001000
00000010
00000000
,
00001010
00010100
00011000
00110000
,
10010000
00011000
00001001
00011000
,
10010000
00000000
01000000
10000000
00010000
10000000
00010000
00000000
,
10000000
00000000
00010000
01000000
00001000
00010000
00000100
00000000
,
00001000
00000000
00000100
00001000
00000010
00000100
00000010
00000000
,
00001001
00011000
10010000
00011000
,
00001001
00000000
00000001
00000010
00000100
00001000
00000010
00000000
,
00002000
00000000
00003100
00010000
00000100
00001000
00000100
00000000
,
00010100
00011000
00100000
01010000
,
10010000
11000000
01010000
10010000
,
00110000
00011000
00001100
00001001
,
00000110
00001001
00000110
00001100
,
00011000
00010100
00011000
00101000
,
00100000
00010000
01000000
00100000
10000000
01000000
00100000
00010000
,
01000000
00100000
00010000
00001000
00010000
00000100
00001000
00000010
,
00000100
00000100
00001000
00000100
00000010
00001000
00000100
00000010
,
00000001
00001000
00000010
00000100
00000001
00001000
00000001
00000000
,
00000101
00000000
00000100
00001000
00020000
00000000
00030000
00001000
,
00010000
00001000
00100000
00010000
01000000
01000000
00100000
00000000
,
20100000
00000000
30100000
10000000
00020000
00000000
00030000
01000000
,
00100000
01000000
00010000
00100000
00001000
00001000
00010000
00000000
,
00000100
00000000
00001000
00000010
00001010
00000000
00000000
00001100
,
00000000
00010001
00000000
00000000
00011000
00000000
00001000
00010000
,
00000100
00000000
00010000
00001000
00100000
00000000
00000000
00110000
,
00000000
10001000
00000000
00000000
01000000
10000000
00010000
10000000
,
00200000
00000000
00000000
00000000
01300000
00000000
00000000
00000000
00100000
01000000
00100000
01000000
00010000
00100000
00010000
00100000
,
02000000
00000000
00000000
00000000
13000000
00000000
00000000
00000000
01000000
00100000
01000000
00100000
00010000
00100000
00010000
00100000
,
00002000
00000000
00013000
00000000
00000100
00001000
00000100
00000000
00001000
00000000
00000010
00000000
00000100
00000010
00000100
00000010
,
00001000
00000000
00000100
00000000
00001000
00000100
00010000
00000000
00001000
00000000
00001000
00000000
00001000
00000000
00001000
00000000
,
00110000
00000000
00100000
00010000
01000000
00010000
01000000
00000000
,
00100000
10000000
01000000
10000000
01000000
00000000
20010000
00000000
,
30100000
00000000
10000000
01000000
00010000
00001000
00020000
00000000
,
00031000
00000000
00010000
00001000
00000100
00000001
00002000
00000000
,
00003001
00000000
00001000
00000010
00001010
00000000
00000010
00001000
,
00001100
00000000
00000100
00000010
00000110
00000000
00000010
00000001
,
00000100
00000100
00000010
00000010
00001000
00000100
00010000
00001000
,
00100000
00010000
01000000
00001000
00020000
00000000
00002000
00000000
,
00033000
00000000
00000000
00000000
;

//---------------dance-single - ----------------
#NOTEDATA:;
#CHARTNAME:;
#STEPSTYPE:dance-single;
#DESCRIPTION:;
#CHARTSTYLE:;
#DIFFICULTY:Medium;
#METER:5;
#RADARVALUES:0.313825,0.411895,0.153451,0.234215,0.000000,272.000000,253.000000,19.000000,29.000000,0.000000,0.000000,0.000000,0.000000,0.000000,0.313825,0.411895,0.153451,0.234215,0.000000,272.000000,253.000000,19.000000,29.000000,0.000000,0.000000,0.000000,0.000000,0.000000;
#CREDIT:Ben Speirs;
#NOTES:
0000
0000
0000
0000
,
0000
0000
0000
0000
,
0000
0000
0000
0000
,
0000
0000
0000
0000
,
1000
0001
0100
0100
,
0001
0000
1000
0000
0010
0000
0100
0010
,
1000
0010
1000
0100
,
0100
0000
1000
0000
0001
0000
1000
0100
,
0020
0032
1003
0001
,
2000
3020
0230
0301
,
2000
3002
0023
0130
,
0020
0032
2003
3010
,
1000
0100
1000
0100
2000
0000
3002
0000
,
0103
0001
0100
0001
2000
0000
3002
0000
,
1003
0010
1000
0000
0001
0010
0001
0000
,
0100
0100
0010
0000
,
1001
1001
0100
0100
,
1000
0000
0001
0000
1000
0100
1000
0000
,
0010
0010
0100
0100
,
0002
0023
0230
0300
,
1001
1100
0001
1000
,
1001
0101
1000
0001
,
0100
0000
0100
0000
0001
1000
0001
0000
,
2000
3200
0320
0031
,
1000
0000
0100
1000
0100
0000
1000
0000
,
0001
0100
0001
0100
0001
0000
0000
0000
,
1000
0000
0010
0100
0010
0000
1000
0000
,
0001
0000
0010
0100
0010
0000
0000
0000
,
0001
0000
0010
0001
0010
0000
0001
0000
,
1000
0100
1000
0100
1000
0000
0100
0000
,
1000
0000
0010
0100
0010
0000
1000
0000
,
0001
0010
0100
1000
,
0110
0011
1000
0001
,
0100
0010
0100
0000
0002
0000
0003
0000
,
0101
0110
1000
0001
,
1000
0100
1000
0000
0020
0000
0030
0000
,
1000
0100
1000
0000
0010
0000
0010
0000
,
0200
0301
0200
0301
,
1000
0010
1000
0000
0001
0010
0001
0000
,
0100
0100
0010
0000
,
1000
0000
1001
0000
,
0001
0000
1000
0100
0010
0000
0000
0000
,
0001
0000
0101
0000
,
1000
0000
0001
1000
0010
0000
0000
0000
,
1000
0100
1100
0000
,
0001
0000
0100
0001
1000
0000
0000
0000
,
0001
0100
0101
0000
,
1000
0000
0001
1000
0010
0000
0100
0000
,
0020
0000
1030
0000
0100
1000
0001
0100
,
0010
0000
1001
0000
1000
0100
0010
0010
,
0001
1000
0010
0100
0001
0010
0100
0100
,
1000
0001
0100
0100
0010
1000
0100
0000
,
1001
0000
0100
1000
0100
0000
1001
0000
,
0100
1000
0100
1000
0200
0000
0300
0000
,
1000
0001
0100
0100
,
0001
1000
0010
0000
,
1001
0000
0100
0001
0100
0000
1001
0000
,
0100
0001
0100
0001
0100
0000
0100
0000
,
0010
1000
0010
0000
1000
0001
1000
0000
,
0100
0010
0002
0200
,
0303
0000
0000
0000
;

//---------------dance-single - ----------------
#NOTEDATA:;
#CHARTNAME:;
#STEPSTYPE:dance-single;
#DESCRIPTION:;
#CHARTSTYLE:;
#DIFFICULTY:Easy;
#METER:3;
#RADARVALUES:0.183449,0.217153,0.016153,0.048458,0.000000,159.000000,157.000000,2.000000,6.000000,0.000000,0.000000,0.000000,0.000000,0.000000,0.183449,0.217153,0.016153,0.048458,0.000000,159.000000,157.000000,2.000000,6.000000,0.000000,0.000000,0.000000,0.000000,0.000000;
#CREDIT:Ben Speirs;
#NOTES:
// measure 0
0000
0000
0000
0000
,  // measure 1
0000
0000
0000
0000
,  // measure 2
0000
0000
0000
0000
,  // measure 3
0000
0000
0000
0000
,  // measure 4
0001
0000
1000
0000
,  // measure 5
0010
0100
0010
0000
,  // measure 6
1000
0000
0001
0000
,  // measure 7
1000
0100
1000
0000
,  // measure 8
0001
0001
0001
0000
,  // measure 9
1000
1000
1000
0000
,  // measure 10
0010
0010
0010
0000
,  // measure 11
0100
0100
0100
0000
,  // measure 12
0001
0010
0001
0000
,  // measure 13
1000
0100
1000
0000
,  // measure 14
0001
1000
0001
1000
,  // measure 15
0010
0000
0000
0000
,  // measure 16
1001
0000
1000
0100
,  // measure 17
0000
0000
0001
0100
,  // measure 18
0000
0000
1000
0010
,  // measure 19
0000
0000
0001
0010
,  // measure 20
0100
0100
0100
0000
,  // measure 21
1000
0010
1000
0000
,  // measure 22
0001
0001
0001
0000
,  // measure 23
0100
0100
0100
0000
,  // measure 24
0001
1000
0100
0100
,  // measure 25
1000
0001
0100
0000
,  // measure 26
0000
0010
0010
0000
,  // measure 27
0000
0010
0010
0000
,  // measure 28
1000
0010
1000
0001
,  // measure 29
0010
0001
1000
0000
,  // measure 30
0000
0010
0010
0000
,  // measure 31
0000
0010
0010
0000
,  // measure 32
1000
0100
1000
0000
,  // measure 33
0001
0100
0001
0000
,  // measure 34
1000
0001
1000
0000
,  // measure 35
0001
1000
0001
0000
,  // measure 36
1000
1000
0010
0010
,  // measure 37
0200
0300
0200
0300
,  // measure 38
0001
0001
0010
0010
,  // measure 39
0200
0300
0000
0000
,  // measure 40
1001
0000
1000
0000
,  // measure 41
0010
1000
0010
0000
,  // measure 42
1000
0000
0100
0000
,  // measure 43
1000
0001
1000
0000
,  // measure 44
0001
0000
0100
0000
,  // measure 45
0001
0010
0001
0000
,  // measure 46
1000
0000
0010
0000
,  // measure 47
1000
0100
0100
0010
,  // measure 48
0002
0000
1003
0000
,  // measure 49
2000
0000
3001
0000
,  // measure 50
1000
1000
0010
0010
,  // measure 51
0100
0001
0100
0100
,  // measure 52
0002
0000
0003
0000
,  // measure 53
0100
0001
1000
0000
,  // measure 54
0100
0100
0100
0000
,  // measure 55
1000
0100
1000
0000
,  // measure 56
0010
0010
0010
0010
,  // measure 57
1000
1000
1000
0000
,  // measure 58
0100
0100
0100
0100
,  // measure 59
0010
0010
0001
1000
;

//---------------dance-single - ----------------
#NOTEDATA:;
#CHARTNAME:;
#STEPSTYPE:dance-single;
#DESCRIPTION:;
#CHARTSTYLE:;
#DIFFICULTY:Beginner;
#METER:1;
#RADARVALUES:0.094609,0.120641,0.024229,0.000000,0.000000,82.000000,79.000000,3.000000,0.000000,0.000000,0.000000,0.000000,0.000000,0.000000,0.094609,0.120641,0.024229,0.000000,0.000000,82.000000,79.000000,3.000000,0.000000,0.000000,0.000000,0.000000,0.000000,0.000000;
#CREDIT:Ben Speirs;
#NOTES:
// measure 0
0000
0000
0000
0000
,  // measure 1
0000
0000
0000
0000
,  // measure 2
0000
0000
0000
0000
,  // measure 3
0000
0000
0000
0000
,  // measure 4
1000
0000
0000
0000
,  // measure 5
0010
0000
0000
0000
,  // measure 6
0100
0000
0100
0000
,  // measure 7
0100
0000
0000
0000
,  // measure 8
0001
0000
0000
0000
,  // measure 9
1000
0000
0000
0000
,  // measure 10
0010
0000
0000
0000
,  // measure 11
0010
0000
0000
0000
,  // measure 12
0100
0100
0000
0000
,  // measure 13
0100
0000
0000
0000
,  // measure 14
0001
0001
0000
0000
,  // measure 15
0001
0000
0000
0000
,  // measure 16
1001
0000
0000
0000
,  // measure 17
1000
0000
1000
0000
,  // measure 18
1000
0000
0000
0000
,  // measure 19
0010
0000
0010
0000
,  // measure 20
0010
0000
0000
0000
,  // measure 21
0100
0000
0100
0000
,  // measure 22
0100
0000
0000
0000
,  // measure 23
0001
0000
0000
0000
,  // measure 24
0000
0001
0001
0000
,  // measure 25
0000
0001
0001
0000
,  // measure 26
0000
0000
0100
0000
,  // measure 27
0000
0000
0100
0000
,  // measure 28
0000
0010
0010
0000
,  // measure 29
0000
0010
0010
0000
,  // measure 30
0000
0000
1000
0000
,  // measure 31
0000
0000
1000
0000
,  // measure 32
1000
0000
0000
0000
,  // measure 33
0001
0000
0000
0000
,  // measure 34
0100
0000
0000
0000
,  // measure 35
0100
0000
0000
0000
,  // measure 36
0010
0010
0000
0000
,  // measure 37
0010
0000
0000
0000
,  // measure 38
1000
1000
0000
0000
,  // measure 39
1000
0000
0000
0000
,  // measure 40
1001
0000
0000
0000
,  // measure 41
0001
0000
0001
0000
,  // measure 42
0001
0000
0000
0000
,  // measure 43
0100
0000
0100
0000
,  // measure 44
0100
0000
0000
0000
,  // measure 45
0010
0000
0010
0000
,  // measure 46
0010
0000
0000
0000
,  // measure 47
1000
0000
0000
0000
,  // measure 48
1001
0000
0000
0000
,  // measure 49
0010
0000
0000
0000
,  // measure 50
1000
0000
1000
0000
,  // measure 51
0001
0000
0001
0000
,  // measure 52
0100
0000
0000
0000
,  // measure 53
0100
0100
0100
0000
,  // measure 54
0100
0000
0000
0000
,  // measure 55
0100
0000
0000
0000
,  // measure 56
0001
0000
0001
0000
,  // measure 57
0001
0000
0000
0000
,  // measure 58
1000
0000
1000
0000
,  // measure 59
1000
0000
0010
0010
;
