#TITLE:Domino;
#ARTIST:Jessie J;
#FILE:Domino.mp3;
#BPM:127.040;
#GAP:80;
#SAMPLESTART:52.953;
#SAMPLELENGTH:18.600;
#SINGLE:BEGINNER:1:
00000000
00000000
00000000
00000000
60006000
60000000
40004000
40000000
80008000
80000000
20002000
20000000
60000000
40000000
80000000
40000000
20002000
20000000
40004000
40000000
B0000000
80800000
80800000
80000000
A0000000
40400000
40400000
40000000
B0000000
20202000
00000000
40004000
40000000
80808000
00000000
40004000
B0000000
60606000
00000000
80008000
80000000
60606000
00000000
20002000
A0000000
40404000
00000000
80808000
00000000
20202000
00000000
60606000
;
#SINGLE:ANOTHER:7:
00000000
00000000
00000000
008060B0
A!20A04060
80204080
7!40108060
40602820
A!20A04060
80204080
3!20308060
40204080
28206010
60304820
64608010
80A04820
64604020
80602080
A!20A02060
40802606
80204242
40406262
60602828
20804606
40804242
40408282
80802626
20608202
40B!400070
20604040
00B!600090
60208420
00A!8000A0
40602080
007!400070
40608620
003!200A02
06042040
007!400104
08028040
009!600308
04082060
001!400704
06082820
40208060
20804620
80406080
20408460
20804020
80604620
80406080
2048284!40
B0000000
;
#SINGLE:MANIAC:11:
00000000
00000000
00000000
06282640
6!60304080
26848640
(82804!4000B0008000)
62428420
8!80904080
26428620
(84802!2000A0004000)
60806028
46442866
28!8070028
62884644
26280624
(28206!600090002000)
48624640
(26208!800070006000)
20A!807204
60208426
24802846
84806428
603!20A206
80204684
80604868
40604262
40B!603804
20B!407424
82682860
403!60B826
8240AAA0
B!40746828
64868420
A!20A26848
6420BBB0
10A06242
84286480
30108648
26848640
70302826
84824820
84246824
62803130
84262482
68241030
84684864
826037B!40
74286282
64621030
82684864
2860BAB!60
30000000
;
#SINGLE:BASIC:3:
00000000
00000000
00000000
00808080
80002000
60402080
60004000
80402080
60008000
60208040
20004000
80206020
80004000
20402000
40006000
80608000
B0000000
20202020
20004000
80406000
20008040
60008060
40002080
60000000
00002080
40002040
60008060
20000000
A0006000
20408000
40002000
60802000
90002000
40602000
80004000
8020A0A0
60004000
20408000
20006000
80204000
10008000
40602000
60008000
2080A0A0
60004000
80406020
80002000
60802040
80004000
80406020
60004000
8020A0A!20
30000000
;
