#VERSION:0.82;
#TITLE:Chains;
#SUBTITLE:;
#ARTIST:Nick Jonas;
#TITLETRANSLIT:;
#SUBTITLETRANSLIT:;
#ARTISTTRANSLIT:;
#GENRE:Never Break The Chain;
#ORIGIN:;
#CREDIT:;
#BANNER:Chains.png;
#BACKGROUND:Chains-bg.png;
#PREVIEWVID:;
#JACKET:jacket.png;
#CDIMAGE:;
#DISCIMAGE:;
#LYRICSPATH:;
#CDTITLE:;
#MUSIC:Chains.ogg;
#OFFSET:0.010000;
#SAMPLESTART:58.404003;
#SAMPLELENGTH:16.533998;
#SELECTABLE:YES;
#BPMS:0.000=76.000;
#STOPS:;
#DELAYS:;
#WARPS:;
#TIMESIGNATURES:0.000=4=4;
#TICKCOUNTS:0.000=4;
#COMBOS:0.000=1;
#SPEEDS:0.000=1.000=0.000=0;
#SCROLLS:0.000=1.000;
#FAKES:;
#LABELS:0.000=Song Start;
#BGCHANGES:4.000=Chains.avi=1.000=0=0=1=====,
99999=-nosongbg-=1.000=0=0=0 // don't automatically add -songbackground-
;
#KEYSOUNDS:;
#ATTACKS:
;

//---------------dance-single - ----------------
#NOTEDATA:;
#CHARTNAME:;
#STEPSTYPE:dance-single;
#DESCRIPTION:;
#CHARTSTYLE:;
#DIFFICULTY:Hard;
#METER:8;
#RADARVALUES:0.472794,0.515079,0.178685,0.287450,0.454482,366.000000,23.000000,37.000000,0.000000,0.000000,0.000000,0.000000,0.000000,0.472794,0.515079,0.178685,0.287450,0.454482,366.000000,23.000000,37.000000,0.000000,0.000000,0.000000,0.000000,0.000000;
#CREDIT:Ben Speirs;
#NOTES:
// measure 0
0000
0000
0000
0000
,  // measure 1
0000
0000
0000
0000
,  // measure 2
0001
0000
0001
0000
0100
0000
0100
0000
0001
0000
1000
0100
0010
0002
0000
0000
,  // measure 3
1003
0000
0000
0000
0001
0000
0100
0000
0000
0000
0010
0000
1000
0001
0000
0000
,  // measure 4
1000
0000
1000
0100
0010
0000
0010
0001
1000
0000
0001
0010
0100
2000
0000
0000
,  // measure 5
3001
0000
0000
0000
1000
0000
0010
0000
0000
0000
0100
0000
0001
1000
0000
0000
,  // measure 6
1100
0000
0100
1000
0001
0000
0101
0000
0100
0000
0010
0000
1000
0001
1000
0000
,  // measure 7
1001
0000
0000
0000
0010
0000
1010
0000
0000
0000
0011
0000
1000
0100
0010
0000
,  // measure 8
0011
0000
0010
0001
1000
0000
1010
0000
0010
0000
0100
0000
0001
1000
0001
0000
,  // measure 9
1001
0000
0000
0000
0100
0000
0101
0000
0000
0000
1100
0000
0001
0010
0100
1000
,  // measure 10
0020
0000
0100
0000
0130
0000
0010
0000
1000
0000
0100
0000
0010
0001
1000
0000
,  // measure 11
0020
0000
0100
0000
0230
0000
0302
0000
1003
0000
0100
0000
0010
0001
0010
0000
,  // measure 12
0002
0000
0100
0000
0203
0000
0310
0000
1000
0000
0001
0000
1000
0100
1000
0000
,  // measure 13
0001
0010
0001
0010
0100
0000
1000
0010
1000
0000
0001
0000
1000
0100
1000
0000
,  // measure 14
0101
0000
0100
0010
1000
0000
1000
0100
0010
0000
0010
0001
1000
0000
1000
0010
,  // measure 15
0100
0000
0100
0001
0010
0000
0010
0100
1000
0000
1000
0001
0010
0000
0010
0000
,  // measure 16
0011
0000
1100
0000
0001
1000
0001
0000
1010
0000
0101
0000
1000
0001
1000
0000
,  // measure 17
0010
0100
0010
0100
0001
1000
0001
1000
0200
0000
0310
0000
0001
0010
0100
1000
,  // measure 18
0002
0000
0000
0003
,  // measure 19
1100
0100
1000
0001
0100
0100
0010
1000
0001
0001
0010
0001
2000
0000
3010
0000
,  // measure 20
0101
0100
0010
1000
0100
0100
0010
0001
1000
1000
0010
1000
0002
0000
0013
0000
,  // measure 21
1100
0100
1000
0001
0100
0100
0010
1000
0001
0001
0010
0001
2000
0000
3010
0000
,  // measure 22
0110
0100
0010
1000
0200
0000
0310
0001
2000
0000
3010
0100
0002
0000
2003
0000
,  // measure 23
3100
0010
0100
0010
0001
0010
0001
0010
0100
1000
0100
1000
0002
0000
0103
0000
,  // measure 24
0010
1000
0010
1000
0001
0100
0001
0100
0001
1000
0001
1000
0200
0000
0310
0000
,  // measure 25
0001
0010
0100
1000
0020
0000
1030
0001
0200
0000
0310
1000
0200
0000
0310
0000
,  // measure 26
0001
0010
0100
1000
0010
0100
0001
1000
0001
0000
0000
0000
0000
0000
0000
0000
,  // measure 27
1000
0100
0001
0100
1000
0000
0100
1000
0010
0000
1000
0010
0100
0001
1000
0000
,  // measure 28
0001
0010
1000
0010
0001
0000
0010
0001
0100
0000
0001
0100
0010
1000
0001
0000
,  // measure 29
1000
0100
1000
0001
0100
0000
0010
1000
0010
0000
1000
0001
2000
0000
0000
0000
,  // measure 30
3001
0000
0100
0010
0100
0000
0010
1000
0001
0000
0000
0000
0000
0000
0000
0000
,  // measure 31
2002
0000
0000
0000
0000
0000
0000
0000
3003
0000
0000
0000
0010
1000
0010
0000
,  // measure 32
2002
0000
0000
0000
0000
0000
0000
0000
3003
0000
0000
0000
0010
0001
0010
0000
,  // measure 33
0002
0000
0100
0000
0203
0000
0010
0000
0320
0000
0000
0000
1030
0100
0010
0001
,  // measure 34
2000
0000
0000
0000
3020
0000
0000
0000
0230
0000
0000
0000
0301
1000
0001
0000
,  // measure 35
1000
1000
0100
1000
1002
0000
0000
0000
0103
0000
0010
1000
0010
0100
0000
0100
,  // measure 36
0002
0000
0000
0000
1003
0100
0000
0100
0010
0000
0001
0000
1000
0010
1000
0000
,  // measure 37
0001
0001
0010
0001
2001
0000
0000
0000
3010
0000
0100
0001
0100
0010
0000
0010
,  // measure 38
2000
0000
0000
0000
3001
0010
0000
0010
0100
0000
1000
0000
0001
0100
0001
1000
,  // measure 39
0100
0000
0000
0000
;

//---------------dance-double - ----------------
#NOTEDATA:;
#CHARTNAME:;
#STEPSTYPE:dance-double;
#DESCRIPTION:;
#CHARTSTYLE:;
#DIFFICULTY:Challenge;
#METER:8;
#RADARVALUES:0.461696,0.515079,0.139841,0.372908,0.403984,350.000000,18.000000,48.000000,0.000000,0.000000,0.000000,0.000000,0.000000,0.461696,0.515079,0.139841,0.372908,0.403984,350.000000,18.000000,48.000000,0.000000,0.000000,0.000000,0.000000,0.000000;
#CREDIT:Ben Speirs;
#NOTES:
00000000
00000000
00000000
00000000
,
00000000
00000000
00000000
00000000
,
10000000
00000000
10000000
00000000
01000000
00000000
01000000
00000000
10000000
00000000
00010000
00100000
01000000
20000000
00000000
00000000
,
30010000
00000000
00000000
00000000
00100000
00000000
00001000
00000000
00000000
00000000
00001000
00000000
00000000
00010000
00000000
00000000
,
00000100
00000000
00000100
00000000
00001000
00000000
00001000
00000000
00000001
00000000
00001000
00000100
00000010
00000002
00000000
00000000
,
00001003
00000000
00000000
00000000
00000010
00000000
00000100
00000000
00000000
00000000
00000100
00000000
00000000
00000010
00000000
00000000
,
00001001
00000000
00001000
00000000
00000100
00000000
00000110
00000000
00000010
00000000
00000011
00000000
00000001
00001000
00000001
00000000
,
00002000
00000000
00000000
00000000
00003100
00000000
00011000
00000000
00000000
00000000
00010100
00000000
00000000
00100000
00000000
00000000
,
00101000
00000000
00010000
00100000
00010000
00000000
01000000
00010000
01000000
00000000
00010000
10000000
00010000
10000000
00000000
00000000
,
11000000
00000000
00000000
00000000
00100000
00000000
10100000
00000000
00000000
00000000
00110000
00000000
00000000
10010000
00000000
00000000
,
00100000
00000000
00100000
00000000
10000000
00000000
10000000
00000000
01000000
00000000
01000000
00000000
10000000
00010000
10000000
00000000
,
00100000
00000000
00100000
00000000
01000000
00000000
01000000
00000000
00010000
00000000
00010000
00000000
00100000
00010000
00100000
00010000
,
20000000
00000000
00000000
00000000
31000000
00000000
00010000
00000000
00001000
00000000
00000100
00000000
00000001
00000100
00000001
00000100
,
00000020
00000000
00000000
00000000
00002030
00000000
00000000
00000000
00003100
00000000
00000010
00000000
00000001
00001000
00000001
00000000
,
00001000
00000100
00001000
00000100
00000020
00000000
00000000
00000000
00000031
00000000
00001000
00000000
00000010
00000000
00000100
00000000
,
00000001
00001000
00000001
00001000
00000200
00000000
00000000
00000000
00010300
00000000
00000100
00000000
00010000
00001000
00010000
00000000
,
00001000
00100000
00001000
00100000
00020000
00000000
00000000
00000000
01030000
00000000
00100000
00000000
10000000
00010000
10000000
00000000
,
02000000
00000000
00100000
00000000
03200000
00000000
00010000
00000000
00320000
00000000
01030000
00000000
00100000
01000000
00100000
00000000
,
01010000
00000000
00000000
00000000
,
10000000
10000000
01000000
00010000
01000000
01000000
00010000
00001000
00010000
00010000
00001000
00000100
00000001
00000001
00002000
00000000
,
00003001
00000001
00000010
00001000
00000010
00000010
00001000
00010000
00100000
00100000
00010000
00100000
10000000
01000000
00100000
00000000
,
00010000
00100000
00010000
00100000
00001000
00010000
00001000
00010000
00000100
00001000
00000100
00001000
00000010
00000100
00000002
00000000
,
00001003
00000100
00001000
00000100
00020000
00000000
00031000
00100000
00020000
00000000
01030000
00100000
20000000
00000000
30020000
00000000
,
10030000
10000000
01000000
10000000
11000000
00000000
00100000
10000000
00010000
00000000
00100000
00010000
01000000
00000000
00100000
00000000
,
01000000
01000000
00010000
00100000
00110000
00000000
00100000
00001000
00010000
00000000
00010000
00000100
00001000
00000000
00000010
00000000
,
00000100
00000100
00000010
00001000
00000100
00000100
00000010
00000001
00001000
00001000
00000010
00001000
00000001
00000001
00000100
00000000
,
00000010
00001000
00000010
00000100
00000001
00001000
00000100
00000010
00000002
00000000
00000000
00000000
00000000
00000000
00000000
00000000
,
00001003
00000100
00000001
00000100
00002000
00000000
00003100
00010000
00002000
00000000
00013000
00001000
00100000
00010000
10000000
00000000
,
00010000
01000000
10000000
01000000
00020000
00000000
10030000
01000000
00200000
00000000
00310000
00100000
00001000
00010000
00000200
00000000
,
00001300
00000100
00001000
00000100
00000020
00000000
00000031
00001000
00000002
00000000
00000103
00000010
00000100
00000010
00002000
00000000
,
00003200
00020300
00032000
00203000
00302000
00000000
00003000
00000000
,
20020000
00000000
30030000
00000000
10000000
00010000
00001000
00000001
,
00002002
00000000
00003003
00000000
00000001
00001000
00010000
10000000
,
02000000
00000000
00100000
00000000
03200000
00000000
00010000
00000000
00320000
00000000
00000000
00000000
10030000
01000000
10000000
00000000
,
00020000
00000000
00000000
00000000
02030000
00000000
00000000
00000000
03200000
00000000
00000000
00000000
10300000
00010000
10000000
00000000
,
00010000
00010000
01000000
00010000
01020000
00000000
00000000
00000000
10030000
00000000
01000000
00000000
00010000
00001000
00010000
00000000
,
00001000
00001000
00010000
00000100
00010200
00000000
00000000
00000000
00001300
00000100
00001000
00000000
00000010
00001000
00000010
00000000
,
00000100
00000100
00000001
00000100
00000102
00000000
00000000
00000000
00001003
00000100
00001000
00000000
00000001
00000000
00000010
00000000
,
00000001
00001000
00000001
00001000
00000200
00000000
00010300
00000100
00020000
00000000
00032000
00000000
00103000
00010000
01000000
00100000
,
10000000
00000000
00000000
00000000
;

//---------------dance-single - ----------------
#NOTEDATA:;
#CHARTNAME:;
#STEPSTYPE:dance-single;
#DESCRIPTION:;
#CHARTSTYLE:;
#DIFFICULTY:Medium;
#METER:5;
#RADARVALUES:0.264143,0.302988,0.100996,0.233068,0.015538,195.000000,13.000000,30.000000,0.000000,0.000000,0.000000,0.000000,0.000000,0.264143,0.302988,0.100996,0.233068,0.015538,195.000000,13.000000,30.000000,0.000000,0.000000,0.000000,0.000000,0.000000;
#CREDIT:Ben Speirs;
#NOTES:
0000
0000
0000
0000
,
0000
0000
0000
0000
,
0001
0010
0001
0000
1000
0000
0020
0000
,
0130
0000
0001
1000
0000
1000
0001
0000
,
1000
0100
1000
0000
0001
0000
0200
0000
,
0310
0000
1000
0001
0000
0001
1000
0000
,
0101
0000
0000
0000
0000
0000
1010
0000
0000
0000
0001
0000
0000
1000
0000
0000
,
1100
0000
0001
1000
0000
1000
0001
0000
,
1010
0000
0000
0000
0000
0000
0101
0000
0000
0000
1000
0000
0000
0001
0000
0000
,
0011
0000
1000
0001
0000
0001
1000
0000
,
0110
0010
1000
1000
0001
0000
1000
0000
,
0100
0100
0010
0010
0001
0000
0100
0000
,
0010
0010
1000
1000
0001
0000
0010
0000
,
0002
2003
3020
0130
,
0001
0100
0010
1000
0001
0000
0100
0000
,
0010
0000
1000
0100
0010
0000
0001
0000
,
1000
0100
1000
0010
0100
0000
0001
0000
,
2000
3002
0203
0310
,
1001
0000
0000
0000
,
0001
0100
0001
1000
0001
0010
0001
0000
,
1000
0100
1000
0001
1000
0010
1000
0000
,
0001
0001
1000
1000
0010
0100
0001
0000
,
1000
0100
1000
0100
0010
0010
0010
0000
,
0002
0010
0023
0000
0130
1000
0001
0000
,
2000
0010
3020
0000
0130
0001
1000
0000
,
0200
0010
0320
0001
0032
1000
2003
0000
,
3010
0100
0010
1000
0001
0000
0000
0000
,
0001
0100
0010
0100
0001
1000
0100
0000
,
1000
0100
0010
0100
1000
0001
1000
0000
,
0020
0000
0130
0000
0001
1000
0001
0000
,
0020
0230
1300
0000
,
2002
3003
0010
0010
,
2002
3003
0100
0100
,
0002
0013
0200
1300
,
0010
1000
0001
1000
0200
0000
0310
0000
,
0001
0100
0000
0000
1001
0000
0000
0000
0010
0000
1000
0000
0001
0000
0000
0000
,
2000
0000
3100
0010
0002
0000
1003
0000
,
0010
1000
0000
0000
1001
0000
0000
0000
1000
0000
0001
0000
0100
0000
0000
0000
,
0020
0000
2030
0000
3100
0010
0001
0000
,
1100
0000
0000
0000
;

//---------------dance-single - ----------------
#NOTEDATA:;
#CHARTNAME:;
#STEPSTYPE:dance-single;
#DESCRIPTION:;
#CHARTSTYLE:;
#DIFFICULTY:Easy;
#METER:3;
#RADARVALUES:0.157598,0.181793,0.069920,0.155378,0.000000,113.000000,9.000000,20.000000,0.000000,0.000000,0.000000,0.000000,0.000000,0.157598,0.181793,0.069920,0.155378,0.000000,113.000000,9.000000,20.000000,0.000000,0.000000,0.000000,0.000000,0.000000;
#CREDIT:Ben Speirs;
#NOTES:
0000
0000
0000
0000
,
0000
0000
0000
0000
,
1000
0010
0100
0100
,
0001
0000
1000
0000
,
0001
0100
0010
0010
,
1000
0000
0001
0000
,
1001
0000
0000
0010
0000
0010
0000
0000
,
1001
0000
0000
0100
0000
0100
0000
0000
,
0110
0000
0000
1000
0000
1000
0000
0000
,
0110
0000
0000
0001
0000
0001
0000
0000
,
2002
3003
0100
1000
,
0010
0010
0100
0100
,
0002
0003
1000
0000
,
0010
0010
0100
0100
,
2002
3003
0001
1000
,
0020
0030
0010
1000
,
0200
0300
0010
0000
,
0001
1000
0020
0030
,
1001
0000
0000
0000
,
1000
0100
0010
0010
,
1000
0100
0010
0010
,
1000
0100
0010
0010
,
2000
0000
3000
0000
,
0001
0010
0100
0100
,
0001
0010
0100
0100
,
0001
0010
0100
0100
,
0002
0003
2000
3000
,
0010
0010
1000
0001
,
0010
0010
0001
1000
,
0200
0300
0010
0010
,
0002
0003
1000
0000
,
2002
3003
0010
0000
,
2002
3003
0100
0000
,
0001
0000
1000
0000
,
0010
0010
0100
0100
,
0002
0003
1000
0001
,
2000
3000
0010
0100
,
0002
0003
1000
0001
,
0010
0010
0100
1000
,
0001
0000
0000
0000
;

//---------------dance-single - ----------------
#NOTEDATA:;
#CHARTNAME:;
#STEPSTYPE:dance-single;
#DESCRIPTION:;
#CHARTSTYLE:;
#DIFFICULTY:Beginner;
#METER:1;
#RADARVALUES:0.094337,0.106046,0.031076,0.000000,0.000000,81.000000,4.000000,0.000000,0.000000,0.000000,0.000000,0.000000,0.000000,0.094337,0.106046,0.031076,0.000000,0.000000,81.000000,4.000000,0.000000,0.000000,0.000000,0.000000,0.000000,0.000000;
#CREDIT:Ben Speirs;
#NOTES:
0000
0000
0000
0000
,
0000
0000
0000
0000
,
0010
0000
0010
0000
,
0100
0000
0000
0000
,
0001
0000
0001
0000
,
1000
0000
0000
0000
,
0100
0000
0100
0100
,
0100
0000
0000
0000
,
1000
0000
1000
1000
,
1000
0000
0000
0000
,
1001
0000
0000
0001
,
0001
0000
0000
1000
,
1000
0000
0000
0000
,
0010
0010
0010
0000
,
1001
0000
0000
0100
,
0100
0000
0000
0010
,
0010
0000
0000
0000
,
1000
1000
1000
0000
,
0001
0000
0000
0000
,
0010
0010
0000
0010
,
0100
0100
0100
0000
,
0001
0001
0000
0001
,
1000
1000
1000
0000
,
0010
0000
1000
0000
,
0100
0000
0010
0010
,
0010
0000
0001
0000
,
1000
1000
1000
0000
,
0001
0000
0100
0100
,
0100
0000
0010
0010
,
0010
0000
1000
0000
,
0001
0000
0100
0000
,
1001
0000
0000
0000
,
0010
0000
0010
0000
,
1000
0000
0000
0000
,
0001
0001
0001
0000
,
1001
0000
1000
0000
,
0100
0100
0100
0000
,
1000
0000
0001
0000
,
0100
0100
0100
0000
,
0010
0000
0000
0000
;
