#VERSION:0.82;
#TITLE:Uma Thurman;
#SUBTITLE:[DDR ADDICT VER.];
#ARTIST:Fall Out Boy;
#TITLETRANSLIT:;
#SUBTITLETRANSLIT:;
#ARTISTTRANSLIT:;
#GENRE:Poison Ivy;
#ORIGIN:;
#CREDIT:;
#BANNER:Uma Thurman.png;
#BACKGROUND:Uma Thurman-bg.png;
#PREVIEWVID:;
#JACKET:jacket.png;
#CDIMAGE:;
#DISCIMAGE:;
#LYRICSPATH:;
#CDTITLE:;
#MUSIC:../Uma Thurman/Uma Thurman.ogg;
#OFFSET:0.010000;
#SAMPLESTART:102.384087;
#SAMPLELENGTH:13.714000;
#SELECTABLE:YES;
#BPMS:0.000=150.000,
240.000=75.000,
248.000=150.000;
#STOPS:;
#DELAYS:;
#WARPS:;
#TIMESIGNATURES:0.000=4=4;
#TICKCOUNTS:0.000=4;
#COMBOS:0.000=1;
#SPEEDS:0.000=1.000=0.000=0;
#SCROLLS:0.000=1.000;
#FAKES:;
#LABELS:0.000=Song Start;
#BGCHANGES:8.000=../Uma Thurman/Uma Thurman.mp4=1.000=1=0=1===CrossFade==,
99999=-nosongbg-=1.000=0=0=0 // don't automatically add -songbackground-
;
#KEYSOUNDS:;
#ATTACKS:
;

//---------------dance-single - ----------------
#NOTEDATA:;
#CHARTNAME:;
#STEPSTYPE:dance-single;
#DESCRIPTION:;
#CHARTSTYLE:;
#DIFFICULTY:Challenge;
#METER:9;
#RADARVALUES:0.687057,0.973281,0.444756,0.226147,0.244993,549.000000,59.000000,30.000000,0.000000,0.000000,0.000000,0.000000,0.000000,0.687057,0.973281,0.444756,0.226147,0.244993,549.000000,59.000000,30.000000,0.000000,0.000000,0.000000,0.000000,0.000000;
#CREDIT:DDR Addict;
#NOTES:
// measure 0
0000
0000
0000
0000
,  // measure 1
0000
0000
0000
0000
,  // measure 2
0000
0000
0000
0000
,  // measure 3
0000
0000
0000
0000
0000
0000
0000
0100
,  // measure 4
0010
0000
0010
0000
0011
0000
0001
1000
,  // measure 5
0000
0010
1000
0000
0010
0100
0001
0000
,  // measure 6
2001
0000
0000
3000
1200
0000
0000
0300
,  // measure 7
0201
0000
0000
0300
0110
0000
0000
0000
,  // measure 8
0010
0000
0001
0001
1000
0010
1000
0000
,  // measure 9
0010
0000
0000
0000
0100
0000
0000
0000
0001
0000
0000
0000
0001
0000
0000
0000
1000
0000
0000
0000
0100
0000
0000
0000
0001
0100
0000
0000
0010
0000
0000
0000
,  // measure 10
0001
0000
0000
0000
0000
0000
0000
0000
0010
0000
0000
0000
0100
0000
0000
0000
1000
0001
0000
0000
0100
0000
0000
0000
0010
0000
0000
0000
0000
0000
0000
0000
,  // measure 11
0120
0000
1000
1000
1030
0010
1000
1000
,  // measure 12
1100
0011
0101
1010
,  // measure 13
0110
0000
1001
0000
0011
0000
1100
0100
,  // measure 14
0010
0010
0010
0010
0001
0001
0001
0001
,  // measure 15
1000
0010
1000
0010
1000
0010
1000
0010
1000
0001
1000
0001
0010
0100
0010
0100
,  // measure 16
1000
0010
0010
1000
0001
0000
0010
0000
,  // measure 17
0001
0000
0010
0010
0200
1300
0100
0000
,  // measure 18
1000
1000
0010
1000
0001
0010
0100
0000
,  // measure 19
0020
0000
0031
0010
0001
0100
0120
0000
,  // measure 20
1030
0010
0010
1000
0001
0000
0010
0000
,  // measure 21
0012
0000
0203
0000
1300
0100
0001
1000
,  // measure 22
0100
0000
0010
0100
1000
0010
0100
0000
,  // measure 23
1020
0000
0030
0011
0000
1010
0000
1000
,  // measure 24
0101
0000
0000
0001
1100
0000
1000
0001
,  // measure 25
0010
0010
0000
1200
0302
0000
0103
1000
,  // measure 26
0010
0000
0100
0100
0001
1000
0001
0000
,  // measure 27
0012
0100
0000
1003
0001
1000
0200
0310
,  // measure 28
0100
0000
1000
0100
1000
0000
0001
0100
,  // measure 29
1000
0100
0010
1000
0002
0000
0013
0011
,  // measure 30
0000
0100
0000
0011
0000
0100
1000
1000
,  // measure 31
0001
0100
0001
0000
1000
0010
0100
0001
,  // measure 32
1000
1000
1000
1000
1000
0010
0010
0010
,  // measure 33
0100
0100
0100
0100
0100
1000
1000
1000
,  // measure 34
0001
0001
0001
0001
0001
0010
0010
0010
,  // measure 35
1000
1000
1000
1000
1000
0001
0001
0001
,  // measure 36
0011
0010
0010
0010
0010
0110
0100
0100
,  // measure 37
1100
1000
1000
1000
1000
1001
0001
0001
,  // measure 38
0100
0100
0100
0100
0100
0010
0010
0010
,  // measure 39
1000
1000
1000
1000
1000
0100
0100
0100
,  // measure 40
0001
0000
0100
0100
0010
0001
1000
0000
,  // measure 41
0010
0000
0000
0000
0100
0000
0000
0000
0010
0000
0000
0000
0010
0000
0000
0000
1000
0000
0000
0000
0001
0000
0000
0000
0010
0001
0000
0000
0100
0000
0000
0000
,  // measure 42
0010
0000
0000
0000
0000
0000
0000
0000
1000
0000
0000
0000
0010
0000
0000
0000
0100
0001
0000
0000
1000
0000
0000
0000
0100
0000
0000
0000
0000
0000
0000
0000
,  // measure 43
0120
0000
0001
0031
0010
0001
1000
1000
,  // measure 44
1010
0101
0011
1100
,  // measure 45
1001
0000
0110
0000
0011
0000
1100
1000
,  // measure 46
0100
0100
0100
0100
0010
0010
0010
0010
,  // measure 47
0001
0010
0001
0010
0001
0010
0001
0010
0001
1000
0001
1000
0010
0100
0010
0100
,  // measure 48
0001
0100
0100
0001
1000
0000
0100
0000
,  // measure 49
1100
0000
1000
1000
0020
0130
0010
0000
,  // measure 50
1000
1000
0001
0010
0100
0001
1000
0000
,  // measure 51
1020
0000
0000
0031
0010
0001
2100
0000
,  // measure 52
3001
1000
1000
0010
0100
0000
0010
0000
,  // measure 53
1010
0000
1000
1000
0001
0010
0100
0010
,  // measure 54
0001
0000
0100
0100
0001
1000
0100
0000
,  // measure 55
0010
0100
0010
0100
0010
0100
0010
0100
0010
0001
0010
0001
0100
0010
0100
0010
,  // measure 56
1000
0000
1010
1000
0001
0000
0011
0001
,  // measure 57
1000
1000
0100
0010
0210
0000
1300
0100
,  // measure 58
1000
0000
0001
0000
0100
0001
0100
0000
,  // measure 59
0120
1000
0000
0130
0010
1000
0100
0000
,  // measure 60
0110
0000
0010
0000
0011
0000
0001
0000
1001
0000
1000
0010
0110
0000
0100
0000
,  // measure 61
0001
0000
0000
0000
1000
0000
0100
0000
0110
0000
0000
0000
0100
0000
0000
0000
1100
0000
0000
1000
0001
0000
0100
0000
0001
0000
0100
0000
0010
0000
1000
0000
,  // measure 62
0001
0010
0100
0010
0001
1000
1001
1000
,  // measure 63
1010
0010
0100
0001
1000
1000
0100
0001
,  // measure 64
0101
0100
2000
0010
0100
3100
1000
0010
,  // measure 65
0210
0000
0001
0310
0100
0010
1000
0002
,  // measure 66
0010
0000
1000
0000
0103
0001
0010
0100
,  // measure 67
0010
0000
0100
0000
1000
1000
0020
1030
,  // measure 68
2000
0000
3001
1000
0002
0000
0013
0001
,  // measure 69
0010
0100
0010
0100
0010
0000
0100
0000
2000
0000
0100
0000
3001
0000
0000
0000
,  // measure 70
1100
0000
1000
1000
0010
1000
0001
0000
,  // measure 71
0010
0000
0000
0000
0100
0000
0000
0000
0010
0000
0000
0000
0010
0000
0000
0000
0001
0000
0000
0000
1000
0000
0000
0000
0010
1000
0000
0000
0001
0000
0000
0000
,  // measure 72
0100
0000
0000
0000
0000
0000
0000
0000
0001
0000
0000
0000
1000
0000
0000
0000
0100
0010
0000
0000
0100
0000
0000
0000
1000
0000
0000
0000
0000
0000
0000
0000
,  // measure 73
1020
0000
0100
0130
0010
1000
0001
0001
,  // measure 74
0011
0000
0010
0100
0010
0100
0010
0100
1000
0001
1000
0001
0100
0001
0100
0001
,  // measure 75
0010
0000
0100
1000
0100
1000
0100
1000
0001
0100
0001
0100
0010
0100
0010
0100
,  // measure 76
0001
0000
1000
0010
1000
0010
1000
0010
0100
0010
0100
0010
1000
0001
1000
0001
,  // measure 77
0010
0001
0010
0100
1000
0010
1000
0100
0010
0001
0010
0100
2000
0000
0000
0000
,  // measure 78
0000
3000
0000
0000
;
