#TITLE:YAKUSOKU (kanon_tr10 speed remix);
#ARTIST:cranky;
#FILE:yakusoku_tr10.mp3;
#BPM:170.000;
#GAP:895;
#SAMPLESTART:30.500;
#SAMPLELENGTH:12.000;
#CDTITLE:jx.png;
#SINGLE:SMANIAC:12:
00000000
B0206040
604028(26)0
10802060
40B07913
B(42)409(62)60
(82)8A046(86)0
(4282)40(6828)60
B24(28)[682]437
B270(34)290
(3848)67(29)013
B830(A640)90
(B2624868)4A(61)0
7610(B280)30
(7286)83(82)097
(3828)60(1868)B0
B(27)0AB(83)0A
(B2)4!4(76861816)A6
(18)6!6(B8483438)18
(38)2!2(34649294)34
(A6)8!8(7242)7!7[007]3!3[003]
(B2)6!6(94849294)34
(38)4!4(16267276)16
(72)8!8(9848B2B8)38
(BABA)B(7373)7BB
783[828]68B[824]
267[286]84A[428]
627[268]643[842]
42B[286]1(03)0(B8)
(428262)[428](682684)[286]
(848626)[824](282482)[868]
(248262)[426](248684)[286]
(82629242B8483828)
B19A!A0000
00[00A](AB)A!A[00A]0(AB)
3!30[003]33(07!7)[007]3
3!30[003](73)7!7007
7!70[007](7B)A(09)0B
B!B0[00B](BA)B!B[00B]7!7[007]
9!90[009]1!10[001]A!A[00A]
B!B0[00B]7!70[007]3!3[003]
(720B20B803801860)
(A40A60160720B280)
(B20940A601803840)
(B00720904A003070)
(160A40940A60B240)
(920B80160760A480)
(B80380160A403820)
(B00A409027001090)
B0209040
308B(27)091
B240(38)280
789049(27)0
B270(9240)30
(B820)91(83)073
(7262)90(B8242868)
B28(48)[684262]48
(B824282682426242)
(7684862428682862)
(B286286864282486)
(A4846262B0070038)
(B242862682424286)
(A486842624868428)
(B262682428682486)
(1686A4643828B282)
(B20720B80380B240)
(380160A40920B820)
(B80180340380B260)
(B00720902B007030)
(160A60920760A460)
(720B80160720B280)
(B20B80160A403860)
(B00A601083009010)
(B2)4!4(76861816)A6
(38)2!2(18283438)B2
(B28B82B28B82B282)
B00000000
;
#SINGLE:MANIAC:10:
00000000
B0802040
802042(86)0
10802060
40802288
B2607280
1860A4(86)0
92403860
B28(6824)246
B260(46)430
7286(24)0A6
B820(82)4A0
(4282)4828(24)0
B240(28)270
3824(28)0B2
B860(4628)B0
B(02)043(08)06
(82)8!8(76464848)26
(48)2!2(32626464)68
(64)8!8(A6268686)42
(68)4!4(7484)6!6[006]2!2[002]
(42)4!4(72826262)84
(62)6!6(34242626)28
(46)4!4(B8682828)62
(4646)4(2828)2BB
4286!60000
006(82)8!80(0828)
6!60[006]2(4!4042!202)6
8!80[008](24)2!2002
4!40[004](286!6068!808)2
4!40[004](828!80082!2002)
(6!6000062!2000028!8008)
(4!4000048!8000000080)
(4!40046!60068!80082!2002)
(4!4000048!8000084!4004)
(2!2000026!6000062!2002)
(8!8000082!2000024!4004)
(6!6000062!2000028!8008)
(4!4000048!8000084!4004)
(6!6000062!2000026!6006)
(8!8000084!4000042!2002)
(B2028086064040A0)
(6202404808202070)
(2606808404202090)
(B002007006001080)
(B808202404808030)
(42028086062020B0)
(26068082024040A0)
(B008001006007020)
B0206040
2084(28)034
A0406020
608024(28)0
B280(6840)80
6824(28)628
4280(6828)60
B28(4868)428
(6824202868206240)
(6848606282608640)
(8242806242604860)
(68242868200B00A0)
(4242868426248680)
(4286868248684860)
(6824682426248680)
(4646282842868286)
(72026068084040A0)
(6202808404202070)
(2606404808202090)
(B002007006001080)
(B808404202808030)
(42026068082020B0)
(26062028084040A0)
(B008001006007020)
(42)4!4(72826262)84
(62)6!6(B8484646)82
(B00100900A007030)
B00000000
;
