#VERSION:0.82;
#TITLE:Heartbeat Song;
#SUBTITLE:;
#ARTIST:Kelly Clarkson;
#TITLETRANSLIT:;
#SUBTITLETRANSLIT:;
#ARTISTTRANSLIT:;
#GENRE:What's a Heartbeat Song seriously;
#ORIGIN:;
#CREDIT:;
#BANNER:Heartbeat Song.png;
#BACKGROUND:Heartbeat Song-bg.png;
#PREVIEWVID:;
#JACKET:jacket.png;
#CDIMAGE:;
#DISCIMAGE:;
#LYRICSPATH:;
#CDTITLE:;
#MUSIC:Heartbeat Song.ogg;
#OFFSET:-0.822000;
#SAMPLESTART:53.192051;
#SAMPLELENGTH:13.714000;
#SELECTABLE:YES;
#BPMS:0.000=149.000;
#STOPS:;
#DELAYS:;
#WARPS:;
#TIMESIGNATURES:0.000=4=4;
#TICKCOUNTS:0.000=4;
#COMBOS:0.000=1;
#SPEEDS:0.000=1.000=0.000=0;
#SCROLLS:0.000=1.000;
#FAKES:;
#LABELS:0.000=Song Start;
#BGCHANGES:8.000=Heartbeat Song.avi=1.000=0=0=1=====,
99999=-nosongbg-=1.000=0=0=0 // don't automatically add -songbackground-
;
#KEYSOUNDS:;
#ATTACKS:
;

//---------------dance-single - ----------------
#NOTEDATA:;
#CHARTNAME:;
#STEPSTYPE:dance-single;
#DESCRIPTION:;
#CHARTSTYLE:;
#DIFFICULTY:Hard;
#METER:8;
#RADARVALUES:0.516862,0.571736,0.282659,0.047110,0.018844,349.000000,30.000000,5.000000,0.000000,0.000000,0.000000,0.000000,0.000000,0.516862,0.571736,0.282659,0.047110,0.018844,349.000000,30.000000,5.000000,0.000000,0.000000,0.000000,0.000000,0.000000;
#CREDIT:Ben Speirs;
#NOTES:
0000
0000
0000
0000
,
0000
0000
0000
0000
,
0000
0000
0000
0000
,
0000
0000
0000
0000
0000
0000
0000
0010
,
0000
0010
0000
0010
0000
0010
0000
1010
,
0000
0101
0000
1000
0000
0000
0100
0010
,
0000
0010
0000
0011
0000
1100
0000
2002
,
0000
0000
0000
0000
,
3003
0000
0000
0000
,
0010
0101
1000
0010
,
1000
0100
0010
0001
1000
0010
0100
0000
,
0001
0000
1010
0000
0100
0000
0001
0010
,
0100
1000
0010
1000
0001
0000
0100
0010
,
1000
1100
0001
1000
,
0010
1000
0100
0010
0001
1000
0010
0000
,
1001
0000
1000
0100
0000
0100
0010
0001
,
1000
0000
0010
0000
1000
0001
1000
0100
,
0100
2010
3001
0100
,
0001
0010
0100
1000
0001
0100
0010
0000
,
1000
0000
0201
0000
0310
0000
1000
0100
,
0010
0001
0100
0001
1000
0000
0010
0100
,
0001
0012
1003
0001
,
0100
0001
0010
0100
1000
0001
0100
0000
,
1001
0000
0001
0010
0000
0010
0100
1000
,
0001
0000
0100
0000
0001
1000
0010
0100
,
0100
0000
0000
0001
0000
0000
0101
0000
,
0000
0001
0000
1000
0100
1000
0001
0000
,
0010
0000
0000
0001
0000
0000
1100
0000
,
0000
0001
0000
0100
0100
0010
1000
0000
,
0001
0000
0000
1000
0000
0000
0110
0000
,
0000
1000
0000
0100
0100
0010
0001
0000
,
1000
0001
0100
0010
1000
0100
0010
0001
,
1000
0010
0100
0001
1000
0010
0100
0010
,
1000
0001
0000
0010
0000
1001
0000
0100
,
0000
1000
0100
0010
0001
1000
0010
0100
,
0000
0001
0000
1001
0000
0100
0010
1000
,
0000
0100
0010
0001
0000
1000
0000
0010
,
0100
0010
0001
0010
0100
0010
1000
0100
,
0010
0001
1000
0010
0100
0000
0001
0010
,
0100
0010
1000
0010
0001
1000
0010
0100
,
0001
0000
1000
0000
0001
0100
0010
0100
,
0001
1000
0000
0100
0000
1001
0000
0010
,
0000
0001
0010
0100
1000
0001
0100
0010
,
0000
1000
0000
1001
0000
0010
0100
0001
,
0000
0010
0100
1000
0000
0001
0000
0100
,
0010
0100
1000
0100
0010
0100
0001
0010
,
0100
1000
0001
0100
0010
0000
1000
0100
,
0010
0100
0001
0100
1000
0001
0100
0010
,
1000
0000
0001
0000
0100
0010
0100
0001
,
0010
0100
0010
0001
1000
0010
1000
0001
,
0010
0000
0100
0000
1000
0000
0001
0000
0100
0000
0010
0000
1000
0001
1000
0001
,
0100
0010
1000
0100
0010
0001
1000
0010
,
0100
0000
0001
0000
0010
0000
0100
0000
1000
0000
0001
0000
0100
0010
0100
0010
,
1000
0001
0000
1000
0000
1100
0000
0101
,
0000
1000
0001
0100
0010
1000
0001
0010
,
0000
0011
0000
1100
0000
0101
0000
1001
,
0000
0010
1000
0100
0010
0001
1000
0010
,
0100
0000
0001
0000
0101
0000
1000
1000
,
0000
0001
0001
0000
0110
0000
0001
1000
,
0100
0000
0010
0000
0011
0000
1000
1000
,
0000
0001
0001
0000
0110
0000
1000
0010
,
0100
0010
0001
0010
0100
0010
1000
0010
,
0100
0001
1000
0100
0010
0000
0001
0010
,
1000
0010
0001
0010
0100
1000
0010
0100
;

//---------------dance-single - ----------------
#NOTEDATA:;
#CHARTNAME:;
#STEPSTYPE:dance-single;
#DESCRIPTION:;
#CHARTSTYLE:;
#DIFFICULTY:Medium;
#METER:6;
#RADARVALUES:0.375533,0.391188,0.301503,0.075376,0.000000,239.000000,32.000000,8.000000,0.000000,0.000000,0.000000,0.000000,0.000000,0.375533,0.391188,0.301503,0.075376,0.000000,239.000000,32.000000,8.000000,0.000000,0.000000,0.000000,0.000000,0.000000;
#CREDIT:Ben Speirs;
#NOTES:
0000
0000
0000
0000
,
0000
0000
0000
0000
,
0000
0000
0000
0000
,
0000
0000
0000
0000
0000
0000
0000
0010
,
0000
0010
0000
0010
0000
0010
0000
1000
,
0000
0001
0000
0100
0000
0000
0010
0010
,
0000
0010
0000
1000
0000
0001
0000
0100
,
0000
0000
0000
0000
,
0000
0000
0000
0000
,
0002
1003
0010
0100
,
0001
0010
0100
0000
1000
0000
0001
0000
,
2000
3010
0100
0001
,
0100
0010
1000
0000
0001
0000
0010
0000
,
0200
1300
0001
1000
,
0010
1000
0001
0000
0100
0000
0010
0000
,
2000
0000
0000
3001
0000
0000
0100
0200
,
0000
0010
0010
0310
,
0110
0001
0100
0010
,
1000
0100
0010
0000
0001
0000
1000
0000
,
0010
1010
0001
1000
,
0100
0010
0001
0000
1000
0000
0010
0000
,
0100
0101
0010
1000
,
0001
0010
0100
0000
1000
0000
0001
0000
,
1002
0000
0000
0203
0000
0000
0310
0020
,
0000
0100
0100
0130
,
0110
0000
0000
0001
0000
0000
1000
0000
,
0000
1001
0000
0000
0110
0000
1001
0000
,
1000
0000
0000
0010
0000
0000
0100
0000
,
0000
1001
0000
0000
0011
0000
1100
0000
,
0001
0000
0000
1000
0000
0000
0010
0000
,
0000
1001
0000
0000
0110
0000
1001
0000
,
0100
0010
1000
0100
,
0010
0001
1000
0000
,
0010
0000
0010
0000
1010
0000
0100
0100
,
0000
0001
0001
0000
1000
0000
0100
0000
,
0010
0000
0010
0000
0011
0000
0001
0001
,
0000
1000
1000
0000
1010
0000
0001
0000
,
0100
0010
0100
0000
0010
0100
0010
0000
,
0100
0010
0110
0010
,
1000
0001
1000
0000
0001
1000
0001
0000
,
1001
0000
0000
0000
0100
1000
0001
0000
,
0100
0000
0100
0000
0101
0000
0010
0010
,
0000
1000
1000
0000
0001
0000
0010
0000
,
0100
0000
0100
0000
1100
0000
1000
1000
,
0000
0001
0001
0000
0101
0000
1000
0000
,
0010
0100
0010
0000
0100
0010
0100
0000
,
0010
0100
0110
0100
,
0001
1000
0001
0000
1000
0001
1000
0000
,
1001
0000
0000
0000
0010
0010
0010
0000
,
1000
0000
0001
0000
0100
0010
1000
0000
,
0001
1000
0100
0000
1100
0000
0000
0000
,
1000
0000
0001
0000
0010
0001
0100
0000
,
0010
0100
0001
0000
0101
0000
0000
0000
,
0010
0001
0010
0000
0001
0010
0001
0000
,
0010
0001
1000
0100
,
1000
0010
1000
0000
0010
1000
0010
0000
,
0100
0001
1000
0000
,
0100
0000
0110
0001
,
0000
1000
0000
0000
0110
0000
0000
0000
,
0001
0000
1001
0100
,
0000
1000
0000
0000
1001
0000
0000
0000
,
1000
0000
1010
0100
,
0000
0010
0000
0000
1010
0000
0000
0000
,
0001
0010
0000
0100
0000
1000
0000
0010
;

//---------------dance-single - ----------------
#NOTEDATA:;
#CHARTNAME:;
#STEPSTYPE:dance-single;
#DESCRIPTION:;
#CHARTSTYLE:;
#DIFFICULTY:Easy;
#METER:4;
#RADARVALUES:0.266507,0.391954,0.141329,0.075376,0.000000,175.000000,15.000000,8.000000,0.000000,0.000000,0.000000,0.000000,0.000000,0.266507,0.391954,0.141329,0.075376,0.000000,175.000000,15.000000,8.000000,0.000000,0.000000,0.000000,0.000000,0.000000;
#CREDIT:Ben Speirs;
#NOTES:
0000
0000
0000
0000
,
0000
0000
0000
0000
,
0000
0000
0000
0000
,
0000
0000
0000
0000
,
0020
0000
0000
0000
,
0030
0000
0000
0000
,
2000
0000
0000
0000
,
3000
0000
0000
0000
,
0000
0000
0000
0000
,
0002
0003
1000
0000
,
0010
1000
0001
0000
,
0200
0300
0010
0000
,
0100
0001
1000
0000
,
0200
0300
0010
0000
,
0001
1000
0010
0000
,
1000
0100
0010
0001
,
1000
0010
0100
0000
,
0002
0003
0100
0000
,
0010
0100
0001
0000
,
2000
3000
0100
0000
,
1000
0001
0100
0000
,
0020
0030
0100
0000
,
0010
1000
0001
0000
,
0010
0001
1000
0010
,
0100
0001
1000
0000
,
0100
0000
0000
0010
0000
0000
0001
0000
,
0000
1000
0000
0000
0010
0000
0010
0000
,
1000
0000
0000
0001
0000
0000
1000
0000
,
0000
0010
0000
0000
0100
0000
0100
0000
,
0001
0000
0000
0010
0000
0000
0100
0000
,
0000
1000
0000
0000
0010
0000
0010
0000
,
1000
0100
0010
0001
,
1000
0010
0000
0000
,
1001
0000
0100
0010
,
1000
0100
0010
0001
,
1000
0000
0010
1000
,
0100
0010
0001
0000
,
1001
1001
1001
1001
,
0010
0100
0010
0000
,
1001
1001
0010
0100
,
0010
0000
1000
0000
,
0010
1000
0100
0010
,
0001
1000
0010
0000
,
1000
0001
0100
0010
,
0100
0001
1000
0000
,
1001
1001
1001
1001
,
0010
0100
0010
0000
,
1001
1001
0010
0100
,
0010
0000
0001
0000
,
1000
0010
0100
0001
,
0010
1000
0010
0001
,
1000
0010
0100
1000
,
0100
0001
1000
0100
,
0010
0010
0010
0010
,
0001
1000
0100
1000
,
0010
0010
0100
0001
,
1000
0010
0100
0001
,
1000
0000
0001
0010
,
0000
0000
1001
0000
,
0100
0000
0010
1000
,
0000
0000
1100
0000
,
0010
0010
0010
0010
,
1000
0001
0100
0000
,
0010
0010
0100
0001
,
1000
0000
0000
0000
;

//---------------dance-single - ----------------
#NOTEDATA:;
#CHARTNAME:;
#STEPSTYPE:dance-single;
#DESCRIPTION:;
#CHARTSTYLE:;
#DIFFICULTY:Beginner;
#METER:2;
#RADARVALUES:0.188439,0.241202,0.056532,0.000000,0.000000,134.000000,6.000000,0.000000,0.000000,0.000000,0.000000,0.000000,0.000000,0.188439,0.241202,0.056532,0.000000,0.000000,134.000000,6.000000,0.000000,0.000000,0.000000,0.000000,0.000000,0.000000;
#CREDIT:Ben Speirs;
#NOTES:
0000
0000
0000
0000
,
0000
0000
0000
0000
,
0000
0000
0000
0000
,
0000
0000
0000
0000
,
1000
0000
0000
0000
,
0001
0000
0000
0000
,
0100
0000
0000
0000
,
0000
0000
0000
0000
,
0000
0000
0000
0000
,
1001
0000
0000
0000
,
0100
0100
0100
0000
,
0010
0000
0000
0000
,
1000
1000
1000
0000
,
0001
0000
0000
0000
,
0010
0010
0010
0000
,
0100
0000
1000
0000
,
0001
0000
0100
0000
,
0110
0000
0000
0000
,
0010
0010
0010
0000
,
1000
0000
0000
0000
,
0100
0100
0100
0000
,
0010
0000
0000
0000
,
0001
0001
0001
0000
,
1000
0000
0001
0000
,
0100
0000
0010
0000
,
1001
0000
0000
0100
,
0000
0000
0010
0010
,
0010
0000
0000
0001
,
0000
0000
1000
1000
,
1000
0000
0000
0010
,
0000
0000
0100
0100
,
0100
0000
0001
0000
,
1000
0000
0000
0000
,
1001
0000
0010
0010
,
0010
0000
1000
0000
,
0001
0000
0100
0100
,
0100
0000
0001
0000
,
0010
0010
0010
0010
,
0010
0010
0010
0000
,
0010
0010
0010
0010
,
0010
0000
0001
0000
,
1001
0000
0100
0100
,
0100
0000
0001
0000
,
1000
0000
0010
0010
,
0010
0000
1000
0000
,
0100
0100
0100
0100
,
0100
0100
0100
0000
,
0100
0100
0100
0100
,
0100
0000
1000
0000
,
0010
0000
1000
0000
,
0001
0000
1000
0000
,
0010
0000
0100
0000
,
0001
0000
1000
0000
,
0010
0010
0010
0010
,
0010
0000
1001
0000
,
0010
0010
0010
0010
,
0010
0000
1000
0000
,
0001
0000
0100
0000
,
0010
0000
0010
0000
,
1000
0000
0100
0000
,
0010
0000
0010
0000
,
0001
0000
1000
0000
,
0001
0001
0001
0000
,
0010
0010
0010
0010
,
0010
0000
0000
0000
;

//---------------dance-double - ----------------
#NOTEDATA:;
#CHARTNAME:;
#STEPSTYPE:dance-double;
#DESCRIPTION:;
#CHARTSTYLE:;
#DIFFICULTY:Challenge;
#METER:8;
#RADARVALUES:0.499364,0.541645,0.207283,0.150751,0.000000,333.000000,22.000000,16.000000,0.000000,0.000000,0.000000,0.000000,0.000000,0.499364,0.541645,0.207283,0.150751,0.000000,333.000000,22.000000,16.000000,0.000000,0.000000,0.000000,0.000000,0.000000;
#CREDIT:Ben Speirs;
#NOTES:
// measure 0
00000000
00000000
00000000
00000000
,  // measure 1
00000000
00000000
00000000
00000000
,  // measure 2
00000000
00000000
00000000
00000000
,  // measure 3
00000000
00000000
00000000
00000000
00000000
00000000
00000000
00100000
,  // measure 4
00000000
00000010
00000000
00100000
00000000
00000010
00000000
00010000
,  // measure 5
00000000
00001000
00000000
00011000
00000000
00000000
00001000
00100000
,  // measure 6
00000000
00000010
00000000
00100000
00000000
00000010
00000000
00011000
,  // measure 7
00000000
00000000
00000000
00000000
,  // measure 8
00000000
00000000
00000000
00000000
,  // measure 9
00010000
01010000
10000000
00010000
,  // measure 10
10000000
01000000
00100000
00010000
10000000
00100000
01000000
00000000
,  // measure 11
00010000
00000000
10100000
00000000
00010000
00000000
10000000
01000000
,  // measure 12
10000000
01000000
10000000
01000000
00200000
00000000
00310000
10000000
,  // measure 13
00100000
01010000
10000000
01000000
,  // measure 14
00100000
00010000
01000000
00000000
00010000
00100000
00001000
00000000
,  // measure 15
00010000
00001000
00010000
00001000
00000010
00001000
00000010
00000001
,  // measure 16
00001000
00000000
00000010
00000000
00000100
00000010
00001000
00000000
,  // measure 17
00001001
00001010
00000001
00001000
,  // measure 18
00000001
00000010
00000100
00001000
00000001
00000100
00000010
00000000
,  // measure 19
00001010
00000000
00000101
00000000
00001000
00000000
00000001
00000010
,  // measure 20
00000001
00000010
00000001
00000010
00000200
00000000
00001300
00000001
,  // measure 21
00001001
00001010
00000001
00000010
,  // measure 22
00000100
00001000
00000010
00000000
00001000
00000100
00010000
00000000
,  // measure 23
00001000
00010000
00001000
00010000
01000000
00010000
01000000
10000000
,  // measure 24
00010000
00000000
01000000
00000000
00100000
01000000
00010000
00000000
,  // measure 25
10000000
00000000
00000000
00010000
00000000
00000000
01100000
00000000
,  // measure 26
00000000
10000000
00000000
00010000
00100000
01000000
10000000
00000000
,  // measure 27
00010000
00000000
00000000
00100000
00000000
00000000
00011000
00000000
,  // measure 28
00000000
00000100
00000000
00001000
00000100
00000010
00000001
00000000
,  // measure 29
00001000
00000000
00000000
00000001
00000000
00000000
00000110
00000000
,  // measure 30
00000000
00001000
00000000
00000001
00000100
00000010
00001000
00000000
,  // measure 31
00000001
00000001
00001000
00001000
00000100
00000100
00000010
00000100
,  // measure 32
00001000
00000010
00010000
00001000
00100000
00010000
00100000
00010000
,  // measure 33
10000000
00200000
00000000
02300000
00000000
03020000
00000000
20030000
,  // measure 34
00000000
31000000
00100000
00020000
00000000
10030000
00100000
20000000
,  // measure 35
00000000
30020000
00000000
02030000
00000000
03100000
10000000
02000000
,  // measure 36
00000000
03100000
00010000
02000000
00000000
03002000
00000000
00103000
,  // measure 37
00000000
00000010
00000000
00100000
00000000
00000010
00000000
00020000
,  // measure 38
00000000
00031000
00000000
00011000
00000000
00010000
00001000
00100000
,  // measure 39
00000000
00000010
00000000
00100000
00000000
00000010
00000000
00011000
,  // measure 40
00000000
00000000
00000000
00000000
00010000
00001000
00000010
00000001
,  // measure 41
00001000
00001000
00000010
00000100
00000001
00000010
00000100
00001000
,  // measure 42
00000010
00000100
00000001
00001000
00000010
00000100
00000001
00001000
,  // measure 43
00000100
00000100
00010000
00001000
00100000
00010000
00100000
00001000
,  // measure 44
00010000
00100000
10000000
01000000
00100000
00010000
10000000
00100000
,  // measure 45
01000000
00100000
00010000
00100000
01000000
00100000
10000000
00100000
,  // measure 46
01000000
00010000
00100000
01000000
10000000
00010000
01000000
00100000
,  // measure 47
10000000
00100000
00010000
00100000
01000000
00010000
00100000
01000000
,  // measure 48
10000000
00010000
02000000
00000000
03100000
10000000
00100000
10000000
,  // measure 49
00010000
00010000
01000000
00100000
10000000
01000000
00100000
00010000
,  // measure 50
01000000
00100000
10000000
00010000
01000000
00100000
10000000
00010000
,  // measure 51
00100000
00100000
00001000
00010000
00000100
00001000
00000100
00010000
,  // measure 52
00001000
00000100
00000001
00000010
00000100
00001000
00000001
00000100
,  // measure 53
00000010
00000100
00001000
00000100
00000010
00000100
00000001
00000100
,  // measure 54
00000010
00001000
00000100
00000010
00000001
00001000
00000010
00000100
,  // measure 55
00000001
00000100
00001000
00000100
00000010
00001000
00000100
00000010
,  // measure 56
00000001
00001000
00000100
00010000
00001000
01000000
00010000
10000000
,  // measure 57
00100000
00000000
10010000
01000000
,  // measure 58
00000000
00010000
00000000
00000000
00110000
00000000
00000000
00000000
,  // measure 59
00001000
00000000
00101000
00010000
,  // measure 60
00000000
00000100
00000000
00000000
00011000
00000000
00000000
00100000
,  // measure 61
00000000
00000010
00000000
00100000
00000000
00000010
00000000
00020000
,  // measure 62
00000000
00031000
00000000
00011000
00000000
00000000
00001000
00100000
,  // measure 63
00000000
00000010
00000000
00100000
00000000
00000010
00000000
00011000
;
