#VERSION:0.82;
#TITLE:Saturnz Barz;
#SUBTITLE:(feat. Popcaan);
#ARTIST:Gorillaz;
#TITLETRANSLIT:;
#SUBTITLETRANSLIT:;
#ARTISTTRANSLIT:;
#GENRE:Hip-Hop;
#ORIGIN:;
#CREDIT:;
#BANNER:Saturnz Barz.png;
#BACKGROUND:Saturnz Barz-bg.png;
#PREVIEWVID:;
#JACKET:jacket.png;
#CDIMAGE:;
#DISCIMAGE:;
#LYRICSPATH:;
#CDTITLE:cdtitle.png;
#MUSIC:Saturnz Barz.ogg;
#OFFSET:0.000000;
#SAMPLESTART:107.172905;
#SAMPLELENGTH:17.959999;
#SELECTABLE:YES;
#DISPLAYBPM:80.000000;
#BPMS:0.000=80.000,
32.000=80.060;
#STOPS:103.000=0.375,
107.500=0.375;
#DELAYS:;
#WARPS:;
#TIMESIGNATURES:0.000=4=4;
#TICKCOUNTS:0.000=4;
#COMBOS:0.000=1;
#SPEEDS:0.000=1.000=0.000=0;
#SCROLLS:0.000=1.000;
#FAKES:;
#LABELS:0.000=Song Start;
#BGCHANGES:4.000=Saturnz Barz (feat. Popcaan).avi=1.000=0=0=1=====,
99999=-nosongbg-=1.000=0=0=0 // don't automatically add -songbackground-
;
#KEYSOUNDS:;
#ATTACKS:
;

//---------------dance-single - ----------------
#NOTEDATA:;
#CHARTNAME:;
#STEPSTYPE:dance-single;
#DESCRIPTION:;
#CHARTSTYLE:;
#DIFFICULTY:Hard;
#METER:8;
#RADARVALUES:0.480936,0.439620,0.313515,0.156757,0.365767,388.000000,42.000000,21.000000,0.000000,0.000000,0.000000,0.000000,0.000000,0.480936,0.439620,0.313515,0.156757,0.365767,388.000000,42.000000,21.000000,0.000000,0.000000,0.000000,0.000000,0.000000;
#CREDIT:Ben Speirs;
#DISPLAYBPM:80.000000;
#NOTES:
// measure 0
0000
0000
0000
0000
,  // measure 1
0000
0000
0000
0000
,  // measure 2
0000
0000
0000
0000
,  // measure 3
1000
0000
0001
0100
0001
0100
0000
0010
1000
0001
0000
0000
0000
0000
0000
0000
,  // measure 4
1000
0000
0100
0010
0000
0100
0010
0000
0001
1000
0000
0000
0010
0000
0000
1000
0000
0000
0001
0000
0000
0000
0000
0000
,  // measure 5
0100
0000
0001
0100
0000
0010
0100
0000
0010
1000
0000
0000
0010
0000
1000
0001
0000
0000
0010
0000
0001
1000
0000
0001
,  // measure 6
0100
0000
0010
1000
0000
0000
1000
0000
0000
0001
0000
0000
0001
0000
0000
0100
0000
0000
0100
0000
0000
0000
0000
0000
,  // measure 7
1001
0000
1000
0100
0000
1000
0001
0000
0000
0100
0000
0001
1000
0000
0000
0010
0000
1000
0100
0000
0000
0101
0000
0000
,  // measure 8
2001
0000
0000
0000
0000
0000
3100
0000
0000
1000
0000
0010
0100
0000
0000
0001
0000
1000
0001
0000
0000
0100
0000
0010
,  // measure 9
1000
0000
0000
0100
0000
1000
0001
0000
0000
0010
0000
0001
0100
0000
0000
0010
0000
0000
0110
0000
0000
0101
0000
0000
,  // measure 10
2010
0000
0000
0000
0000
0000
3001
0000
0000
1000
0000
0010
0100
0000
0000
0001
0000
1000
0100
0000
0000
1000
0000
0001
,  // measure 11
0010
0000
0000
0001
0000
1000
0010
0000
0000
0100
0000
0001
1000
0000
0000
0010
0000
0000
1010
0000
0000
1001
0000
0000
,  // measure 12
0201
0000
0000
0000
0000
0000
0310
0000
0000
0100
0000
0001
1000
0000
0000
0010
0000
1000
0100
0000
0000
1000
0000
0001
,  // measure 13
0010
0000
0000
0001
0000
0000
1000
0000
0000
0010
0000
0100
0001
0000
0000
0100
0000
0000
0110
0000
0000
1010
0000
0000
,  // measure 14
2100
0000
0000
0000
0000
0000
3001
0000
0000
0100
0000
0001
1000
0000
0000
0010
0000
0000
1000
0000
0000
0001
0000
0010
,  // measure 15
0001
0000
0000
1000
0000
0000
0010
0000
0100
0000
0000
0100
0000
0000
0001
1000
0000
0000
0010
0000
0000
1010
0000
0000
,  // measure 16
0001
0000
1000
0001
0000
0000
0100
0000
0000
0010
0000
0000
1000
0000
0100
1000
0000
0000
0010
0000
0000
0000
0000
0000
,  // measure 17
1000
0000
0100
0010
0000
0100
0010
0000
0001
1000
0000
0000
0001
0000
0100
0010
0000
0000
1000
0000
0010
0100
0000
0000
,  // measure 18
0001
0100
0100
0010
0010
1000
0001
0000
,  // measure 19
1000
0000
0100
1000
0000
0001
0100
0000
0001
1000
0000
0010
1000
0000
0000
0001
0000
0010
0001
0000
0000
1000
0000
0000
,  // measure 20
1100
0000
0000
0001
0000
1000
0010
0000
0000
0100
0000
0000
0101
0000
0000
0110
0000
0000
1010
0000
0000
0000
0000
0000
,  // measure 21
0001
0000
0000
0100
0000
0001
1000
0000
0000
0010
0000
0000
1010
0000
0000
1100
0000
0000
0101
0000
0000
0000
0000
0000
,  // measure 22
1000
0000
0000
1100
0000
0000
1001
0000
0000
0100
0000
1000
0001
0000
0000
0100
0000
0000
1001
0000
0000
0000
0000
0000
,  // measure 23
0001
0000
0100
0010
0000
0100
0010
0000
0000
1000
0000
0010
0100
0000
0000
0001
0000
1000
0001
0000
0000
0100
0000
0000
,  // measure 24
0020
1000
0230
1000
0302
0010
2003
0100
,  // measure 25
3020
0000
0000
0000
0000
0000
0000
0000
0000
0000
0000
0000
0000
0000
0000
0000
0000
0000
0000
0000
0000
0000
0000
0000
0001
0000
0000
0000
0000
0000
0000
0000
0000
0000
0000
0000
0000
0000
0000
0000
0000
0000
0000
0000
0000
0000
0000
0000
0230
0000
0000
0000
0000
0000
0000
0000
0000
0000
0000
0000
0000
0000
0000
0000
0000
0000
0000
0000
0000
0000
0000
0000
0001
0000
0000
0000
0000
0000
0000
0000
0000
0000
0000
0000
0000
0000
0000
0000
0000
0000
0000
0000
0000
0000
0000
0000
0302
0000
0000
0000
0000
0000
0000
0000
0000
0000
0000
0000
0000
0000
0000
0000
0000
0000
0000
0000
0000
0000
0000
0000
0010
0000
0000
0000
0000
0000
0000
0000
0000
0000
0000
0000
0000
0000
0000
0000
0000
0000
0000
0000
0000
0000
0000
0000
2003
3000
0000
0000
0000
0000
0000
0000
0000
0000
0000
0000
0000
0000
0000
0000
0000
0000
0000
0000
0000
0000
0000
0000
0020
0000
0000
0000
0000
0000
0000
0000
0000
0000
0000
0000
0000
0000
0000
0000
0000
0000
0000
0000
0000
0000
0000
0000
,  // measure 26
0100
0230
0001
0302
1000
2003
0010
3001
,  // measure 27
1001
0000
0000
1000
0000
0000
0010
0000
1000
0001
0000
0000
0101
0000
0000
1100
0000
0000
0002
0000
0000
0100
0000
0000
,  // measure 28
0013
0000
0000
0001
0000
0100
0010
0000
0000
0100
0000
0001
0100
0000
0000
0010
0000
0000
2000
0000
0000
0100
0000
0000
,  // measure 29
3001
0000
0000
1000
0000
0100
1000
0000
0000
0001
0000
1000
0010
0000
0000
0100
0000
0000
0020
0000
0000
0100
0000
0000
,  // measure 30
0130
0000
0000
0001
0000
0100
0010
0000
0000
1000
0000
0010
0100
0000
0000
0001
0000
0000
2000
0000
0000
0100
0000
0000
,  // measure 31
3001
0000
0000
1000
0000
0010
0100
0000
0000
0001
0000
0010
0100
0000
0000
1000
0000
0000
1100
0000
0000
0001
0000
0000
,  // measure 32
1000
0000
0000
0010
0000
0100
0001
0000
0000
1000
0000
0000
1010
0000
0000
0001
0000
0000
0011
0000
0000
1000
0000
0000
,  // measure 33
0001
0000
0000
0100
0000
0010
1000
0000
0000
0001
0000
0010
0001
0000
0000
0100
0000
0000
0101
0000
0000
0010
0000
0000
,  // measure 34
1010
0000
0000
0000
0000
0000
0001
0000
1000
0001
0000
0000
0010
0000
0000
0000
0000
0000
1100
0000
0000
0002
0000
0000
,  // measure 35
0000
0000
0003
0000
1001
0110
1001
0000
,  // measure 36
1000
0010
0000
0100
0000
0001
0000
0010
0000
0001
1000
0000
0010
0000
0010
0000
,  // measure 37
1000
0100
0010
0001
0000
1000
0000
0000
1100
0000
0101
0000
1001
0000
0000
0000
,  // measure 38
0001
0100
0001
1000
0000
0010
1000
0010
0000
1000
0100
0000
1000
0000
0001
0000
,  // measure 39
1000
0100
0010
0001
0000
1000
0001
0000
1001
0000
0110
0000
1001
0000
0000
0000
,  // measure 40
0001
0100
0001
0100
0010
0000
1000
0000
0100
1000
0100
1000
0010
0000
0000
0000
,  // measure 41
1000
0100
1000
0100
0010
0000
0001
0000
1000
0001
1000
0001
0100
0000
0010
0000
,  // measure 42
1000
0000
0001
1000
0001
0000
0100
0000
0010
0000
1000
0100
0010
0001
1000
0000
,  // measure 43
0001
0000
1000
0010
0100
0001
1000
0000
0101
0000
0010
0000
0000
0000
0000
0000
;

//---------------dance-double - ----------------
#NOTEDATA:;
#CHARTNAME:;
#STEPSTYPE:dance-double;
#DESCRIPTION:;
#CHARTSTYLE:;
#DIFFICULTY:Challenge;
#METER:8;
#RADARVALUES:0.458542,0.423338,0.194081,0.149293,0.347106,384.000000,26.000000,20.000000,0.000000,0.000000,0.000000,0.000000,0.000000,0.458542,0.423338,0.194081,0.149293,0.347106,384.000000,26.000000,20.000000,0.000000,0.000000,0.000000,0.000000,0.000000;
#CREDIT:Ben Speirs;
#DISPLAYBPM:80.000000;
#NOTES:
00000000
00000000
00000000
00000000
,
00000000
00000000
00000000
00000000
,
00000000
00000000
00000000
00000000
,
10000000
00000000
00010000
01000000
00100000
10000000
00000000
00010000
10000000
00010000
00000000
00000000
00000000
00000000
00000000
00000000
,
10000000
00000000
01000000
00100000
00000000
01000000
00100000
00000000
00010000
10000000
00000000
00000000
00100000
00000000
00000000
01000000
00000000
00000000
10010000
00000000
00000000
00000000
00000000
00000000
,
00010000
00000000
01000000
00100000
00000000
01000000
00100000
00000000
10000000
00100000
00000000
00000000
10000000
00000000
01000000
00100000
00000000
00000000
01000000
00000000
00100000
00010000
00000000
00000000
,
00100000
00001000
00010000
00000100
00001000
00000010
00000100
00000000
,
00000001
00000000
00000100
00000010
00000000
00001000
00000010
00000000
00000000
00001000
00000000
00000100
00000010
00000000
00000000
00000001
00000000
00001000
00000010
00000000
00000000
00000100
00000000
00000000
,
00002002
00000000
00000000
00000000
00000000
00000000
00003003
00000000
00000000
00000000
00000000
00000000
00000001
00000000
00000000
00001000
00000000
00000010
00001000
00000000
00000000
00000001
00000000
00000010
,
00000001
00000000
00000000
00000100
00000000
00000000
00000010
00000000
00000000
00001000
00000000
00000100
00001000
00000000
00000000
00000000
00000000
00000000
00001100
00000000
00000000
00010100
00000000
00000000
,
00012000
00000000
00000000
00000000
00000000
00000000
00103000
00000000
00000000
00010000
00000000
10000000
00010000
00000000
00000000
01000000
00000000
00100000
10000000
00000000
00000000
01000000
00000000
10000000
,
00010000
00000000
00000000
01000000
00000000
00000000
00010000
00000000
00000000
10000000
00000000
01000000
00100000
00000000
00000000
00010000
00000000
00000000
00110000
00000000
00000000
01100000
00000000
00000000
,
10020000
00000000
00000000
00000000
00000000
00000000
10030000
00000000
00000000
00100000
00000000
01000000
00100000
00000000
00000000
10000000
00000000
00000000
01000000
00000000
00000000
00100000
00000000
00010000
,
00100000
00000000
00000000
00010000
00000000
00100000
00001000
00000000
00000000
00100000
00000000
00001000
00010000
00000000
00000000
00000100
00000000
00000000
00010100
00000000
00000000
00001010
00000000
00000000
,
00001002
00000000
00000000
00000000
00000000
00000000
00000103
00000000
00000000
00000001
00000000
00001000
00000001
00000000
00000000
00000100
00000000
00000000
00000010
00000000
00000000
00001000
00000000
00000100
,
00001000
00000000
00001000
00000010
00000000
00000000
00000100
00000000
00000000
00000001
00000000
00001000
00000010
00000000
00000000
00000100
00000000
00000000
00000010
00000000
00000000
00000000
00000000
00000000
,
00000100
00000000
00000000
00000010
00000000
00000100
00000001
00000000
00000000
00000100
00000000
00000000
00000010
00000000
00000000
00001000
00000000
00000100
00001000
00000000
00000000
00000000
00000000
00000000
,
00000100
00000000
00010000
00001000
00000000
00010000
00000100
00000000
00001000
00000010
00000000
00000000
00000100
00000000
00000010
00001000
00000000
00000000
00000001
00000000
00000010
00000100
00000000
00001000
,
00000001
00000100
00000100
00000100
00000100
00000100
00000100
00000000
,
00000001
00000000
00000100
00000010
00000000
00001000
00000100
00000000
00000000
00010000
00000000
00001000
00010000
00000000
00000000
00001000
00000000
00100000
00010000
00000000
00000000
01000000
00000000
00000000
,
00100000
10000000
10100000
10000000
01000000
00100000
01100000
00000000
,
00100000
00000000
00000000
00010000
00000000
01000000
00010000
00000000
00000000
10000000
00000000
01000000
10000000
00000000
00000000
00010000
00000000
00000000
10010000
00000000
00000000
00000000
00000000
00000000
,
10000000
00000000
00000000
00100000
00000000
01000000
00100000
00000000
00000000
01000000
00000000
00000000
00010000
00000000
00000000
10000000
00000000
00000000
01000000
00000000
00000000
00000000
00000000
00000000
,
10000000
00000000
01000000
00100000
00000000
00100000
00010000
00000000
00000000
10000000
00000000
00100000
01000000
00000000
00000000
00010000
00000000
10000000
00010000
00000000
00000000
01000000
00000000
00000000
,
00002000
00010000
00203000
00010000
00300200
00001000
00020300
00001000
,
00030020
00000100
00002030
00000100
00003002
00000203
00000320
00001030
,
00000100
00000000
00000000
00001100
00000000
00000000
00000001
00000000
00000000
00000100
00000000
00000000
00000010
00000000
00000000
00000110
00000000
00000000
00000010
00000000
00001000
00000002
00000000
00000000
,
00000013
00000000
00000000
00000001
00000000
00000000
00001000
00000000
00000000
00000100
00000000
00000000
00010000
00000000
00000000
00001000
00000000
00010000
00001000
00000000
00000000
00100000
00000000
00000000
,
00010000
00000000
00000000
01000000
00000000
00000000
01100000
00000000
00000000
00100000
00000000
00000000
10000000
00000000
00000000
00100000
00000000
10000000
00010000
00000000
00000000
00100000
00000000
00000000
,
00010000
00000000
00000000
10000000
00000000
01000000
10000000
00000000
00000000
00100000
00000000
01000000
00010000
00000000
00000000
00100000
00000000
00001000
00010000
00000000
00000000
00000100
00000000
00000000
,
00001000
00000000
00000000
00000010
00000000
00000100
00001000
00000000
00000000
00000100
00000000
00000000
00000010
00000000
00000000
00001000
00000000
00000100
00010000
00000000
00000000
00001000
00000000
00010000
,
00000100
00000000
00000000
00001000
00000000
00000100
00001000
00000000
00001000
00000010
00000000
00000010
00000100
00000000
00000000
00000001
00000000
00000100
00000020
00000000
00000000
00001000
00000000
00000000
,
00000100
00000000
00000000
00000100
00000000
00000000
00002030
00000000
00000000
00000100
00000000
00000000
00003001
00000000
00000000
00001000
00000000
00000010
00000200
00000000
00000000
00000001
00000000
00000000
,
00000010
00000000
00000000
00001000
00000000
00000000
00000302
00000000
00000000
00000010
00000000
00000000
00000013
00000000
00000000
00000001
00000000
00001000
00000001
00000000
00000000
00000100
00000000
00000000
,
00000001
00000000
00000000
00001000
00000000
00000100
00001000
00000000
00001000
00000010
00000000
00000000
00000100
00000000
00000000
00000010
00000000
00001000
00000100
00000000
00000000
00020000
00000000
00000000
,
00000000
00000000
00030000
00000000
00011000
00011000
00100100
00000000
,
00001000
00010000
00000000
00001000
00000000
00100000
00000000
00010000
00000000
10000000
00100000
00000000
01000000
00000000
01000000
00000000
,
00010000
01000000
00100000
10000000
00000000
00010000
00100000
00000000
00110000
00000000
01100000
00000000
11000000
00000000
00000000
00000000
,
00010000
10000000
00010000
01000000
00000000
00010000
10000000
00010000
00000000
10000000
01000000
00000000
10000000
00000000
00010000
00000000
,
00100000
00010000
00100000
00001000
00010000
00000000
00000100
00000000
00001100
00000000
00001010
00000000
00001001
00000000
00000000
00000000
,
00000001
00000100
00000001
00000000
00001000
00000000
00000000
00000000
00000100
00001000
00000100
00000000
00010000
00000000
00000000
00000000
,
00000010
00001000
00000010
00000000
00000100
00000000
00000100
00000000
00000010
00001000
00000100
00000000
00010000
00000000
00010000
00000000
,
00001000
00000000
00100000
00010000
00100000
00010000
10000000
00000000
00100000
00000000
01000000
00010000
01000000
00010000
10000000
00000000
,
00010000
00000000
01000000
00001000
00010000
00000100
00001000
00000000
00000010
00000000
00000100
00000000
00000000
00000000
00000000
00000000
;

//---------------dance-single - ----------------
#NOTEDATA:;
#CHARTNAME:;
#STEPSTYPE:dance-single;
#DESCRIPTION:;
#CHARTSTYLE:;
#DIFFICULTY:Medium;
#METER:5;
#RADARVALUES:0.332710,0.407056,0.171687,0.246333,0.000000,256.000000,23.000000,33.000000,0.000000,0.000000,0.000000,0.000000,0.000000,0.332710,0.407056,0.171687,0.246333,0.000000,256.000000,23.000000,33.000000,0.000000,0.000000,0.000000,0.000000,0.000000;
#CREDIT:Ben Speirs;
#DISPLAYBPM:80.000000;
#NOTES:
0000
0000
0000
0000
,
0000
0000
0000
0000
,
0000
0000
0000
0000
,
0100
0010
1000
0000
0001
0010
0001
0000
,
1000
0100
0010
0010
0002
0000
2003
0000
,
3001
0100
0010
0010
1000
1000
0001
0010
,
0100
0100
0100
0100
0100
0000
0000
0000
,
2002
0000
0000
0000
3003
0000
1000
0001
,
0200
0000
0310
0000
0100
0010
1000
1000
,
0001
0010
0001
0001
0100
0000
0001
1000
,
0020
0000
1030
0000
0010
1000
0001
0001
,
0010
0010
0001
1000
0100
0000
1000
0001
,
0200
0000
0310
0000
0100
0010
1000
0001
,
0010
0010
0001
0100
0100
0000
0001
1000
,
0020
0000
1030
0001
0020
0000
0031
1000
,
0200
1300
0001
0100
,
0001
0100
0010
1000
0100
0010
0001
0000
,
1000
0001
0100
0100
0010
1000
0001
0000
,
1000
0100
0010
0010
0001
1000
0010
0000
,
0100
0100
0010
0010
1000
0010
0100
0000
,
0002
0000
0100
0000
1000
1000
1003
0000
,
2000
0000
0100
0000
0001
0001
3001
0000
,
0001
0100
0100
0010
0010
1000
0001
0000
,
1000
0100
0100
0010
0001
1000
0010
0000
,
0200
0320
0230
0320
,
2030
0100
3002
0010
2003
0100
3002
0203
,
0000
0320
0000
0230
0000
0320
0000
1030
,
0001
0000
1000
0100
0010
0010
0002
0000
,
0103
0010
2000
0000
3001
0010
0002
0000
,
1003
0100
2000
0000
3010
1000
0200
0000
,
0310
0001
0200
0000
0310
0100
0002
0000
,
0103
0001
1000
1000
0010
0010
1000
0100
,
1100
0000
0001
0010
0011
0000
0001
1000
,
0010
0010
0100
0110
0010
1000
0100
0100
,
0010
0000
0001
1000
0010
0100
0010
2002
,
0000
0000
3003
0000
1001
1001
1001
0000
,
1000
0100
0010
0001
0100
0010
1000
1000
,
0001
0001
0010
0000
0011
0011
1001
0000
,
0001
0100
0010
0010
0100
0001
0010
0100
,
1000
0001
1000
0000
1100
1100
1001
0000
,
0010
0001
0100
0000
0100
1000
0010
0000
,
0010
0001
0100
0000
1001
1001
0001
0100
,
0010
1000
1100
1100
0100
1000
1010
1010
,
0010
0100
0101
0101
1000
1001
0000
0000
;

//---------------dance-single - ----------------
#NOTEDATA:;
#CHARTNAME:;
#STEPSTYPE:dance-single;
#DESCRIPTION:;
#CHARTSTYLE:;
#DIFFICULTY:Easy;
#METER:3;
#RADARVALUES:0.184483,0.276798,0.029859,0.171687,0.000000,146.000000,4.000000,23.000000,0.000000,0.000000,0.000000,0.000000,0.000000,0.184483,0.276798,0.029859,0.171687,0.000000,146.000000,4.000000,23.000000,0.000000,0.000000,0.000000,0.000000,0.000000;
#CREDIT:Ben Speirs;
#DISPLAYBPM:80.000000;
#NOTES:
0000
0000
0000
0000
,
0000
0000
0000
0000
,
0000
0000
0000
0000
,
0001
1000
0010
0000
,
1000
1000
0100
0010
,
0001
0001
0100
0010
,
1000
0100
0100
0100
0100
0000
0000
0000
,
2002
0000
3003
0000
0000
0000
0001
0001
,
0001
0000
1000
0001
,
0100
0000
0100
0000
0010
0000
1000
1000
,
1000
0000
0100
1000
,
0001
0000
0001
0000
0100
0000
0010
0010
,
0010
0000
0100
0100
,
0001
0000
1000
0000
0001
0000
0100
0100
,
0100
0000
0001
0000
,
1000
0000
0000
0000
,
0010
0010
1000
0000
,
0001
1000
0100
0100
,
0010
0010
0010
0000
,
0001
1000
0010
0000
,
2000
3000
0100
0100
,
0020
0030
0001
0001
,
0100
1001
1000
0001
,
0010
1001
0001
0100
,
0020
2030
3020
2030
,
3002
0000
0203
0000
0302
0000
0103
0020
,
0000
2030
0000
3002
0000
0023
0000
0030
,
1001
1000
0001
0200
,
0300
0010
0010
1000
,
0100
0010
0010
0002
,
0003
0100
0100
0010
,
0010
1000
0100
2000
,
3000
0002
0003
0100
,
0100
0001
1000
0020
,
0030
0000
0200
0000
0300
0000
0001
0002
,
0000
0000
0003
0000
1000
1000
1000
0000
,
0000
0100
0100
1000
,
0001
0000
0100
0000
0010
0010
0010
0000
,
0000
0100
0100
0001
,
1000
0000
0001
0000
1000
1000
1000
0000
,
0000
0100
0100
1000
,
0001
0100
0100
0020
,
0030
0000
0100
0000
0100
0000
0001
0001
,
0000
0000
1000
1000
1000
1000
0000
0000
;

//---------------dance-single - ----------------
#NOTEDATA:;
#CHARTNAME:;
#STEPSTYPE:dance-single;
#DESCRIPTION:;
#CHARTSTYLE:;
#DIFFICULTY:Beginner;
#METER:1;
#RADARVALUES:0.093841,0.129885,0.029859,0.000000,0.000000,84.000000,4.000000,0.000000,0.000000,0.000000,0.000000,0.000000,0.000000,0.093841,0.129885,0.029859,0.000000,0.000000,84.000000,4.000000,0.000000,0.000000,0.000000,0.000000,0.000000,0.000000;
#CREDIT:Ben Speirs;
#DISPLAYBPM:80.000000;
#NOTES:
0000
0000
0000
0000
,
0000
0000
0000
0000
,
0000
0000
0000
0000
,
0100
0000
0010
0000
,
1000
1000
0000
0000
,
0001
0001
0000
0000
,
0100
0100
0100
0000
,
0010
0000
0000
0000
,
1001
0000
1000
0000
,
0010
0010
0010
0000
,
0100
0000
0001
0000
,
1000
1000
1000
0000
,
0010
0000
1000
0000
,
0001
0001
0001
0000
,
0100
0000
0000
0000
,
0010
0000
0000
0000
,
1000
0000
1000
0000
,
0100
0000
0100
0000
,
1000
0000
1000
0000
,
0001
0000
0001
0000
,
0000
0100
0000
0100
,
0000
0010
0000
0010
,
0000
1000
0000
1000
,
0000
0000
0000
0000
,
0001
0000
1000
0000
,
0100
0000
0010
0000
,
0000
0001
0000
0000
0000
1000
0000
0000
,
0000
0000
0010
0010
,
0000
1000
0000
0001
,
0000
0100
0000
0001
,
0000
1000
0000
0010
,
0010
0010
0000
1000
,
0000
0100
0000
0010
,
0000
0001
0000
0100
,
0100
0100
0000
0010
,
0000
0000
0000
1001
,
0000
1000
0000
0010
,
0010
0010
0000
1001
,
0000
0001
0000
0100
,
0100
0100
0000
0010
,
0000
0010
0000
1000
,
0000
1000
0000
0001
,
0000
0001
0000
0100
,
0100
0000
0110
0000
;
