#TITLE:Oh Hai Mark;
#SUBTITLE:;
#ARTIST:MiCrowJupiter;
#TITLETRANSLIT:;
#SUBTITLETRANSLIT:;
#ARTISTTRANSLIT:;
#CREDIT:;
#BANNER:Oh Hai Mark-bn.png;
#BACKGROUND:Oh Hai Mark-bg.png;
#LYRICSPATH:;
#CDTITLE:;
#MUSIC:Oh Hai Mark.mp3;
#OFFSET:-0.530;
#SAMPLESTART:70.680;
#SAMPLELENGTH:16.360;
#SELECTABLE:YES;
#BPMS:0.000=68.000,30.000=136.000,63.000=68.000,95.000=136.000;
#STOPS:30.000=1.340
;
#BGCHANGES:7.333=Oh Hai Mark.avi=1.000=1=0=0,
99999=-nosongbg-=1.000=0=0=0 // don't automatically add -songbackground-
;

//---------------dance-single - ----------------
#NOTES:
     dance-single:
     :
     Beginner:
     1:
     0.088,0.116,0.039,0.000,0.000:
0000
0000
0000
0000
,
0000
0000
0000
0000
,
0010
0000
0000
0000
,
0010
0000
0000
0000
,
0100
0000
0100
0000
,
0010
0000
0010
0000
,
1000
0000
1000
0000
,
0001
0000
0001
0000
,
0000
0000
0000
0100
,
0100
0100
0000
0100
,
0000
0000
0000
0010
,
0000
0000
0000
1000
,
0000
0000
0000
0001
,
0000
0000
0000
1000
,
1000
1000
0000
1000
,
0000
0000
0000
0010
,
0000
0100
0000
0010
,
0010
0010
0000
1000
,
0000
0001
0000
0100
,
0100
0100
0000
0000
,
0000
1001
0000
0000
,
0000
1001
0000
0000
,
0000
1001
0000
0010
,
0010
0010
0000
0100
,
0000
0000
0000
0010
,
0000
0000
0000
1000
,
0000
1000
0000
1000
,
0000
0000
0000
0100
,
0000
0000
0000
0010
,
0000
0000
0000
0001
,
0000
0001
0000
0001
,
0000
0000
0000
0100
,
0000
0100
0000
0100
,
0000
0000
0000
0010
,
0000
0000
0000
1000
,
0000
0000
0000
0010
,
0000
0000
0000
1000
,
0000
0000
0000
0001
,
0001
0001
0001
0000
,
0000
1001
0000
0000
;

//---------------dance-single - ----------------
#NOTES:
     dance-single:
     :
     Hard:
     15:
     0.626,0.639,0.295,0.442,0.482: // measure 1
0000
0000
0000
0000
,  // measure 2
0000
0000
0000
0000
,  // measure 3
0200
0302
2003
3200
,  // measure 4
2300
3010
2002
3003
,  // measure 5
0100
0000
0010
1000
0100
0000
1000
0000
0001
0000
0100
0001
0101
0000
0010
0000
,  // measure 6
0100
0000
0001
1000
0100
0000
1000
0000
0010
0000
0100
0010
1010
0000
1000
0001
,  // measure 7
1000
0001
0100
0010
1000
0000
0100
0000
1000
0000
0001
0100
0101
0000
0010
0100
,  // measure 8
0001
0000
1000
0001
1000
0000
0100
1000
1010
0000
0000
0000
0100
0001
0100
0001
,  // measure 9
1000
0000
0000
0100
0000
0000
1000
0000
0000
0001
0000
0000
2000
3000
0000
0000
0000
0000
0020
0030
0000
0000
0000
0000
0200
0300
0000
0000
0000
0000
0002
0003
0000
0000
0000
0000
1100
0000
0000
0000
0000
0000
1001
0000
0000
0000
0000
0000
,  // measure 10
0100
0000
0000
0000
0000
0000
1000
0000
0000
0000
0000
0000
0010
0000
0000
0100
0000
0000
0002
0003
0000
0000
0000
0000
1001
0000
0000
0000
0000
0000
0101
0000
0000
0000
0000
0000
0010
0000
0000
1000
0000
0000
0010
0000
0000
0100
0000
0000
,  // measure 11
0001
0000
0000
0010
0000
0000
0100
0000
0000
1000
0000
0000
0002
0003
0000
0000
0000
0000
2000
3000
0000
0000
0000
0000
0020
0030
0000
0000
0000
0000
0200
0300
0000
0000
0000
0000
0001
0000
0000
1000
0000
0000
0001
0000
0000
0000
0000
0000
,  // measure 12
0000
0000
0100
0010
0100
0010
1000
0000
0002
0000
0103
0000
0010
1000
0100
0001
,  // measure 13
0100
0000
0000
1000
0000
0000
0010
0000
0000
0100
0000
0000
0020
0030
0000
0000
0000
0000
0200
0300
0000
0000
0000
0000
0002
0003
0000
0000
0000
0000
2000
3000
0000
0000
0000
0000
1001
0000
0000
0000
0000
0000
1100
0000
0000
0000
0000
0000
,  // measure 14
1010
0000
0000
0000
0000
0000
0101
0000
0000
0000
0000
0000
0020
0030
0000
0000
0000
0000
0200
0300
0000
0000
0000
0000
0101
0000
0000
0000
0000
0000
1001
0000
0000
0000
0000
0000
0100
0000
0000
1000
0000
0000
0010
0000
0000
0001
0000
0000
,  // measure 15
0010
0100
0010
0100
0001
0000
1001
0000
0100
0000
0110
0000
0001
1000
0001
0000
,  // measure 16
0000
0000
0100
0010
0100
0010
0000
0000
0000
0000
1001
0000
2000
0000
3010
1000
,  // measure 17
0001
0010
0001
0000
0000
0000
0000
0000
1000
0100
1000
0000
0010
0000
1000
0000
0100
0000
0010
0000
0001
0000
0000
0000
0100
0000
0010
0000
0100
0000
0001
0000
,  // measure 18
1000
0100
1000
0001
0001
1000
1000
0200
0000
0300
0000
0000
1000
0001
1000
0000
,  // measure 19
0010
1000
0100
0010
0001
1000
0001
0000
0100
0000
0010
0010
1000
0100
1000
0001
,  // measure 20
0100
0010
0100
0001
0001
1000
1000
0020
0000
0030
0000
0000
0000
1000
0001
1000
,  // measure 21
0010
0100
0000
0001
1001
0100
0100
0000
0110
0000
0000
0000
0010
1000
0100
1000
,  // measure 22
0001
0000
0100
0000
0000
0000
0010
0000
0100
0000
0000
0001
1000
0000
0000
0100
1000
0000
1000
0000
0100
0000
0100
0000
0010
0000
0001
0000
0100
0000
1000
0000
,  // measure 23
0100
0001
0000
0010
0011
0100
0100
0000
1001
0000
0000
0000
0020
0000
1030
0001
,  // measure 24
2000
0000
0000
0000
3100
0000
0000
0000
0100
0000
0010
0000
0001
0000
1000
0000
0010
0100
0010
0100
0010
0000
0000
0000
0001
0000
0000
0000
0010
0000
0000
0000
,  // measure 25
1000
0010
0001
1000
0100
1000
0001
0100
,  // measure 26
1000
0100
0010
1000
0100
0010
0001
1000
,  // measure 27
0010
0100
0001
1000
0010
0001
0010
1000
,  // measure 28
0100
1000
0001
0100
0010
0100
0001
0010
,  // measure 29
0100
1000
0010
0100
0010
1000
0100
1000
,  // measure 30
0001
0010
1000
0010
0001
1000
0100
0010
,  // measure 31
0001
0100
1000
0010
0001
0100
0010
1000
,  // measure 32
0100
0000
0010
0000
0001
0000
1000
0000
0010
0000
0000
0000
0100
0001
0100
0001
,  // measure 33
0100
0000
0000
0001
0000
0000
0100
0000
0000
0001
0000
0000
2000
3000
0000
0000
0000
0000
0002
0003
0000
0000
0000
0000
0200
0300
0000
0000
0000
0000
0002
0003
0000
0000
0000
0000
1000
0000
0000
0000
0000
0000
0100
0000
0000
0000
0000
0000
,  // measure 34
0010
0000
0000
0000
0000
0000
0001
0000
0000
0000
0000
0000
0200
0300
0000
0000
0000
0000
0002
0003
0000
0000
0000
0000
1001
0000
0000
0000
0000
0000
0101
0000
0000
0000
0000
0000
0100
0000
0000
0010
0000
0000
0100
0000
0000
0010
0000
0000
,  // measure 35
0100
0000
0000
0010
0000
0000
0100
0000
0000
0010
0000
0000
2000
3000
0000
0000
0000
0000
0020
0030
0000
0000
0000
0000
0002
0003
0000
0000
0000
0000
0020
0030
0000
0000
0000
0000
0100
0000
0000
0010
0000
0000
0100
0000
0000
0000
0000
0000
,  // measure 36
0000
0000
0001
1000
0001
1000
0010
0000
0200
0000
0310
0000
0010
0100
0001
0100
,  // measure 37
0010
0000
0000
1000
0000
0000
0100
0000
0000
0010
0000
0000
0001
0000
0000
0000
0000
0000
0100
0000
0000
0000
0000
0000
0110
0000
0000
0000
0000
0000
0101
0000
0000
0000
0000
0000
2000
3000
0000
0000
0000
0000
0020
0030
0000
0000
0000
0000
,  // measure 38
0200
0300
0000
0000
0000
0000
0002
0003
0000
0000
0000
0000
0010
0000
0000
0000
0000
0000
0001
0000
0000
0000
0000
0000
2000
3000
0000
0000
0000
0000
0020
0030
0000
0000
0000
0000
0100
0000
0000
0000
0000
0000
0110
0000
0000
0000
0000
0000
,  // measure 39
1000
0001
1001
1000
0010
0110
0010
0110
,  // measure 40
1000
0000
0100
0000
0010
0001
0100
0000
0000
0000
0000
0000
0000
0000
0000
0000
;

//---------------dance-single - ----------------
#NOTES:
     dance-single:
     :
     Medium:
     8:
     0.320,0.368,0.098,0.079,0.079:
0000
0000
0000
0000
,
0000
0000
0000
0000
,
0020
0000
0230
0000
,
0302
0000
2003
0000
,
3100
1000
0001
0100
0010
0000
0000
0000
,
0100
0000
0001
0000
1000
0000
0100
0000
1000
0000
0000
0000
0000
0000
0010
0100
,
0010
0000
1000
0000
0001
0000
0010
0000
0100
0000
0000
0000
0000
0000
0010
0001
,
1000
0000
0000
0000
0000
0000
0010
0100
0110
0000
0000
0000
0001
0000
1000
0000
,
0100
0000
0010
1000
0001
0000
1000
0000
,
0001
0000
0100
0100
0100
0000
0001
0000
,
1000
0000
0100
1000
0001
0000
1000
1000
,
0000
0001
0001
0000
0000
0000
1000
0000
,
0010
0000
0100
0010
1000
0000
0001
0000
,
1000
0000
0100
0100
0100
0000
1000
0000
,
0001
0000
0010
0001
0100
0000
0010
0100
,
0000
0000
0001
0000
1000
0010
1000
0000
0000
0000
0000
0000
2100
0000
0010
0000
,
3010
0000
1000
0001
0100
0000
0010
0100
,
0001
0000
1000
0000
0100
0010
0100
0010
0100
0000
0000
0000
0012
0000
1000
0000
,
1003
0000
0010
0100
0010
0100
0001
1000
,
0100
0000
0010
0000
0001
0100
0001
0100
0001
0000
0000
0000
0000
0100
0100
0010
,
0010
0000
1000
0000
1010
0000
0000
0000
0000
0000
0000
0000
0000
0100
0100
0001
,
0001
0000
0010
0000
0011
0000
0110
0000
1100
0000
0000
0000
1000
0000
0001
0010
,
0100
1000
0010
0000
0110
0000
0000
0000
0000
0000
0000
0000
0200
0000
0001
0000
,
0302
0000
1000
0000
1003
0010
0100
0000
0000
0000
0000
0000
0001
0000
0000
0000
,
1000
0100
1000
0000
0010
0000
1000
0000
,
0001
0100
0010
0000
0000
0000
1000
0000
,
0001
0010
0001
0000
1000
0000
0010
0000
,
0100
0001
0010
0000
0001
0000
1000
0001
,
1000
0001
0100
0000
0100
0000
0010
1000
,
0001
0000
1000
0000
0010
0100
0010
0000
,
1000
0000
0001
0000
0010
0001
0100
0000
,
0010
0000
0110
0000
0000
0000
0001
0100
,
0001
0100
0001
0000
1000
0000
0010
0000
,
1000
0000
0100
0100
1000
1000
0010
0000
,
0100
0000
0010
0100
0001
0000
1000
0001
,
0000
0100
0001
0000
0000
0000
1000
0100
,
1000
0100
1000
0000
0010
0000
0100
0000
,
0001
0000
1000
1000
0001
0001
0100
0010
,
0100
0000
0110
0000
0000
0100
0010
1000
,
0001
0000
0000
0000
1000
0001
1000
0000
0000
0000
0000
0000
0000
0000
0000
0000
;

//---------------dance-single - ----------------
#NOTES:
     dance-single:
     :
     Easy:
     4:
     0.180,0.212,0.039,0.039,0.000:
0000
0000
0000
0000
,
0000
0000
0000
0000
,
0020
0000
0000
0000
,
0230
0000
0000
0000
,
0301
0000
1000
0000
0010
0000
1000
0100
,
1000
0000
0010
0000
1000
0000
0001
0100
,
0001
0000
0010
0000
0100
0000
1000
0001
,
1000
0000
0010
0100
0010
0000
0100
0000
,
0001
1000
0000
0100
,
1000
0010
0000
1000
,
0010
0000
0100
0000
0000
0000
0001
1000
,
0000
0001
1000
0000
0000
0000
0010
0000
,
0100
0001
0000
0010
,
0001
1000
0000
0100
,
1000
0000
0010
0000
0000
0000
0100
0010
,
0000
0100
0010
0000
0000
0000
0100
0001
,
1000
0010
0100
0001
,
1000
0100
0000
1000
,
0001
0010
0001
0100
,
0010
0000
0100
0000
0000
0000
0001
0100
,
0001
0000
0101
0000
0000
0000
1000
0010
,
1000
0000
1010
0000
0000
0000
0100
0010
,
0100
0110
0000
0002
,
0003
2000
3000
0010
,
1000
0100
1000
0001
,
0000
0000
0000
1000
,
0001
0010
0001
0100
,
0000
0000
0000
0010
,
0100
0010
1000
0100
,
0000
0000
1000
0001
,
0000
0000
0100
0010
,
0000
0000
0000
0100
,
0001
1000
0000
0010
,
0010
0010
0000
1000
,
0010
0000
0100
0000
0000
0000
0001
0100
,
0000
0001
0100
0000
0000
0000
0010
0000
,
0100
0001
0000
0010
,
0100
0000
1000
0000
0000
0000
0010
0100
,
0000
0000
0010
0000
0000
0100
0000
0010
,
0000
0110
0000
0000
;
