#VERSION:0.82;
#TITLE:Hold Back The River;
#SUBTITLE:;
#ARTIST:James Bay;
#TITLETRANSLIT:;
#SUBTITLETRANSLIT:;
#ARTISTTRANSLIT:;
#GENRE:It's a Metaphor;
#ORIGIN:;
#CREDIT:;
#BANNER:Hold Back The River.png;
#BACKGROUND:Hold Back The River-bg.png;
#PREVIEWVID:;
#JACKET:jacket.png;
#CDIMAGE:;
#DISCIMAGE:;
#LYRICSPATH:;
#CDTITLE:;
#MUSIC:Hold Back The River.ogg;
#OFFSET:-0.263000;
#SAMPLESTART:60.531059;
#SAMPLELENGTH:13.714000;
#SELECTABLE:YES;
#BPMS:0.000=135.000;
#STOPS:;
#DELAYS:;
#WARPS:;
#TIMESIGNATURES:0.000=4=4;
#TICKCOUNTS:0.000=4;
#COMBOS:0.000=1;
#SPEEDS:0.000=1.000=0.000=0;
#SCROLLS:0.000=1.000;
#FAKES:;
#LABELS:0.000=Song Start;
#BGCHANGES:8.500=Hold Back The River.avi=1.000=0=0=1=====,
99999=-nosongbg-=1.000=0=0=0 // don't automatically add -songbackground-
;
#KEYSOUNDS:;
#ATTACKS:
;

//---------------dance-single - ----------------
#NOTEDATA:;
#CHARTNAME:;
#STEPSTYPE:dance-single;
#DESCRIPTION:;
#CHARTSTYLE:;
#DIFFICULTY:Hard;
#METER:7;
#RADARVALUES:0.465352,0.523700,0.183754,0.217164,0.000000,342.000000,22.000000,26.000000,0.000000,0.000000,0.000000,0.000000,0.000000,0.465352,0.523700,0.183754,0.217164,0.000000,342.000000,22.000000,26.000000,0.000000,0.000000,0.000000,0.000000,0.000000;
#CREDIT:Ben Speirs;
#NOTES:
0000
0000
0000
0000
,
0000
0000
0000
0000
,
0000
0000
0000
0000
,
0000
0000
0000
0000
,
1000
0000
0001
0000
0100
0010
0000
0010
,
0100
0000
0001
0000
1000
0100
0000
0100
,
1000
0000
0001
0000
1000
0010
0000
0010
,
0100
0000
0001
0000
1000
0001
0000
0000
,
0011
0000
1000
0000
0001
0100
0010
0000
,
1000
0100
2000
0000
3001
0000
0000
0000
,
1100
0000
0001
0000
1000
0010
0100
0000
,
0001
0010
0002
0000
1003
0000
0000
0000
,
0110
0000
0001
0000
1000
0100
0010
0000
,
0001
1000
0002
0000
0103
0000
0000
0000
,
0110
0000
1000
0000
0100
0010
0001
0100
,
0010
1000
0010
1000
0000
0000
0000
0000
,
0001
0000
1000
0010
1000
0002
0000
0200
,
0000
0000
0000
0303
,
0001
0000
1100
0000
0001
1000
0010
1000
,
0001
0000
0110
0000
0001
0100
0010
1000
,
0100
0000
0110
0000
0010
0001
1000
0010
,
0100
0000
0101
0000
1000
1100
0000
0001
,
0200
0000
0310
0000
0100
0001
1000
0100
,
0020
0000
0130
0000
0010
0001
1000
0000
,
0110
0000
0001
0100
0010
1000
0000
2002
,
0000
3003
1000
0100
0010
0001
0000
0100
,
0100
0000
0001
1000
1000
0000
0100
1000
,
0001
0000
0010
0100
0100
0000
0010
0001
,
1000
0000
0010
0100
0100
0000
0010
1000
,
0001
0000
0010
0100
0100
0000
0010
0001
,
1000
0010
0100
0001
1000
0100
0000
1000
,
0001
1000
0010
0100
0001
0010
0100
0000
,
0120
0000
0031
0000
1000
0002
0000
0103
,
0020
0000
1030
0000
0001
0100
1000
1001
,
0000
0110
0000
1000
0100
0010
0001
1000
,
0010
1000
0200
0000
0320
0000
0031
1001
,
0000
0110
0000
0001
0010
0100
1000
0001
,
0200
0000
0310
0000
1000
0001
0010
0011
,
0000
1100
0000
1000
0100
0010
0001
0100
,
1000
0100
0002
0000
1003
0000
0100
0010
,
0000
0010
0000
0001
0100
1000
0000
1010
,
0000
0202
0000
0303
0000
1000
0001
0010
,
0000
0010
0000
0001
0010
0010
0001
0100
,
0010
1000
0001
0010
0100
1000
0001
0100
,
0000
0100
0000
0001
0100
0100
0010
1000
,
0200
0000
0320
0000
0032
0000
0003
1000
,
0000
1000
0000
0100
1000
1000
0010
1000
,
0100
0010
0001
1000
0010
0100
0001
0010
,
0000
0010
0000
0001
0010
0010
0100
1000
,
0001
0101
0000
0000
1000
0001
1000
0001
,
0100
0000
0001
0010
0000
0100
1000
0000
,
0001
0100
0000
0010
1000
0100
0010
0001
,
1000
0000
0010
0100
0000
0001
1000
0000
,
0100
0010
0000
0001
0010
0100
1000
0001
,
0100
0000
0010
1000
0000
0100
0010
0000
,
0001
1000
0000
0010
1000
0100
0010
0001
,
1000
0000
0010
0100
0000
0001
1000
0000
,
0100
0010
0000
0001
1000
0010
0100
0000
,
0001
0100
0001
1000
0100
1000
0001
0100
,
0001
1000
0100
1000
0002
0000
1003
0000
,
1000
0010
1000
0001
0010
0001
1000
0010
,
1000
0001
0010
0001
0200
0000
0320
0000
,
1030
0100
0010
0001
0100
0010
1000
0001
,
0010
0100
1000
0001
0100
0010
1000
0000
,
0202
0000
0000
0000
,
0000
0000
0000
0000
,
0303
0000
0000
0000
;

//---------------dance-single - ----------------
#NOTEDATA:;
#CHARTNAME:;
#STEPSTYPE:dance-single;
#DESCRIPTION:;
#CHARTSTYLE:;
#DIFFICULTY:Medium;
#METER:4;
#RADARVALUES:0.274438,0.385884,0.033410,0.116935,0.000000,212.000000,4.000000,14.000000,0.000000,0.000000,0.000000,0.000000,0.000000,0.274438,0.385884,0.033410,0.116935,0.000000,212.000000,4.000000,14.000000,0.000000,0.000000,0.000000,0.000000,0.000000;
#CREDIT:Ben Speirs;
#NOTES:
0000
0000
0000
0000
,
0000
0000
0000
0000
,
0000
0000
0000
0000
,
0000
0000
0000
0000
,
0001
1000
0100
0000
,
1000
0001
0100
0000
,
0010
0000
0010
0000
1000
0001
0000
0010
,
0000
0000
0000
0000
,
0011
0100
0001
1000
,
0100
0100
0100
0000
,
1100
1000
0010
0100
,
0001
0001
0001
0000
,
0110
0001
0010
0100
,
1000
1000
1000
0000
,
0010
1000
0001
0000
,
0010
0001
1000
0000
,
0010
0000
1000
0000
0001
0100
0000
0001
,
0000
0000
0000
0000
,
1000
0000
0001
0000
0000
0100
0000
0001
,
0000
0000
1000
0000
0000
0001
0000
1000
,
0000
0000
0100
0000
0000
1000
0000
0010
,
0000
0000
1000
0000
0000
0001
0000
0010
,
0000
0000
0001
0000
0000
1000
0000
0010
,
0000
0000
0100
0000
0001
1000
0001
0000
,
0100
0010
1000
0001
,
0100
0000
0000
0000
,
0001
0000
1000
0000
0000
0100
0000
0010
,
0000
0000
0001
0000
0000
0010
0000
0001
,
0000
0000
1000
0000
0000
0010
0000
1000
,
0000
0000
0100
0000
0000
1000
0000
0001
,
0000
0000
0100
0000
0000
0010
0000
0100
,
0000
0000
0001
0000
1000
0100
1000
0000
,
0001
0001
1000
0010
,
0100
0000
0000
0000
0000
0001
1000
0001
,
0000
0001
0000
0000
1000
0000
1000
0000
,
0100
1000
0001
0000
1000
0000
0000
0010
,
0000
0010
0000
0000
1000
0000
0001
0000
,
0100
0000
0010
0000
1000
0000
0000
0001
,
0000
0001
0000
0000
1000
0100
1000
0000
,
0010
0000
1000
0000
0001
0000
0000
0100
,
0000
0100
0000
0000
0001
1000
0000
0100
,
0000
0100
0000
0000
0000
0000
0000
1000
,
0000
1000
0000
0000
0001
0000
0001
0000
,
0010
0001
1000
0000
0001
0000
0000
0100
,
0000
0100
0000
0000
0001
0000
1000
0000
,
0010
0000
0100
0000
0001
0000
0000
1000
,
0000
1000
0000
0000
0001
0010
0001
0000
,
0100
0000
0001
0000
1000
0000
0000
0010
,
0000
0010
0000
0000
1000
0001
0000
0010
,
0000
0010
0000
0000
0001
1000
0001
1000
,
0200
0000
0000
1300
0000
0000
0002
0000
,
0000
0103
0000
0000
0010
0000
1000
0000
,
0200
0000
0000
0310
0000
0000
0002
0000
,
0000
1003
0000
0000
0020
0000
2030
0000
,
3002
0000
0000
1003
0000
0000
0200
0000
,
0000
0310
0000
0000
0001
0000
1000
0000
,
0020
0000
0000
1030
0000
0000
0002
0000
,
0000
0013
0000
0000
0200
0000
2300
0000
,
3001
0001
0000
1000
1000
0000
0010
0010
,
0000
1000
1000
0000
0001
0000
1000
0000
,
0100
0100
0000
0010
0010
0000
0001
0001
,
0000
1000
1000
0000
0010
0000
0100
0000
,
0001
0001
0000
1000
1000
0000
0100
0100
,
0000
0010
0010
0000
0001
0000
1000
0000
,
0220
0000
0000
0000
,
0000
0000
0000
0000
,
0330
0000
0000
0000
;

//---------------dance-single - ----------------
#NOTEDATA:;
#CHARTNAME:;
#STEPSTYPE:dance-single;
#DESCRIPTION:;
#CHARTSTYLE:;
#DIFFICULTY:Easy;
#METER:2;
#RADARVALUES:0.176595,0.248068,0.108582,0.016705,0.000000,133.000000,13.000000,2.000000,0.000000,0.000000,0.000000,0.000000,0.000000,0.176595,0.248068,0.108582,0.016705,0.000000,133.000000,13.000000,2.000000,0.000000,0.000000,0.000000,0.000000,0.000000;
#CREDIT:Ben Speirs;
#NOTES:
0000
0000
0000
0000
,
0000
0000
0000
0000
,
0000
0000
0000
0000
,
0000
0000
0000
0000
,
1000
0000
0001
0000
,
0100
0000
0010
0000
,
1000
0000
0100
0100
,
0100
0000
0000
0000
,
1001
0000
0100
0000
,
0010
0010
0010
0000
,
1001
0000
0010
0000
,
0100
0100
0100
0000
,
0110
0000
0001
0000
,
1000
1000
1000
0000
,
0110
0000
1000
0000
,
0001
0001
0001
0000
,
0010
0000
0100
0000
,
1000
0000
0000
0000
,
0001
0001
0000
0100
,
0000
0010
0000
1000
,
1000
1000
0000
0100
,
0000
1000
0000
0001
,
0001
0001
0000
0100
,
0000
0010
0000
1000
,
1000
1000
0000
0001
,
0001
0000
0000
0000
,
0010
0000
0000
0100
,
0100
0000
0000
1000
,
1000
0000
0000
0001
,
0001
0000
0000
0100
,
0100
0000
0000
0010
,
0010
0000
0000
0000
,
1000
0000
0100
0000
,
0010
0000
0000
0000
,
1001
1001
0000
0000
,
0100
0100
0100
0000
,
1001
1001
0000
0000
,
0010
0000
1000
0000
,
1001
1001
0000
0000
,
0100
0100
0100
0000
,
1001
1001
0000
0000
,
0010
0010
0000
0000
,
0001
0001
0001
0000
,
0100
0000
0010
0000
,
1000
1000
1000
0000
,
0001
0000
1000
0000
,
0100
0100
0100
0000
,
0010
0010
0010
0000
,
0001
0000
1000
0000
,
0010
0000
0000
0000
,
1000
0000
0001
0000
,
0100
0000
0010
0000
,
1000
0000
0100
0000
,
0010
0000
0001
0001
,
0001
0000
1000
0000
,
0010
0000
1000
0000
,
0001
0000
0010
0000
,
0100
0000
1000
1000
,
1000
0000
0010
0000
,
1000
0000
0001
0000
,
0010
0000
0001
0000
,
1000
0000
0100
0100
,
0100
0000
0010
0000
,
0001
0000
1000
0000
,
2002
0000
0000
0000
,
0000
0000
0000
0000
,
3003
0000
0000
0000
;

//---------------dance-single - ----------------
#NOTEDATA:;
#CHARTNAME:;
#STEPSTYPE:dance-single;
#DESCRIPTION:;
#CHARTSTYLE:;
#DIFFICULTY:Beginner;
#METER:1;
#RADARVALUES:0.110969,0.160368,0.041762,0.000000,0.000000,88.000000,5.000000,0.000000,0.000000,0.000000,0.000000,0.000000,0.000000,0.110969,0.160368,0.041762,0.000000,0.000000,88.000000,5.000000,0.000000,0.000000,0.000000,0.000000,0.000000,0.000000;
#CREDIT:Ben Speirs;
#NOTES:
0000
0000
0000
0000
,
0000
0000
0000
0000
,
0000
0000
0000
0000
,
0000
0000
0000
0000
,
1000
0000
0000
0000
,
0001
0000
0000
0000
,
0010
0000
0010
0000
,
0010
0000
0000
0000
,
1001
0000
0000
0000
,
0100
0000
0000
0000
,
1001
0000
0000
0000
,
0010
0000
0000
0000
,
1001
0000
0000
0000
,
1000
0000
0000
0000
,
1001
0000
0000
0000
,
0001
0000
0000
0000
,
0010
0000
0010
0000
,
0010
0000
0000
0000
,
0100
0000
0000
0000
,
1000
0000
0000
0000
,
0001
0000
0000
0000
,
1000
0000
0000
0000
,
0010
0000
0000
0000
,
0100
0000
0000
0000
,
0001
0000
0001
0000
,
0001
0000
0000
0000
,
0010
0000
0000
0000
,
0100
0000
0000
0000
,
1000
0000
0000
0000
,
0001
0000
0000
0000
,
1000
0000
0000
0000
,
0010
0000
0000
0000
,
0100
0000
0100
0000
,
0100
0000
0000
0000
,
0001
0001
0000
0000
,
1000
0000
0000
0000
,
0100
0100
0000
0000
,
0010
0000
0000
0000
,
0001
0001
0000
0000
,
0100
0000
0000
0000
,
0010
0010
0000
0000
,
1000
1000
0000
0000
,
0100
0100
0000
0000
,
0010
0000
0000
0000
,
0001
0001
0000
0000
,
0100
0000
0000
0000
,
0010
0010
0000
0000
,
1000
0000
0000
0000
,
0100
0100
0000
0000
,
1000
1000
0000
0000
,
0001
0000
0001
0000
,
0001
0000
0000
0000
,
1000
0000
1000
0000
,
1000
0000
0010
0010
,
0010
0000
0010
0000
,
0010
0000
0000
0000
,
0100
0000
0100
0000
,
0100
0000
0001
0001
,
0001
0000
1000
0000
,
0100
0000
0000
0000
,
1000
0000
0001
0000
,
0100
0000
0010
0010
,
0010
0000
1000
0000
,
0001
0000
0000
0000
,
1001
0000
0000
0000
;

//---------------dance-double - ----------------
#NOTEDATA:;
#CHARTNAME:;
#STEPSTYPE:dance-double;
#DESCRIPTION:;
#CHARTSTYLE:;
#DIFFICULTY:Challenge;
#METER:7;
#RADARVALUES:0.452227,0.494258,0.192107,0.334099,0.000000,316.000000,23.000000,40.000000,0.000000,0.000000,0.000000,0.000000,0.000000,0.452227,0.494258,0.192107,0.334099,0.000000,316.000000,23.000000,40.000000,0.000000,0.000000,0.000000,0.000000,0.000000;
#CREDIT:Ben Speirs;
#NOTES:
// measure 0
00000000
00000000
00000000
00000000
,  // measure 1
00000000
00000000
00000000
00000000
,  // measure 2
00000000
00000000
00000000
00000000
,  // measure 3
00000000
00000000
00000000
00000000
,  // measure 4
10000000
00000000
00010000
00000000
01000000
01000000
00000000
00000000
,  // measure 5
00010000
00000000
10000000
00000000
00100000
00100000
00000000
00000000
,  // measure 6
10000000
00000000
01000000
00000000
00100000
00020000
00000000
02030000
,  // measure 7
00000000
03001000
00010000
00001000
,  // measure 8
00001100
00000000
00000010
00000000
00001000
00000100
00000010
00000000
,  // measure 9
00000001
00001000
00000001
00000000
00000100
00000000
00000000
00000000
,  // measure 10
00000101
00000000
00000010
00000000
00001000
00000100
00000010
00000000
,  // measure 11
00000002
00002003
00003200
00000300
,  // measure 12
00010100
00000000
00001000
00000000
00010000
00000100
00010000
00000000
,  // measure 13
00001000
00100000
00010000
00000000
,  // measure 14
00110000
00000000
11000000
00000000
00010000
00000000
10000000
00100000
,  // measure 15
01000000
00100000
01000000
00010000
00000000
00000000
00000000
00000000
,  // measure 16
10100000
00000000
00010000
00000000
10000000
02000000
00000000
03200000
,  // measure 17
00000000
00000000
00010000
00000000
00000000
00310000
00000000
00000000
,  // measure 18
00110000
00000000
10000000
00000000
00010000
00100000
00000000
01000000
,  // measure 19
10000000
00000000
00100000
00000000
10000000
00010000
00000000
01000000
,  // measure 20
01000000
00000000
00100000
00000000
10000000
01000000
00000000
00100000
,  // measure 21
00010000
00000000
10000000
00000000
00010000
00100000
00001000
00010000
,  // measure 22
00000100
00000000
00001000
00000000
00000010
00001000
00000000
00001000
,  // measure 23
00000001
00000000
00000100
00000000
00000010
00001000
00000000
00000001
,  // measure 24
00000002
00000000
00000103
00000000
00000010
00001000
00000100
00002000
,  // measure 25
00000000
00000000
00003001
00000000
00001000
00000010
00000000
00000000
,  // measure 26
00000101
00000000
00001100
00000000
00000001
00000010
00000100
00000000
,  // measure 27
00001000
00000000
00001010
00000000
00000001
00001000
00000010
00000100
,  // measure 28
00000002
00000000
00001003
00000000
00000100
00010000
00001000
00000000
,  // measure 29
00020100
00000000
00031000
00000000
00001000
00010000
00100000
00010000
,  // measure 30
00200000
00000000
10300000
00000000
00100000
10000000
01000000
00000000
,  // measure 31
21000000
00000000
30010000
00000000
10000000
01000000
00100000
00000000
,  // measure 32
00010000
10000000
00010000
10000000
00010000
10000000
00000000
01020000
,  // measure 33
00000000
00000000
10030000
00000000
00010000
00100000
01000000
10000000
,  // measure 34
00010000
01000000
10000000
01000000
00010000
00100000
01000000
10000000
,  // measure 35
00100000
01000000
00020000
00000000
00130000
00000000
00010000
00100000
,  // measure 36
00001000
00010000
00000010
00001000
00000100
00000010
00000001
00001000
,  // measure 37
00000020
00000000
00000230
00000000
00000302
00000000
00001003
00000020
,  // measure 38
00000000
00000230
00000000
00000310
00001000
00000100
00000010
00000001
,  // measure 39
00001000
00000001
00001000
00000010
00000100
00000000
00000001
00002000
,  // measure 40
00000000
00003200
00000000
00010300
00001000
00200000
00000000
00302000
,  // measure 41
00000000
00020000
00000000
00033000
00000000
00001000
00010000
00011000
,  // measure 42
00000000
00101000
00000000
00100000
00010000
01000000
00100000
10000000
,  // measure 43
01000000
00100000
00010000
01000000
00001000
00100000
00001000
00011000
,  // measure 44
00000000
00010010
00000000
00010000
00001000
00000010
00000001
00000100
,  // measure 45
00000020
00000000
00002030
00000000
00003001
00000100
00000010
00001000
,  // measure 46
00000010
00001000
00000010
00000100
00000001
00000100
00000001
00000010
,  // measure 47
00000100
00001000
00000020
00000000
00010030
00000000
00000000
00010010
,  // measure 48
00000000
00010100
00000000
00000100
00010000
00001000
00000000
00011000
,  // measure 49
00000000
00101000
00000000
00000000
00100000
00010000
10000000
00000000
,  // measure 50
10100000
00000000
10000000
01000000
00000000
00100000
00010000
00000000
,  // measure 51
10000000
00200000
00000000
00000000
01300000
00010000
10000000
00000000
,  // measure 52
00010000
00000000
00100000
01000000
00000000
10000000
00100000
00000000
,  // measure 53
01000000
00010000
00000000
10000000
01000000
00010000
00001000
00000100
,  // measure 54
00000002
00000000
00001003
00000200
00000000
00000310
00000002
00000000
,  // measure 55
00000103
00000020
00000000
00000000
00001030
00000000
00000001
00000000
,  // measure 56
00001000
00000200
00000000
00000320
00000000
00000000
00000032
00000000
,  // measure 57
00000000
00002003
00000000
00000000
00003010
00001000
00000001
00000000
,  // measure 58
00001000
00000100
00001000
00000001
00000100
00000001
00001000
00000100
,  // measure 59
00000010
00000002
00000000
00000000
00001003
00000000
00001010
00000000
,  // measure 60
00000001
00000100
00000000
00000100
00001000
00000000
00001000
00010000
,  // measure 61
00000000
00010000
01000000
10000000
00010000
10000000
00010000
00000000
,  // measure 62
10000000
00100000
01000000
00010000
00100000
01000000
10000000
00100000
,  // measure 63
02000000
00000000
03010000
00000000
10000000
01000000
00100000
00010000
,  // measure 64
20000000
00000000
00000000
00000000
,  // measure 65
00000000
00000000
00000000
30000000
;
